osu file format v14

[General]
AudioFilename: .mp3
AudioLeadIn: 0
PreviewTime: 181970
Countdown: 0
SampleSet: Soft
StackLeniency: 0.7
Mode: 0
LetterboxInBreaks: 0
WidescreenStoryboard: 1

[Editor]
DistanceSpacing: 1
BeatDivisor: 4
GridSize: 8
TimelineZoom: 0.9

[Metadata]
Title:Hikaru nara
TitleUnicode:光るなら
Artist:Goose house
ArtistUnicode:Goose house
Creator:GGFFQQ55
Version:Insane
Source:四月は君の嘘
Tags:Shigatsu wa Kimi no Uso
BeatmapID:647139
BeatmapSetID:246369

[Difficulty]
HPDrainRate:7
CircleSize:4
OverallDifficulty:7
ApproachRate:9
SliderMultiplier:1.9
SliderTickRate:1

[Events]
//Background and Video events
0,0,"004.jpg",0,0
//Break Periods
2,170170,176870
//Storyboard Layer 0 (Background)
//Storyboard Layer 1 (Fail)
//Storyboard Layer 2 (Pass)
//Storyboard Layer 3 (Foreground)
//Storyboard Sound Samples

[TimingPoints]
470,375,4,2,1,100,1,0
470,-133.333333333333,4,2,1,45,0,0
3470,-133.333333333333,4,2,1,60,0,0
4970,-100,4,2,1,60,0,0
15845,-100,4,2,1,30,0,0
16032,-100,4,2,1,40,0,0
16220,-100,4,2,1,50,0,0
16407,-100,4,2,1,60,0,0
16595,-100,4,2,1,70,0,0
16970,-100,4,2,1,55,0,0
40970,-100,4,2,1,60,0,0
48470,-133.333333333333,4,2,1,60,0,0
55970,-100,4,2,1,70,0,1
81470,-133.333333333333,4,2,1,60,0,0
96470,-100,4,2,1,60,0,0
96845,-133.333333333333,4,2,1,60,0,0
120470,-100,4,2,1,60,0,1
145970,-133.333333333333,4,2,1,60,0,0
163970,-133.333333333333,4,2,1,65,0,0
181970,-100,4,2,1,60,0,1
207470,-133.333333333333,4,2,1,60,0,0

[HitObjects]
96,152,470,5,2,0:0:0:0:
192,192,657,1,0,0:0:0:0:
232,96,845,1,0,0:0:0:0:
136,56,1032,1,2,0:0:0:0:
96,152,1407,5,0,0:0:0:0:
192,192,1595,1,0,0:0:0:0:
232,96,1782,1,2,0:0:0:0:
136,56,2157,5,2,0:0:0:0:
96,152,2345,1,0,0:0:0:0:
192,192,2532,1,2,0:0:0:0:
232,96,3282,1,0,0:0:0:0:
232,96,3376,1,0,0:0:0:0:
232,96,3470,6,0,L|312:64,1,71.2500027179719,6|0,0:0|0:0,0:0:0:0:
456,88,3845,2,0,L|389:114,1,71.2500027179719,12|0,0:0|0:0,0:0:0:0:
288,232,4220,2,0,L|368:200,1,71.2500027179719,6|0,0:0|0:0,0:0:0:0:
432,272,4595,1,8,0:0:0:0:
432,304,4688,1,0,0:0:0:0:
432,336,4782,1,0,0:0:0:0:
432,336,4970,6,0,P|360:360|304:352,1,95,2|0,0:0|0:0,0:0:0:0:
256,312,5345,2,0,L|144:312,1,95,8|0,0:0|0:0,0:0:0:0:
21,193,5720,1,0,0:0:0:0:
135,140,5907,1,0,0:0:0:0:
104,224,6095,1,8,0:0:0:0:
40,72,6282,1,0,0:0:0:0:
40,72,6470,6,0,P|88:40|144:32,1,95,2|0,0:0|0:0,0:0:0:0:
288,119,6845,2,0,P|241:118|200:96,1,95,8|0,0:0|0:0,0:0:0:0:
264,32,7220,1,0,0:0:0:0:
352,56,7407,1,0,0:0:0:0:
376,144,7595,1,8,0:0:0:0:
256,288,7782,1,0,0:0:0:0:
256,288,7970,6,0,P|136:320|40:344,1,190,2|8,0:0|0:0,0:0:0:0:
8,272,8532,1,0,0:0:0:0:
56,192,8720,2,0,P|80:136|80:80,1,95
144,32,9095,2,0,P|200:32|264:64,1,95,8|0,0:0|0:0,0:0:0:0:
352,200,9470,5,2,0:0:0:0:
336,296,9657,1,0,0:0:0:0:
264,232,9845,1,8,0:0:0:0:
368,112,10032,1,0,0:0:0:0:
424,264,10220,1,0,0:0:0:0:
248,320,10407,1,0,0:0:0:0:
192,168,10595,1,8,0:0:0:0:
256,72,10782,1,0,0:0:0:0:
256,72,10876,1,0,0:0:0:0:
256,72,10970,6,0,P|208:48|136:72,1,95,2|0,0:0|0:0,0:0:0:0:
104,120,11345,1,8,0:0:0:0:
24,72,11532,1,0,0:0:0:0:
24,256,11720,2,0,L|120:304,1,95
168,376,12095,1,0,0:0:0:0:
256,336,12282,1,0,0:0:0:0:
312,264,12470,6,0,P|336:168|432:96,1,190,2|8,0:0|0:0,0:0:0:0:
240,136,13032,2,0,P|176:176|120:80,1,190
232,136,13595,1,8,0:0:0:0:
112,104,13782,1,0,0:0:0:0:
112,72,13876,1,0,0:0:0:0:
112,40,13969,5,2,0:0:0:0:
16,88,14157,1,0,0:0:0:0:
112,72,14532,5,0,0:0:0:0:
16,168,14720,1,0,0:0:0:0:
112,104,15095,5,0,0:0:0:0:
16,248,15282,2,0,P|72:312|184:336,1,190
256,272,15845,2,0,L|360:256,1,95
432,208,16220,1,8,0:0:0:0:
456,64,16407,1,8,0:0:0:0:
384,128,16595,1,8,0:0:0:0:
280,32,16782,1,8,0:0:0:0:
136,48,16970,6,0,P|64:112|48:224,1,190,6|0,0:0|0:0,0:0:0:0:
104,272,17532,2,0,P|88:320|48:360,2,95
176,208,18095,1,0,0:0:0:0:
280,208,18282,1,0,0:0:0:0:
280,208,18470,6,0,P|344:248|392:352,1,190,2|0,0:0|0:0,0:0:0:0:
288,312,19032,1,0,0:0:0:0:
432,192,19220,1,0,0:0:0:0:
464,104,19407,1,0,0:0:0:0:
368,120,19595,1,0,0:0:0:0:
296,56,19782,1,0,0:0:0:0:
296,56,19876,1,0,0:0:0:0:
296,56,19970,6,0,P|200:16|80:48,1,190,2|0,0:0|0:0,0:0:0:0:
32,72,20532,2,0,P|48:144|48:184,1,95
56,264,20907,2,0,P|128:232|160:200,1,95
176,136,21282,1,0,0:0:0:0:
176,136,21470,6,0,P|248:208|248:328,1,190,2|0,0:0|0:0,0:0:0:0:
200,360,22032,1,0,0:0:0:0:
392,336,22220,1,0,0:0:0:0:
472,280,22407,1,0,0:0:0:0:
448,192,22595,1,0,0:0:0:0:
352,192,22782,1,0,0:0:0:0:
352,192,22876,1,0,0:0:0:0:
352,192,22970,6,0,P|376:104|480:32,1,190,2|0,0:0|0:0,0:0:0:0:
448,192,23532,1,0,0:0:0:0:
448,192,23720,2,0,L|472:296,1,95
384,328,24095,2,0,L|320:256,1,95
232,224,24470,6,0,L|240:328,1,95,2|0,0:0|0:0,0:0:0:0:
144,320,24845,2,0,L|40:272,1,95
32,192,25220,1,0,0:0:0:0:
40,96,25407,1,0,0:0:0:0:
120,152,25595,1,0,0:0:0:0:
40,96,25782,1,0,0:0:0:0:
40,96,25970,6,0,P|112:56|248:64,1,190,2|0,0:0|0:0,0:0:0:0:
296,104,26532,1,0,0:0:0:0:
368,248,26720,1,0,0:0:0:0:
448,152,26907,1,0,0:0:0:0:
456,240,27095,1,0,0:0:0:0:
456,240,27470,5,2,0:0:0:0:
432,352,27657,1,0,0:0:0:0:
368,248,27845,1,0,0:0:0:0:
448,152,28032,1,0,0:0:0:0:
456,240,28220,1,0,0:0:0:0:
304,120,28407,2,0,P|224:64|112:64,1,190
56,112,28876,2,0,L|112:72,1,47.5,0|2,0:0|0:0,0:0:0:0:
96,88,29345,5,0,0:0:0:0:
176,136,29532,1,0,0:0:0:0:
96,184,29720,1,0,0:0:0:0:
16,136,29907,5,0,0:0:0:0:
176,48,30095,1,0,0:0:0:0:
176,232,30282,1,0,0:0:0:0:
24,304,30470,6,0,P|0:200|64:96,1,190,2|0,0:0|0:0,0:0:0:0:
104,64,31032,1,0,0:0:0:0:
200,88,31220,2,0,P|248:64|288:8,2,95
184,184,31782,1,0,0:0:0:0:
184,184,31876,1,0,0:0:0:0:
184,184,31970,6,0,P|280:168|360:80,1,190,2|0,0:0|0:0,0:0:0:0:
392,24,32532,2,0,P|432:56|440:120,1,95
432,192,32907,1,0,0:0:0:0:
360,344,33095,1,0,0:0:0:0:
256,208,33282,1,0,0:0:0:0:
352,256,33470,6,0,L|168:360,1,190,2|0,0:0|0:0,0:0:0:0:
96,336,34032,1,0,0:0:0:0:
32,176,34220,1,0,0:0:0:0:
48,80,34407,1,0,0:0:0:0:
120,144,34595,1,0,0:0:0:0:
160,232,34782,1,0,0:0:0:0:
160,232,34876,1,0,0:0:0:0:
160,232,34970,6,0,P|216:160|176:56,1,190,2|0,0:0|0:0,0:0:0:0:
120,16,35532,1,0,0:0:0:0:
48,80,35720,2,0,L|32:184,2,95
120,16,36282,1,0,0:0:0:0:
152,16,36376,1,0,0:0:0:0:
184,24,36470,6,0,P|256:80|296:184,1,190,2|0,0:0|0:0,0:0:0:0:
264,256,37032,1,0,0:0:0:0:
184,312,37220,1,0,0:0:0:0:
88,304,37407,1,0,0:0:0:0:
176,272,37595,1,0,0:0:0:0:
264,304,37782,1,0,0:0:0:0:
352,272,37970,5,2,0:0:0:0:
448,112,38157,2,0,L|384:216,1,95
352,272,38720,1,0,0:0:0:0:
240,112,39095,2,0,L|304:216,1,95
352,272,39470,5,2,0:0:0:0:
320,360,39657,1,0,0:0:0:0:
256,288,39845,1,0,0:0:0:0:
192,360,40032,1,0,0:0:0:0:
152,256,40220,1,0,0:0:0:0:
72,304,40407,1,0,0:0:0:0:
104,160,40595,1,0,0:0:0:0:
8,176,40782,1,0,0:0:0:0:
257,54,40970,6,4,P|305:55|352:48,1,95,6|0,0:0|0:0,0:0:0:0:
56,216,41532,2,0,P|78:125|149:64,1,190
256,224,42095,1,0,0:0:0:0:
172,178,42282,1,0,0:0:0:0:
224,312,42470,5,0,0:0:0:0:
307,357,42657,1,0,0:0:0:0:
472,160,43032,2,0,P|449:250|378:311,1,190
224,312,43595,1,0,0:0:0:0:
172,178,43970,6,0,L|256:224,1,95,2|0,0:0|0:0,0:0:0:0:
395,160,44345,1,0,0:0:0:0:
174,179,44532,1,0,0:0:0:0:
264,200,44720,1,0,0:0:0:0:
378,98,44907,1,0,0:0:0:0:
170,178,45095,1,0,0:0:0:0:
272,176,45282,1,0,0:0:0:0:
336,48,45470,6,0,B|392:48|424:24|424:24|472:56|480:112,1,190,2|0,0:0|0:0,0:0:0:0:
478,282,46032,2,0,B|472:328|424:360|424:360|392:336|336:336,1,190
280,216,46595,1,0,0:0:0:0:
200,304,46782,1,2,0:0:0:0:
200,304,46876,1,2,0:0:0:0:
200,304,46970,5,2,0:0:0:0:
112,224,47157,1,0,0:0:0:0:
120,128,47345,2,0,P|112:56|80:0,1,95
248,144,47720,1,0,0:0:0:0:
344,160,47907,1,0,0:0:0:0:
424,104,48095,2,0,P|448:56|456:8,1,95
480,184,48470,6,0,L|488:264,1,71.2500027179719,2|0,0:0|0:0,0:0:0:0:
357,330,48845,2,0,L|384:264,1,71.2500027179719
248,288,49220,2,0,L|184:344,1,71.2500027179719
50,271,49595,2,0,L|120:256,1,71.2500027179719
72,152,49970,5,2,0:0:0:0:
440,152,50345,1,0,0:0:0:0:
144,104,50720,2,0,L|184:24,1,71.2500027179719
336,40,51095,2,0,L|368:104,1,71.2500027179719
256,200,51470,5,2,0:0:0:0:
256,344,51845,2,0,L|256:184,1,142.500005435944
256,16,52407,2,0,L|256:96,1,71.2500027179719
256,200,52782,1,2,0:0:0:0:
256,168,52876,1,2,0:0:0:0:
256,136,52970,5,2,0:0:0:0:
136,56,53157,1,2,0:0:0:0:
256,168,53532,1,2,0:0:0:0:
72,136,53719,1,2,0:0:0:0:
256,200,54095,1,2,0:0:0:0:
80,232,54282,1,2,0:0:0:0:
256,352,54657,5,0,0:0:0:0:
320,336,54845,1,0,0:0:0:0:
384,296,55032,1,0,0:0:0:0:
432,232,55220,1,0,0:0:0:0:
440,144,55407,1,0,0:0:0:0:
400,64,55595,1,0,0:0:0:0:
312,8,55782,1,0,0:0:0:0:
200,40,55970,5,2,0:0:0:0:
176,152,56157,1,0,0:0:0:0:
248,112,56345,1,8,0:0:0:0:
128,80,56532,2,0,P|64:152|64:256,1,190
234,350,57095,2,0,L|144:320,1,95,8|0,0:0|0:0,0:0:0:0:
256,264,57470,6,0,P|304:288|320:360,1,95,2|0,0:0|0:0,0:0:0:0:
232,352,57845,1,8,0:0:0:0:
360,224,58032,1,0,0:0:0:0:
328,40,58220,1,0,0:0:0:0:
144,96,58407,2,0,L|248:64,1,95,0|8,0:0|0:0,0:0:0:0:
328,40,58782,1,0,0:0:0:0:
328,40,58876,1,0,0:0:0:0:
328,40,58970,5,2,0:0:0:0:
432,88,59157,1,0,0:0:0:0:
376,192,59345,1,8,0:0:0:0:
272,136,59532,2,0,P|232:88|224:40,1,95
120,16,59907,2,0,P|96:64|96:144,1,95,0|8,0:0|0:0,0:0:0:0:
136,208,60282,1,0,0:0:0:0:
96,312,60470,5,2,0:0:0:0:
280,114,60657,2,0,L|240:234,1,95,0|8,0:0|0:0,0:0:0:0:
96,312,61032,1,0,0:0:0:0:
285,321,61220,2,0,L|165:281,1,95
82,142,61595,2,0,L|202:182,1,95,8|0,0:0|0:0,0:0:0:0:
280,112,61970,5,2,0:0:0:0:
392,144,62157,1,0,0:0:0:0:
312,48,62345,1,8,0:0:0:0:
360,208,62532,2,0,L|320:304,1,95
200,360,62907,2,0,L|236:272,1,95,0|8,0:0|0:0,0:0:0:0:
176,176,63282,1,0,0:0:0:0:
220,256,63470,6,0,L|184:344,1,95,2|0,0:0|0:0,0:0:0:0:
122,247,63845,2,0,L|160:160,1,95,8|0,0:0|0:0,0:0:0:0:
64,112,64220,1,0,0:0:0:0:
136,48,64407,1,0,0:0:0:0:
232,72,64595,1,8,0:0:0:0:
296,136,64782,1,0,0:0:0:0:
296,136,64876,1,0,0:0:0:0:
296,136,64970,5,2,0:0:0:0:
416,64,65157,1,0,0:0:0:0:
296,168,65345,1,8,0:0:0:0:
456,192,65532,2,0,L|464:296,1,95
320,352,65907,2,0,L|376:264,1,95,0|8,0:0|0:0,0:0:0:0:
296,168,66282,1,0,0:0:0:0:
187,247,66470,6,0,L|135:327,1,95,2|0,0:0|0:0,0:0:0:0:
32,168,66845,2,0,L|80:264,1,95,8|0,0:0|0:0,0:0:0:0:
208,96,67220,2,0,L|156:176,1,95
52,16,67595,2,0,L|100:112,1,95,8|0,0:0|0:0,0:0:0:0:
208,96,67970,5,2,0:0:0:0:
288,32,68157,1,0,0:0:0:0:
304,128,68345,1,8,0:0:0:0:
376,64,68532,2,0,P|400:120|384:184,1,95
336,216,68907,2,0,P|344:264|400:304,1,95,0|8,0:0|0:0,0:0:0:0:
464,320,69282,1,0,0:0:0:0:
272,312,69470,6,0,P|216:352|160:360,1,95,2|0,0:0|0:0,0:0:0:0:
112,320,69845,2,0,L|16:288,1,95,8|0,0:0|0:0,0:0:0:0:
24,184,70220,1,0,0:0:0:0:
112,16,70407,2,0,L|48:136,1,95,0|8,0:0|0:0,0:0:0:0:
24,184,70782,1,0,0:0:0:0:
160,136,70970,5,2,0:0:0:0:
248,24,71157,1,0,0:0:0:0:
400,176,71345,1,8,0:0:0:0:
344,72,71532,2,0,P|296:112|288:176,1,95
160,136,71907,2,0,P|136:80|144:24,1,95,0|8,0:0|0:0,0:0:0:0:
40,24,72282,1,0,0:0:0:0:
40,24,72376,1,0,0:0:0:0:
40,24,72470,6,0,L|24:128,1,95,2|0,0:0|0:0,0:0:0:0:
72,288,72845,2,0,L|86:194,1,95,8|0,0:0|0:0,0:0:0:0:
160,136,73220,2,0,L|272:160,1,95
400,104,73595,2,0,L|307:84,1,95,8|0,0:0|0:0,0:0:0:0:
224,72,73970,5,2,0:0:0:0:
336,168,74157,1,0,0:0:0:0:
144,56,74345,1,8,0:0:0:0:
416,184,74532,2,0,L|320:168,1,95
130,56,74907,2,0,L|224:72,2,95,0|8|0,0:0|0:0|0:0,0:0:0:0:
48,136,75470,5,2,0:0:0:0:
40,248,75657,1,0,0:0:0:0:
152,248,75845,1,8,0:0:0:0:
160,136,76032,1,0,0:0:0:0:
48,136,76220,1,0,0:0:0:0:
96,320,76407,1,0,0:0:0:0:
224,200,76595,1,8,0:0:0:0:
208,16,76782,1,0,0:0:0:0:
320,48,76970,5,2,0:0:0:0:
408,128,77157,1,0,0:0:0:0:
448,232,77345,1,8,0:0:0:0:
448,344,77532,1,0,0:0:0:0:
392,128,77907,5,0,0:0:0:0:
432,232,78095,1,8,0:0:0:0:
432,344,78282,1,0,0:0:0:0:
224,272,78470,6,2,L|336:248,1,95,2|0,0:0|0:0,0:0:0:0:
160,312,79032,2,0,L|272:288,1,95,2|0,0:0|0:0,0:0:0:0:
96,352,79595,2,0,L|208:328,1,95,2|0,0:0|0:0,0:0:0:0:
448,344,80532,5,0,0:0:0:0:
448,232,80719,1,0,0:0:0:0:
408,128,80907,1,0,0:0:0:0:
320,48,81094,1,0,0:0:0:0:
208,16,81282,1,0,0:0:0:0:
96,64,81470,6,0,P|48:136|48:216,1,142.500005435944,4|0,0:0|0:0,0:0:0:0:
48,368,82032,1,0,0:0:0:0:
136,336,82220,2,0,P|200:320|232:328,1,71.2500027179719
320,344,82595,2,0,L|392:296,1,71.2500027179719
432,104,82970,6,0,P|448:200|472:240,1,142.500005435944,2|8,0:0|0:0,0:0:0:0:
480,352,83532,1,0,0:0:0:0:
384,304,83720,2,0,P|336:256|304:240,1,71.2500027179719
333,134,84095,2,0,P|356:162|384:184,1,71.2500027179719,8|0,0:0|0:0,0:0:0:0:
368,64,84470,6,0,P|288:16|216:16,1,142.500005435944,2|8,0:0|0:0,0:0:0:0:
144,80,85032,1,0,0:0:0:0:
216,248,85220,1,0,0:0:0:0:
136,176,85407,1,0,0:0:0:0:
208,144,85595,1,8,0:0:0:0:
120,280,85782,1,0,0:0:0:0:
296,208,85970,6,0,P|352:144|368:72,1,142.500005435944,2|8,0:0|0:0,0:0:0:0:
448,24,86532,1,0,0:0:0:0:
464,120,86720,2,0,P|472:184|480:200,1,71.2500027179719
432,344,87095,2,0,P|431:308|421:274,1,71.2500027179719,8|0,0:0|0:0,0:0:0:0:
336,216,87470,6,0,P|248:304|240:336,1,142.500005435944,2|8,0:0|0:0,0:0:0:0:
152,360,88032,1,0,0:0:0:0:
64,320,88220,1,0,0:0:0:0:
136,208,88407,1,0,0:0:0:0:
168,288,88595,1,8,0:0:0:0:
32,200,88782,1,0,0:0:0:0:
72,48,88970,6,0,L|144:80,1,71.2500027179719,2|0,0:0|0:0,0:0:0:0:
200,152,89345,2,0,L|288:152,1,71.2500027179719,8|0,0:0|0:0,0:0:0:0:
336,80,89720,2,0,L|401:51,1,71.2500027179719
480,112,90095,2,0,L|456:200,1,71.2500027179719,8|0,0:0|0:0,0:0:0:0:
424,328,90470,6,0,P|336:296|256:304,1,142.500005435944,2|8,0:0|0:0,0:0:0:0:
224,352,91032,1,0,0:0:0:0:
256,216,91220,1,0,0:0:0:0:
184,272,91407,2,0,P|128:296|96:320,1,71.2500027179719,0|8,0:0|0:0,0:0:0:0:
32,216,91970,6,0,P|88:192|120:168,1,71.2500027179719,2|0,0:0|0:0,0:0:0:0:
152,136,92345,1,8,0:0:0:0:
176,64,92532,1,0,0:0:0:0:
336,56,92720,1,0,0:0:0:0:
256,16,92907,2,0,L|256:158,1,142.500005435944
256,248,93470,6,0,P|232:320|160:360,1,142.500005435944,4|8,0:0|0:0,0:0:0:0:
56,352,94032,1,0,0:0:0:0:
120,256,94220,2,0,P|80:216|48:200,1,71.2500027179719
56,64,94595,2,0,P|96:104|128:120,1,71.2500027179719,8|0,0:0|0:0,0:0:0:0:
176,168,94970,5,2,0:0:0:0:
152,32,95157,1,0,0:0:0:0:
216,88,95345,2,0,L|288:72,1,71.2500027179719,8|0,0:0|0:0,0:0:0:0:
344,168,95720,2,0,L|416:152,1,71.2500027179719
296,88,96095,1,8,0:0:0:0:
472,48,96282,1,0,0:0:0:0:
368,16,96470,6,0,L|432:216,1,190,2|8,0:0|0:0,0:0:0:0:
425,196,97220,1,0,0:0:0:0:
456,336,97407,1,0,0:0:0:0:
328,240,97594,1,8,0:0:0:0:
272,360,97782,5,0,0:0:0:0:
200,344,98157,1,0,0:0:0:0:
128,328,98532,1,0,0:0:0:0:
128,328,98720,2,0,L|40:304,1,71.2500027179719
104,248,99095,2,0,L|64:184,1,71.2500027179719,8|0,0:0|0:0,0:0:0:0:
32,128,99470,5,2,0:0:0:0:
168,88,99845,1,8,0:0:0:0:
288,168,100220,1,0,0:0:0:0:
312,232,100407,1,0,0:0:0:0:
360,176,100595,1,8,0:0:0:0:
384,240,100782,1,0,0:0:0:0:
328,336,100970,6,0,L|168:336,1,142.500005435944,2|0,0:0|0:0,0:0:0:0:
256,40,101720,1,0,0:0:0:0:
256,112,102095,1,0,0:0:0:0:
256,184,102470,5,2,0:0:0:0:
128,272,102657,1,2,0:0:0:0:
168,96,102845,1,2,0:0:0:0:
168,96,103220,1,2,0:0:0:0:
384,272,103595,1,2,0:0:0:0:
344,96,103783,1,2,0:0:0:0:
256,40,104157,5,0,0:0:0:0:
256,208,104345,2,0,L|256:128,1,71.2500027179719,2|0,0:0|0:0,0:0:0:0:
168,136,104720,1,2,0:0:0:0:
128,232,104907,1,0,0:0:0:0:
384,232,105095,1,2,0:0:0:0:
344,136,105282,1,0,0:0:0:0:
280,40,105470,6,0,L|256:120,1,71.2500027179719
280,40,106032,2,0,P|192:72|128:72,1,142.500005435944
48,24,106595,1,8,0:0:0:0:
97,205,106970,6,2,L|80:136,1,71.2500027179719
48,304,107532,2,0,P|128:336|208:344,1,142.500005435944
272,304,108095,1,8,0:0:0:0:
456,280,108470,5,0,0:0:0:0:
376,184,108657,1,0,0:0:0:0:
336,280,108845,1,0,0:0:0:0:
456,240,109032,5,0,0:0:0:0:
376,144,109219,1,0,0:0:0:0:
336,240,109407,1,0,0:0:0:0:
456,192,109595,5,0,0:0:0:0:
376,104,109782,1,0,0:0:0:0:
336,200,109970,6,2,L|265:206,1,71.2500027179719
248,120,110532,2,0,L|96:136,1,142.500005435944
40,64,111095,1,8,0:0:0:0:
96,264,111470,5,2,0:0:0:0:
216,312,111657,1,0,0:0:0:0:
168,200,111845,1,0,0:0:0:0:
144,336,112032,2,0,L|240:304,1,71.2500027179719
328,360,112407,2,0,L|424:328,1,71.2500027179719,0|8,0:0|0:0,0:0:0:0:
488,312,112782,1,0,0:0:0:0:
464,224,112970,6,8,L|408:176,1,71.2500027179719,2|0,0:0|0:0,0:0:0:0:
312,40,113345,2,0,L|366:86,1,71.2500027179719
145,86,113720,2,0,L|200:40,1,71.2500027179719
102,177,114095,2,0,L|48:224,1,71.2500027179719
104,328,114470,5,2,0:0:0:0:
408,328,114845,1,0,0:0:0:0:
200,272,115220,1,2,0:0:0:0:
336,192,115407,1,0,0:0:0:0:
216,192,115595,1,0,0:0:0:0:
296,320,115782,1,0,0:0:0:0:
184,288,115970,5,2,0:0:0:0:
360,184,116157,1,0,0:0:0:0:
204,184,116345,1,0,0:0:0:0:
308,350,116532,1,0,0:0:0:0:
384,176,116720,2,0,L|456:144,1,71.2500027179719,2|0,0:0|0:0,0:0:0:0:
352,40,117095,2,0,L|286:68,1,71.2500027179719
160,32,117470,5,2,0:0:0:0:
288,72,117657,1,0,0:0:0:0:
112,96,118032,1,2,0:0:0:0:
288,72,118220,1,2,0:0:0:0:
112,176,118595,1,2,0:0:0:0:
288,72,118782,1,2,0:0:0:0:
288,72,119157,5,0,0:0:0:0:
408,32,119345,1,0,0:0:0:0:
288,96,119532,1,0,0:0:0:0:
432,96,119720,1,0,0:0:0:0:
288,120,119907,1,0,0:0:0:0:
440,160,120095,1,0,0:0:0:0:
288,144,120282,1,0,0:0:0:0:
408,224,120470,5,2,0:0:0:0:
328,344,120657,1,0,0:0:0:0:
456,288,120845,1,8,0:0:0:0:
320,264,121032,2,0,P|272:280|240:352,1,95
160,352,121407,2,0,P|112:320|88:272,1,95,0|8,0:0|0:0,0:0:0:0:
160,216,121782,1,0,0:0:0:0:
96,288,121970,5,2,0:0:0:0:
0,128,122157,2,0,P|48:176|72:208,1,95,0|8,0:0|0:0,0:0:0:0:
144,144,122532,2,0,P|168:80|192:48,1,95
368,32,122907,2,0,L|272:40,1,95,0|8,0:0|0:0,0:0:0:0:
232,128,123282,1,0,0:0:0:0:
320,112,123470,5,2,0:0:0:0:
288,192,123657,1,0,0:0:0:0:
320,112,123845,1,8,0:0:0:0:
400,216,124032,2,0,P|440:176|448:120,1,95
368,35,124407,2,0,P|328:75|320:131,1,95,0|8,0:0|0:0,0:0:0:0:
264,272,124782,1,0,0:0:0:0:
432,248,124970,5,2,0:0:0:0:
320,112,125157,2,0,L|256:24,1,95,0|8,0:0|0:0,0:0:0:0:
264,35,125532,1,0,0:0:0:0:
312,248,125720,2,0,L|248:160,1,95
256,171,126095,1,8,0:0:0:0:
176,208,126282,1,0,0:0:0:0:
176,120,126470,5,2,0:0:0:0:
320,112,126657,1,0,0:0:0:0:
264,35,126845,1,8,0:0:0:0:
256,171,127032,2,0,P|192:128|152:104,1,95
88,112,127407,2,0,P|48:56|40:24,2,95,0|8|0,0:0|0:0|0:0,0:0:0:0:
128,192,127970,5,2,0:0:0:0:
88,112,128157,1,0,0:0:0:0:
40,192,128345,1,8,0:0:0:0:
88,112,128532,1,0,0:0:0:0:
88,264,128720,2,0,P|96:312|120:360,1,95
176,296,129095,2,0,P|224:328|272:344,1,95,8|0,0:0|0:0,0:0:0:0:
408,312,129470,5,2,0:0:0:0:
312,208,129657,1,0,0:0:0:0:
344,368,129845,1,8,0:0:0:0:
432,232,130032,2,0,P|456:176|464:144,1,95
360,48,130407,1,0,0:0:0:0:
448,56,130595,1,8,0:0:0:0:
312,120,130782,1,0,0:0:0:0:
312,120,131157,5,0,0:0:0:0:
232,96,131345,2,0,P|152:128|136:128,1,95,8|0,0:0|0:0,0:0:0:0:
191,283,131720,2,0,P|161:247|120:224,1,95
319,180,132095,2,0,P|303:224|304:272,1,95,8|0,0:0|0:0,0:0:0:0:
360,344,132470,5,2,0:0:0:0:
472,232,132657,1,0,0:0:0:0:
384,160,132845,1,8,0:0:0:0:
448,320,133032,2,0,P|392:344|328:336,1,95
208,264,133407,1,0,0:0:0:0:
280,304,133595,1,8,0:0:0:0:
280,224,133782,1,0,0:0:0:0:
208,184,133970,6,0,P|160:200|128:256,1,95,2|0,0:0|0:0,0:0:0:0:
88,304,134345,2,0,P|56:264|64:192,1,95,8|0,0:0|0:0,0:0:0:0:
136,72,134720,1,0,0:0:0:0:
84,151,134907,2,0,L|148:55,1,95,0|8,0:0|0:0,0:0:0:0:
256,64,135282,1,0,0:0:0:0:
328,128,135470,5,2,0:0:0:0:
408,80,135657,1,0,0:0:0:0:
312,160,135845,1,8,0:0:0:0:
424,40,136032,2,0,P|456:80|464:144,1,95
400,208,136407,2,0,L|440:304,1,95,0|8,0:0|0:0,0:0:0:0:
376,376,136782,1,0,0:0:0:0:
376,376,136876,1,0,0:0:0:0:
376,376,136970,6,0,P|304:360|272:336,1,95,2|0,0:0|0:0,0:0:0:0:
232,264,137345,2,0,P|176:280|128:336,1,95,8|0,0:0|0:0,0:0:0:0:
96,376,137720,1,0,0:0:0:0:
56,224,137907,1,0,0:0:0:0:
72,296,138095,1,8,0:0:0:0:
40,152,138282,1,0,0:0:0:0:
176,208,138470,6,0,P|192:160|176:104,1,95,2|0,0:0|0:0,0:0:0:0:
104,80,138845,1,8,0:0:0:0:
184,32,139032,2,0,P|232:40|296:88,1,95
320,200,139407,1,0,0:0:0:0:
424,104,139595,1,8,0:0:0:0:
296,32,139782,1,0,0:0:0:0:
168,120,139970,6,0,P|184:208|200:232,1,95,2|0,0:0|0:0,0:0:0:0:
274,280,140345,2,0,P|305:244|320:200,1,95,8|0,0:0|0:0,0:0:0:0:
296,32,140720,1,0,0:0:0:0:
424,104,140907,1,0,0:0:0:0:
224,32,141095,1,8,0:0:0:0:
88,160,141282,1,0,0:0:0:0:
88,160,141376,1,0,0:0:0:0:
88,160,141470,5,2,0:0:0:0:
280,280,141657,1,0,0:0:0:0:
72,256,141845,1,8,0:0:0:0:
296,184,142032,2,0,P|352:216|376:256,1,95
376,336,142407,2,0,P|424:320|456:272,1,95,0|8,0:0|0:0,0:0:0:0:
472,200,142782,1,0,0:0:0:0:
432,120,142970,5,2,0:0:0:0:
296,184,143157,1,0,0:0:0:0:
416,88,143345,1,0,0:0:0:0:
280,152,143532,1,0,0:0:0:0:
432,120,144095,5,2,0:0:0:0:
296,184,144282,1,0,0:0:0:0:
416,88,144470,1,0,0:0:0:0:
280,152,144657,1,0,0:0:0:0:
432,120,145032,5,0,0:0:0:0:
296,184,145220,2,0,L|200:240,2,95
72,280,145970,6,0,P|48:232|56:128,1,142.500005435944,2|0,0:0|0:0,0:0:0:0:
216,88,146720,1,0,0:0:0:0:
144,24,146907,1,0,0:0:0:0:
128,112,147095,1,0,0:0:0:0:
368,40,147470,6,0,P|424:104|448:168,1,142.500005435944,2|0,0:0|0:0,0:0:0:0:
360,336,148220,1,0,0:0:0:0:
304,256,148407,1,0,0:0:0:0:
408,248,148595,1,0,0:0:0:0:
184,288,148970,6,0,L|112:328,1,71.2500027179719,2|0,0:0|0:0,0:0:0:0:
32,352,149345,1,0,0:0:0:0:
48,256,149532,2,0,L|88:176,1,71.2500027179719,2|0,0:0|0:0,0:0:0:0:
192,72,150095,2,0,L|240:136,1,71.2500027179719,2|0,0:0|0:0,0:0:0:0:
312,184,150470,5,0,0:0:0:0:
328,96,150657,2,0,L|320:24,1,71.2500027179719,2|0,0:0|0:0,0:0:0:0:
464,256,151220,1,0,0:0:0:0:
400,320,151407,2,0,P|320:296|240:296,1,142.500005435944,2|0,0:0|0:0,0:0:0:0:
176,344,151970,6,0,P|80:320|32:272,1,142.500005435944,2|0,0:0|0:0,0:0:0:0:
72,80,152720,1,0,0:0:0:0:
176,192,152907,1,0,0:0:0:0:
80,176,153095,1,0,0:0:0:0:
256,24,153470,6,0,P|352:40|416:80,1,142.500005435944,2|0,0:0|0:0,0:0:0:0:
440,304,154220,1,0,0:0:0:0:
336,192,154407,1,0,0:0:0:0:
432,208,154595,1,0,0:0:0:0:
336,192,154970,5,2,0:0:0:0:
440,304,155157,1,0,0:0:0:0:
432,208,155345,1,0,0:0:0:0:
288,352,155532,1,0,0:0:0:0:
120,272,155720,2,0,B|88:328|88:360|88:360|48:264|64:160,1,285.000010871888,4|0,0:0|0:0,0:0:0:0:
320,80,156845,6,0,B|256:88|216:128|216:128|192:80|128:56,1,213.750008153916,4|0,0:0|0:0,0:0:0:0:
232,26,157595,1,0,0:0:0:0:
432,72,157782,1,0,0:0:0:0:
360,16,157970,6,0,P|328:96|392:224,1,213.750008153916,4|0,0:0|0:0,0:0:0:0:
464,256,158720,1,0,0:0:0:0:
320,336,158907,1,0,0:0:0:0:
432,336,159095,1,0,0:0:0:0:
328,224,159282,1,0,0:0:0:0:
200,304,159470,6,0,P|104:312|48:352,1,142.500005435944,2|0,0:0|0:0,0:0:0:0:
48,32,160220,2,0,P|88:104|88:168,1,142.500005435944
48,256,160782,1,0,0:0:0:0:
89,162,160970,6,0,P|144:104|232:72,1,142.500005435944,2|0,0:0|0:0,0:0:0:0:
312,78,161532,2,0,P|375:109|422:162,1,142.500005435944,0|0,0:0|0:0,0:0:0:0:
256,336,162095,2,0,L|256:248,1,71.2500027179719,0|0,0:0|0:0,0:0:0:0:
256,176,162470,5,2,0:0:0:0:
256,104,162845,2,0,L|256:175,1,71.2500027179719,0|0,0:0|0:0,0:0:0:0:
112,272,163220,1,0,0:0:0:0:
400,272,163595,1,0,0:0:0:0:
216,64,163970,5,2,0:0:0:0:
296,144,164157,1,2,0:0:0:0:
176,144,164345,1,2,0:0:0:0:
392,240,164532,2,0,L|328:176,1,71.2500027179719
220,64,164907,1,2,0:0:0:0:
160,184,165094,1,2,0:0:0:0:
340,184,165282,1,2,0:0:0:0:
112,288,165470,6,0,L|152:208,1,71.2500027179719,2|0,0:0|0:0,0:0:0:0:
392,233,165845,2,0,L|328:169,1,71.2500027179719
96,160,166220,2,0,L|136:80,1,71.2500027179719
376,112,166595,2,0,L|312:48,1,71.2500027179719
136,8,166970,1,0,0:0:0:0:
224,72,167157,6,0,P|232:144|192:224,1,142.500005435944,2|0,0:0|0:0,0:0:0:0:
104,240,167720,2,0,P|176:312|240:312,1,142.500005435944,2|0,0:0|0:0,0:0:0:0:
304,264,168282,1,2,0:0:0:0:
256,192,168470,12,0,169970,0:0:0:0:
256,192,177470,12,0,178595,0:0:0:0:
144,72,178970,6,0,L|176:152,1,71.2500027179719,2|0,0:0|0:0,0:0:0:0:
341,138,179345,2,0,L|368:72,1,71.2500027179719,0|2,0:0|0:0,0:0:0:0:
256,216,179907,2,0,L|256:296,1,71.2500027179719
256,368,180282,1,2,0:0:0:0:
256,368,180657,5,0,0:0:0:0:
120,256,180845,2,0,L|152:336,1,71.2500027179719,8|0,0:0|0:0,0:0:0:0:
365,322,181220,2,0,L|392:256,1,71.2500027179719
40,128,181595,2,0,L|80:200,1,71.2500027179719,8|0,0:0|0:0,0:0:0:0:
437,190,181970,5,4,0:0:0:0:
472,128,182157,1,0,0:0:0:0:
392,24,182345,1,8,0:0:0:0:
352,88,182532,1,0,0:0:0:0:
256,208,182720,2,0,L|256:112,1,95
120,24,183095,1,8,0:0:0:0:
160,88,183282,1,0,0:0:0:0:
74,190,183470,5,2,0:0:0:0:
40,128,183657,1,0,0:0:0:0:
160,88,183845,2,0,P|192:144|192:192,1,95,8|0,0:0|0:0,0:0:0:0:
317,173,184220,2,0,P|325:126|352:88,1,95
448,80,184595,1,8,0:0:0:0:
408,160,184782,1,0,0:0:0:0:
408,160,184876,1,0,0:0:0:0:
408,160,184970,6,0,L|456:256,1,95,2|0,0:0|0:0,0:0:0:0:
424,336,185345,2,0,L|320:280,1,95,8|0,0:0|0:0,0:0:0:0:
256,160,185720,1,0,0:0:0:0:
256,248,185907,1,0,0:0:0:0:
61,244,186095,2,0,L|104:160,1,95,8|0,0:0|0:0,0:0:0:0:
171,290,186470,6,0,L|88:336,1,95,2|0,0:0|0:0,0:0:0:0:
64,248,186845,2,8,L|56:144,1,95,8|0,0:0|0:0,0:0:0:0:
55,129,187126,1,0,0:0:0:0:
54,105,187220,1,0,0:0:0:0:
256,32,187407,2,0,L|256:136,2,95,0|8|0,0:0|0:0|0:0,0:0:0:0:
376,72,187970,5,2,0:0:0:0:
448,160,188157,1,0,0:0:0:0:
368,248,188345,1,8,0:0:0:0:
336,144,188532,1,0,0:0:0:0:
256,48,188720,2,0,L|256:160,1,95
144,248,189095,1,8,0:0:0:0:
64,160,189283,1,0,0:0:0:0:
136,72,189470,5,2,0:0:0:0:
176,144,189658,1,0,0:0:0:0:
80,344,189845,2,0,L|45:255,1,95,8|0,0:0|0:0,0:0:0:0:
256,192,190220,1,0,0:0:0:0:
312,272,190407,1,0,0:0:0:0:
200,272,190595,1,8,0:0:0:0:
256,112,190782,1,0,0:0:0:0:
376,320,190970,5,2,0:0:0:0:
136,320,191157,1,0,0:0:0:0:
256,192,191345,1,8,0:0:0:0:
256,368,191532,2,0,L|256:264,1,95
256,112,191907,2,0,L|256:8,2,95,0|8|0,0:0|0:0|0:0,0:0:0:0:
152,248,192470,6,0,L|96:336,1,95,2|0,0:0|0:0,0:0:0:0:
411,328,192845,2,0,L|360:248,1,95,8|0,0:0|0:0,0:0:0:0:
120,144,193220,2,0,L|64:232,1,95
443,224,193595,2,0,L|392:144,1,95,8|0,0:0|0:0,0:0:0:0:
256,40,193970,5,2,0:0:0:0:
192,104,194157,1,0,0:0:0:0:
256,168,194345,1,8,0:0:0:0:
320,104,194532,2,0,P|344:64|344:16,1,95
167,16,194907,2,0,P|167:63|192:104,1,95,0|8,0:0|0:0,0:0:0:0:
256,168,195282,1,0,0:0:0:0:
176,224,195470,6,0,P|144:280|88:320,1,95,2|0,0:0|0:0,0:0:0:0:
390,300,195845,2,0,P|357:266|336:224,1,95,8|0,0:0|0:0,0:0:0:0:
256,168,196220,1,0,0:0:0:0:
200,16,196407,1,0,0:0:0:0:
312,16,196595,1,8,0:0:0:0:
256,88,196782,1,0,0:0:0:0:
176,144,196970,5,2,0:0:0:0:
392,296,197157,1,0,0:0:0:0:
120,296,197345,1,8,0:0:0:0:
336,144,197532,2,0,P|320:88|280:40,1,95
212,58,197907,2,0,P|187:98|176:144,1,95,0|8,0:0|0:0,0:0:0:0:
256,224,198282,1,0,0:0:0:0:
256,224,198376,1,0,0:0:0:0:
256,224,198470,6,0,P|224:288|176:328,1,95,2|0,0:0|0:0,0:0:0:0:
303,304,198845,2,0,P|273:267|256:224,1,95,8|0,0:0|0:0,0:0:0:0:
184,112,199220,2,0,P|152:176|104:216,1,95
375,192,199595,2,0,P|345:155|328:112,1,95,8|0,0:0|0:0,0:0:0:0:
304,24,199970,5,2,0:0:0:0:
208,24,200157,1,0,0:0:0:0:
384,24,200345,1,8,0:0:0:0:
128,24,200532,2,0,L|56:96,1,95
89,226,200907,2,0,L|120:136,1,95,0|8,0:0|0:0,0:0:0:0:
190,245,201282,6,0,L|160:336,1,95,0|2,0:0|0:0,0:0:0:0:
256,176,201657,1,0,0:0:0:0:
351,334,201845,2,0,L|321:245,1,95,8|0,0:0|0:0,0:0:0:0:
392,136,202220,2,0,L|422:226,1,95
451,91,202595,2,0,L|384:24,1,95,8|0,0:0|0:0,0:0:0:0:
256,40,202970,1,2,0:0:0:0:
256,192,204470,12,0,205970,0:0:0:0:
256,192,206157,5,0,0:0:0:0:
392,184,206345,1,0,0:0:0:0:
256,160,206532,5,0,0:0:0:0:
408,208,206720,1,0,0:0:0:0:
256,128,206907,5,0,0:0:0:0:
432,240,207095,1,0,0:0:0:0:
256,96,207282,5,0,0:0:0:0:
456,272,207470,2,0,L|416:336,1,71.2500027179719,4|0,0:0|0:0,0:0:0:0:
256,328,207845,2,0,L|293:267,1,71.2500027179719
416,272,208220,1,0,0:0:0:0:
378,332,208407,1,0,0:0:0:0:
216,328,208595,1,0,0:0:0:0:
253,267,208782,1,0,0:0:0:0:
488,272,208970,5,0,0:0:0:0:
450,332,209157,1,0,0:0:0:0:
146,324,209345,1,0,0:0:0:0:
184,264,209532,1,0,0:0:0:0:
412,270,209720,2,0,L|378:332,1,71.2500027179719
77,326,210095,2,0,L|112:264,1,71.2500027179719
224,328,210470,5,0,0:0:0:0:
192,168,210657,1,0,0:0:0:0:
264,240,210845,1,0,0:0:0:0:
104,208,211032,1,0,0:0:0:0:
233,375,211595,5,0,0:0:0:0:
192,168,211782,1,0,0:0:0:0:
285,261,211970,1,0,0:0:0:0:
77,219,212157,1,0,0:0:0:0:
104,360,212345,1,8,0:0:0:0:
272,120,212720,2,0,P|320:184|352:200,1,106.875004076958
424,216,213095,2,0,P|456:192|472:160,1,71.2500027179719
456,72,213470,5,0,0:0:0:0:
344,24,213657,1,0,0:0:0:0:
408,128,213845,1,0,0:0:0:0:
248,96,214032,1,0,0:0:0:0:
360,184,214220,1,0,0:0:0:0:
176,192,214407,1,0,0:0:0:0:
320,248,214595,1,0,0:0:0:0:
136,304,214782,1,0,0:0:0:0:
304,320,214970,5,0,0:0:0:0:
136,304,215157,1,0,0:0:0:0:
320,248,215345,1,0,0:0:0:0:
176,192,215533,1,0,0:0:0:0:
360,184,215720,1,0,0:0:0:0:
248,96,215908,1,0,0:0:0:0:
408,128,216095,1,0,0:0:0:0:
344,24,216283,1,0,0:0:0:0:
216,24,216470,5,2,0:0:0:0:
216,24,216845,5,2,0:0:0:0:
408,128,217032,1,2,0:0:0:0:
408,128,217407,5,2,0:0:0:0:
344,24,217595,1,2,0:0:0:0:
216,24,217782,1,2,0:0:0:0:
152,128,217970,6,0,L|72:80,1,71.2500027179719,2|0,0:0|0:0,0:0:0:0:
112,216,218345,2,0,L|173:252,1,71.2500027179719
152,128,218907,2,0,L|72:80,1,71.2500027179719
112,216,219282,1,0,0:0:0:0:
272,272,219470,6,0,L|312:192,1,71.2500027179719,4|0,0:0|0:0,0:0:0:0:
400,248,219845,2,0,L|368:311,1,71.2500027179719
176,232,220220,2,0,L|216:152,1,71.2500027179719
496,288,220595,2,0,L|464:351,1,71.2500027179719
272,272,220970,5,2,0:0:0:0:
303,208,221157,1,0,0:0:0:0:
400,248,221345,1,0,0:0:0:0:
368,311,221532,1,0,0:0:0:0:
176,232,221720,1,0,0:0:0:0:
207,168,221907,1,0,0:0:0:0:
496,288,222095,2,0,L|464:351,1,71.2500027179719
400,248,222470,5,2,0:0:0:0:
464,96,222657,1,0,0:0:0:0:
480,216,222845,1,0,0:0:0:0:
360,48,223032,1,0,0:0:0:0:
344,248,223595,1,0,0:0:0:0:
408,96,223782,1,0,0:0:0:0:
424,216,223970,5,2,0:0:0:0:
304,48,224157,1,0,0:0:0:0:
248,224,224345,1,8,0:0:0:0:
120,96,224720,2,0,L|48:32,1,71.2500027179719
64,168,225095,2,0,L|117:215,1,71.2500027179719
160,304,225470,5,4,0:0:0:0:
264,256,225657,1,0,0:0:0:0:
136,288,225845,1,0,0:0:0:0:
288,272,226032,1,0,0:0:0:0:
120,264,226220,1,0,0:0:0:0:
304,296,226407,1,0,0:0:0:0:
104,232,226595,1,0,0:0:0:0:
312,328,226782,1,0,0:0:0:0:
104,192,226970,6,0,L|64:112,1,71.2500027179719
160,24,227345,2,0,L|176:104,1,71.2500027179719
338,93,227720,2,0,L|352:24,1,71.2500027179719
439,128,228095,2,0,L|408:192,1,71.2500027179719
336,336,228470,5,0,0:0:0:0:
120,200,228657,1,0,0:0:0:0:
392,200,228845,1,0,0:0:0:0:
176,336,229032,1,0,0:0:0:0:
120,200,229407,5,0,0:0:0:0:
392,200,229595,1,0,0:0:0:0:
176,336,229782,1,0,0:0:0:0:
336,336,230157,5,0,0:0:0:0:
376,280,230345,1,0,0:0:0:0:
336,336,230532,1,0,0:0:0:0:
368,216,230720,1,0,0:0:0:0:
336,336,230907,1,0,0:0:0:0:
344,152,231095,1,0,0:0:0:0:
344,152,231188,1,0,0:0:0:0:
344,152,231282,1,0,0:0:0:0:
336,336,231470,1,4,0:0:0:0:
