osu file format v13

[General]
AudioFilename: 02 18.mp3
AudioLeadIn: 0
PreviewTime: 67308
Countdown: 0
SampleSet: Soft
StackLeniency: 0.7
Mode: 2
LetterboxInBreaks: 0
EpilepsyWarning: 1
WidescreenStoryboard: 1

[Editor]
Bookmarks: 9535,24535,39535,54535,69535,84535,103285,118285,133285,148285,167035,182035,197972,212972,227972,242972
DistanceSpacing: 2
BeatDivisor: 4
GridSize: 8
TimelineZoom: 1.3

[Metadata]
Title:18sai
TitleUnicode:18歳
Artist:Goose house
ArtistUnicode:Goose house
Creator:mingmichael
Version:Platter
Source:
Tags:-[Koinuri] Phrase #1 Soundtrack Jyuuhassai じゅうはっさい 神田莉緒香 工藤秀平 なんだ神田K.K. Kanda Rioka Kudou Shuuhei Nanda Kanda K.K.
BeatmapID:560407
BeatmapSetID:242856

[Difficulty]
HPDrainRate:6
CircleSize:4
OverallDifficulty:7.5
ApproachRate:7.5
SliderMultiplier:1.6
SliderTickRate:1

[Events]
//Background and Video events
0,0,"18 sai osu 2.jpg",0,0
//Break Periods
2,197972,208397
//Storyboard Layer 0 (Background)
//Storyboard Layer 1 (Fail)
//Storyboard Layer 2 (Pass)
//Storyboard Layer 3 (Foreground)
//Storyboard Sound Samples

[TimingPoints]
9535.18119610049,468.75,4,2,3,50,1,0
24417,-100,4,2,3,40,0,0
24652,-100,4,2,3,70,0,0
25121,-100,4,2,3,40,0,0
25355,-100,4,2,3,70,0,0
26058,-100,4,2,5,70,0,0
26351,-100,4,2,3,40,0,0
26468,-100,4,2,5,70,0,0
26761,-100,4,2,3,70,0,0
27054,-100,4,2,3,40,0,0
27171,-100,4,2,3,70,0,0
27933,-100,4,2,5,70,0,0
28226,-100,4,2,3,40,0,0
28343,-100,4,2,3,70,0,0
28929,-100,4,2,3,40,0,0
29046,-100,4,2,3,70,0,0
29808,-100,4,2,5,70,0,0
30101,-100,4,2,3,30,0,0
30218,-100,4,2,5,70,0,0
30511,-100,4,2,3,70,0,0
30804,-100,4,2,3,40,0,0
30921,-100,4,2,3,70,0,0
31683,-100,4,2,5,70,0,0
31976,-100,4,2,3,40,0,0
32093,-100,4,2,3,70,0,0
32679,-100,4,2,3,40,0,0
32796,-100,4,2,3,70,0,0
33148,-100,4,2,5,70,0,0
33265,-100,4,2,3,30,0,0
33558,-100,4,2,5,70,0,0
33851,-100,4,2,3,40,0,0
33968,-100,4,2,3,70,0,0
34554,-100,4,2,3,40,0,0
34671,-100,4,2,3,70,0,0
35433,-100,4,2,5,70,0,0
35726,-100,4,2,3,40,0,0
35843,-100,4,2,3,70,0,0
39476,-100,4,2,3,40,0,0
39593,-100,4,2,5,80,0,0
39828,-100,4,2,3,30,0,0
39945,-100,4,2,3,80,0,0
40179,-100,4,2,5,80,0,0
40296,-100,4,2,3,80,0,0
40765,-100,4,2,3,30,0,0
40882,-100,4,2,1,40,0,0
41117,-100,4,2,5,80,0,0
41234,-100,4,2,3,30,0,0
41585,-100,4,2,5,80,0,0
41703,-100,4,2,3,80,0,0
42054,-100,4,2,5,80,0,0
42171,-100,4,2,3,30,0,0
42757,-100,4,2,1,40,0,0
42875,-100,4,2,5,80,0,0
43167,-100,4,2,3,30,0,0
43519,-100,4,2,3,80,0,0
43929,-100,4,2,5,80,0,0
44046,-100,4,2,3,80,0,0
44398,-100,4,2,5,80,0,0
44515,-100,4,2,1,60,0,0
44867,-100,4,2,5,80,0,0
44984,-100,4,2,3,30,0,0
45335,-100,4,2,5,80,0,0
45453,-100,4,2,3,80,0,0
45804,-100,4,2,5,80,0,0
45921,-100,4,2,3,80,0,0
46507,-100,4,2,1,60,0,0
46625,-100,4,2,5,80,0,0
46976,-100,4,2,3,30,0,0
47269,-100,4,2,3,80,0,0
47679,-100,4,2,5,80,0,0
47796,-100,4,2,3,80,0,0
48265,-100,4,2,3,30,0,0
48382,-100,4,2,1,60,0,0
48617,-100,4,2,5,80,0,0
48734,-100,4,2,3,30,0,0
49144,-100,4,2,3,80,0,0
49554,-100,4,2,5,80,0,0
49671,-100,4,2,3,30,0,0
50257,-100,4,2,1,40,0,0
50375,-100,4,2,5,80,0,0
50667,-100,4,2,3,30,0,0
50902,-100,4,2,3,50,0,0
52660,-100,4,2,3,60,0,0
54476,-100,4,2,3,35,0,0
54710,-100,4,2,5,80,0,0
54828,-100,4,2,6,50,0,0
55062,-100,4,2,5,80,0,0
55355,-100,4,2,3,80,0,0
55589,-100,4,2,5,80,0,0
55824,-100,4,2,7,80,0,0
56175,-100,4,2,3,80,0,0
56527,-100,4,2,5,80,0,0
56761,-100,4,2,7,80,0,0
56996,-100,4,2,5,80,0,0
57230,-100,4,2,3,80,0,0
57464,-100,4,2,5,80,0,0
57699,-100,4,2,7,80,0,0
58050,-100,4,2,3,80,0,0
58402,-100,4,2,5,80,0,0
58636,-100,4,2,7,80,0,0
58871,-100,4,2,5,80,0,0
59105,-100,4,2,3,80,0,0
59339,-100,4,2,5,80,0,0
59574,-100,4,2,7,80,0,0
59808,-100,4,2,5,80,0,0
60042,-100,4,2,3,80,0,0
60277,-100,4,2,5,80,0,0
60511,-100,4,2,7,80,0,0
60746,-100,4,2,5,80,0,0
60980,-100,4,2,3,80,0,0
61332,-100,4,2,7,80,0,0
61683,-100,4,2,5,80,0,0
61917,-100,4,2,3,80,0,0
62152,-100,4,2,5,80,0,0
62386,-100,4,2,7,80,0,0
62621,-100,4,2,5,80,0,0
62855,-100,4,2,3,80,0,0
63089,-100,4,2,5,80,0,0
63324,-100,4,2,7,80,0,0
63558,-100,4,2,5,80,0,0
63792,-100,4,2,3,80,0,0
64027,-100,4,2,5,80,0,0
64261,-100,4,2,7,80,0,0
64496,-100,4,2,5,80,0,0
65199,-100,4,2,7,80,0,0
65433,-100,4,2,5,80,0,0
65667,-100,4,2,3,80,0,0
66019,-100,4,2,7,80,0,0
66371,-100,4,2,5,80,0,0
66605,-100,4,2,3,80,0,0
66957,-100,4,2,7,80,0,0
67308,-100,4,2,5,80,0,0
67542,-100,4,2,3,80,0,0
67894,-100,4,2,5,60,0,0
68363,-100,4,2,5,50,0,0
68832,-100,4,2,5,70,0,0
69535,-100,4,2,2,80,0,1
69828,-100,4,2,3,40,0,1
70179,-100,4,2,5,100,0,1
70355,-100,4,2,3,100,0,1
70589,-100,4,2,5,100,0,1
70765,-100,4,2,3,40,0,1
71117,-100,4,2,5,100,0,1
71292,-100,4,2,3,100,0,1
71703,-100,4,2,3,40,0,1
71820,-100,4,2,4,50,0,1
72054,-100,4,2,5,100,0,1
72230,-100,4,2,3,100,0,1
72640,-100,4,2,3,40,0,1
72992,-100,4,2,5,100,0,1
73167,-100,4,2,3,100,0,1
73578,-100,4,2,3,40,0,1
73929,-100,4,2,5,100,0,1
74105,-100,4,2,3,100,0,1
74339,-100,4,2,5,100,0,1
74515,-100,4,2,3,40,0,1
74867,-100,4,2,5,100,0,1
75042,-100,4,2,3,100,0,1
75453,-100,4,2,3,40,0,1
75570,-100,4,2,4,60,0,1
75804,-100,4,2,5,100,0,1
75980,-100,4,2,3,100,0,1
76390,-100,4,2,3,40,0,1
76742,-100,4,2,5,100,0,1
76917,-100,4,2,3,100,0,1
77328,-100,4,2,3,40,0,1
77679,-100,4,2,5,100,0,1
77855,-100,4,2,3,100,0,1
78089,-100,4,2,5,100,0,1
78265,-100,4,2,3,40,0,1
78617,-100,4,2,5,100,0,1
78792,-100,4,2,3,100,0,1
79203,-100,4,2,3,40,0,1
79320,-100,4,2,4,50,0,1
79554,-100,4,2,5,100,0,1
79730,-100,4,2,3,100,0,1
80082,-100,4,2,4,50,0,1
80433,-100,4,2,5,100,0,1
80667,-100,4,2,3,100,0,1
81078,-100,4,2,3,40,0,1
81429,-100,4,2,5,100,0,1
81605,-100,4,2,3,100,0,1
82015,-100,4,2,3,40,0,1
82132,-100,4,2,4,50,0,1
82367,-100,4,2,5,100,0,1
82542,-100,4,2,3,100,0,1
82953,-100,4,2,3,50,0,1
83070,-100,4,2,5,70,0,1
83304,-100,4,2,5,100,0,1
83480,-100,4,2,3,100,0,1
83714,-100,4,2,5,100,0,1
83949,-100,4,2,4,50,0,1
84183,-100,4,2,5,100,0,1
84417,-100,4,2,2,60,0,1
84828,-100,4,2,3,40,0,1
85179,-100,4,2,5,100,0,1
85355,-100,4,2,3,100,0,1
85589,-100,4,2,5,100,0,1
85765,-100,4,2,3,40,0,1
86117,-100,4,2,5,100,0,1
86292,-100,4,2,3,100,0,1
86703,-100,4,2,3,40,0,1
86820,-100,4,2,4,40,0,1
87054,-100,4,2,5,100,0,1
87230,-100,4,2,3,100,0,1
87640,-100,4,2,3,40,0,1
87992,-100,4,2,5,100,0,1
88167,-100,4,2,3,100,0,1
88578,-100,4,2,3,40,0,1
88929,-100,4,2,5,100,0,1
89105,-100,4,2,3,100,0,1
89339,-100,4,2,5,100,0,1
89515,-100,4,2,3,40,0,1
89867,-100,4,2,5,100,0,1
90042,-100,4,2,3,100,0,1
90453,-100,4,2,3,40,0,1
90570,-100,4,2,4,50,0,1
90804,-100,4,2,5,100,0,1
90980,-100,4,2,3,100,0,1
91390,-100,4,2,3,40,0,1
91742,-100,4,2,5,100,0,1
91917,-100,4,2,3,100,0,1
92328,-100,4,2,3,40,0,1
92679,-100,4,2,5,100,0,1
92855,-100,4,2,3,100,0,1
93089,-100,4,2,5,100,0,1
93265,-100,4,2,3,40,0,1
93617,-100,4,2,5,100,0,1
93792,-100,4,2,3,100,0,1
94203,-100,4,2,3,40,0,1
94320,-100,4,2,4,50,0,1
94554,-100,4,2,5,100,0,1
94730,-100,4,2,3,100,0,1
95082,-100,4,2,4,60,0,1
95433,-100,4,2,5,100,0,1
95667,-100,4,2,3,100,0,1
96078,-100,4,2,3,40,0,1
96429,-100,4,2,5,100,0,1
96605,-100,4,2,3,100,0,1
96839,-100,4,2,5,100,0,1
97074,-100,4,2,4,70,0,1
97308,-100,4,2,5,100,0,1
97542,-100,4,2,3,100,0,1
97953,-100,4,2,3,40,0,1
98304,-100,4,2,5,100,0,1
98480,-100,4,2,3,100,0,1
98714,-100,4,2,5,100,0,1
98949,-100,4,2,4,60,0,1
99183,-100,4,2,5,100,0,1
99535,-100,4,2,3,40,0,0
100003,-100,4,2,3,35,0,0
100472,-100,4,2,3,30,0,0
100941,-100,4,2,3,25,0,0
101410,-100,4,2,3,20,0,0
101878,-100,4,2,3,15,0,0
102289,-100,4,2,3,40,0,0
103167,-100,4,2,3,40,0,0
103402,-100,4,2,5,80,0,0
103578,-100,4,2,3,30,0,0
103929,-100,4,2,5,80,0,0
104105,-100,4,2,3,80,0,0
104339,-100,4,2,5,80,0,0
104515,-100,4,2,3,30,0,0
104867,-100,4,2,5,80,0,0
105042,-100,4,2,3,80,0,0
105277,-100,4,2,5,80,0,0
105511,-100,4,2,3,80,0,0
105746,-100,4,2,5,80,0,0
105980,-100,4,2,3,80,0,0
106332,-100,4,2,7,80,0,0
106683,-100,4,2,5,80,0,0
106917,-100,4,2,3,80,0,0
107621,-100,4,2,5,80,0,0
107855,-100,4,2,3,80,0,0
108207,-100,4,2,7,80,0,0
108558,-100,4,2,5,80,0,0
109261,-100,4,2,3,80,0,0
109496,-100,4,2,5,80,0,0
109730,-100,4,2,3,80,0,0
110082,-100,4,2,7,80,0,0
110433,-100,4,2,5,80,0,0
110667,-100,4,2,3,80,0,0
111371,-100,4,2,5,80,0,0
111605,-100,4,2,3,80,0,0
111957,-100,4,2,7,80,0,0
112308,-100,4,2,5,80,0,0
112542,-100,4,2,3,80,0,0
112777,-100,4,2,5,80,0,0
113011,-100,4,2,3,80,0,0
113246,-100,4,2,5,80,0,0
113480,-100,4,2,3,80,0,0
113832,-100,4,2,7,80,0,0
114183,-100,4,2,5,80,0,0
114417,-100,4,2,3,80,0,0
118226,-100,4,2,3,40,0,0
118402,-100,4,2,5,80,0,0
118636,-100,4,2,7,80,0,0
118871,-100,4,2,5,80,0,0
119105,-100,4,2,3,80,0,0
119339,-100,4,2,5,80,0,0
119574,-100,4,2,7,80,0,0
119925,-100,4,2,3,80,0,0
120277,-100,4,2,5,80,0,0
120511,-100,4,2,7,80,0,0
120746,-100,4,2,5,80,0,0
120980,-100,4,2,3,80,0,0
121214,-100,4,2,5,80,0,0
121449,-100,4,2,7,80,0,0
121800,-100,4,2,3,80,0,0
122152,-100,4,2,5,80,0,0
122386,-100,4,2,7,80,0,0
122621,-100,4,2,5,80,0,0
122855,-100,4,2,3,80,0,0
123089,-100,4,2,5,80,0,0
123324,-100,4,2,7,80,0,0
123558,-100,4,2,5,80,0,0
123792,-100,4,2,3,80,0,0
124027,-100,4,2,5,80,0,0
124261,-100,4,2,7,80,0,0
124496,-100,4,2,5,80,0,0
124730,-100,4,2,3,80,0,0
125082,-100,4,2,7,80,0,0
125375,-100,4,2,5,80,0,0
125726,-100,4,2,3,80,0,0
125902,-100,4,2,5,80,0,0
126136,-100,4,2,7,80,0,0
126371,-100,4,2,5,80,0,0
126605,-100,4,2,3,80,0,0
126839,-100,4,2,5,80,0,0
127074,-100,4,2,7,80,0,0
127308,-100,4,2,5,80,0,0
127542,-100,4,2,3,80,0,0
127777,-100,4,2,5,80,0,0
128011,-100,4,2,7,80,0,0
128246,-100,4,2,5,80,0,0
128949,-100,4,2,7,80,0,0
129183,-100,4,2,5,80,0,0
129417,-100,4,2,3,60,0,0
129652,-100,4,2,3,80,0,0
130941,-100,4,2,3,75,0,0
131292,-100,4,2,3,70,0,0
131585,-100,4,2,3,65,0,0
131937,-100,4,2,3,60,0,0
132230,-100,4,2,3,55,0,0
132582,-100,4,2,3,90,0,0
133285,-100,4,2,2,80,0,1
133578,-100,4,2,3,50,0,1
133929,-100,4,2,5,100,0,1
134105,-100,4,2,3,100,0,1
134339,-100,4,2,5,100,0,1
134515,-100,4,2,3,50,0,1
134867,-100,4,2,5,100,0,1
135042,-100,4,2,3,100,0,1
135453,-100,4,2,3,50,0,1
135570,-100,4,2,4,40,0,1
135804,-100,4,2,5,100,0,1
135980,-100,4,2,3,100,0,1
136390,-100,4,2,3,50,0,1
136742,-100,4,2,5,100,0,1
136917,-100,4,2,3,100,0,1
137328,-100,4,2,3,50,0,1
137679,-100,4,2,5,100,0,1
137855,-100,4,2,3,100,0,1
138089,-100,4,2,5,100,0,1
138265,-100,4,2,3,50,0,1
138617,-100,4,2,5,100,0,1
138792,-100,4,2,3,100,0,1
139203,-100,4,2,3,50,0,1
139320,-100,4,2,4,50,0,1
139554,-100,4,2,5,100,0,1
139730,-100,4,2,3,100,0,1
140140,-100,4,2,3,50,0,1
140492,-100,4,2,5,100,0,1
140667,-100,4,2,3,100,0,1
141078,-100,4,2,3,50,0,1
141429,-100,4,2,5,100,0,1
141605,-100,4,2,3,100,0,1
141839,-100,4,2,5,100,0,1
142015,-100,4,2,3,50,0,1
142367,-100,4,2,5,100,0,1
142542,-100,4,2,3,100,0,1
142953,-100,4,2,3,50,0,1
143304,-100,4,2,5,100,0,1
143480,-100,4,2,3,100,0,1
143832,-100,4,2,4,60,0,1
144183,-100,4,2,5,100,0,1
144417,-100,4,2,3,100,0,1
144828,-100,4,2,3,50,0,1
145179,-100,4,2,5,100,0,1
145355,-100,4,2,3,100,0,1
145765,-100,4,2,3,50,0,1
145882,-100,4,2,4,50,0,1
146117,-100,4,2,5,100,0,1
146292,-100,4,2,3,100,0,1
146703,-100,4,2,3,50,0,1
146820,-100,4,2,4,40,0,1
147054,-100,4,2,5,100,0,1
147230,-100,4,2,3,100,0,1
147464,-100,4,2,5,100,0,1
147699,-100,4,2,4,60,0,1
147933,-100,4,2,5,100,0,1
148167,-100,4,2,2,60,0,1
148578,-100,4,2,3,50,0,1
148929,-100,4,2,5,100,0,1
149105,-100,4,2,3,100,0,1
149339,-100,4,2,5,100,0,1
149515,-100,4,2,3,50,0,1
149867,-100,4,2,5,100,0,1
150042,-100,4,2,3,100,0,1
150453,-100,4,2,3,50,0,1
150570,-100,4,2,4,40,0,1
150804,-100,4,2,5,100,0,1
150980,-100,4,2,3,100,0,1
151390,-100,4,2,3,50,0,1
151742,-100,4,2,5,100,0,1
151917,-100,4,2,3,100,0,1
152152,-100,4,2,5,100,0,1
152328,-100,4,2,3,50,0,1
152679,-100,4,2,5,100,0,1
152855,-100,4,2,3,100,0,1
153089,-100,4,2,5,100,0,1
153265,-100,4,2,3,50,0,1
153617,-100,4,2,5,100,0,1
153792,-100,4,2,3,100,0,1
154203,-100,4,2,3,50,0,1
154320,-100,4,2,4,50,0,1
154554,-100,4,2,5,100,0,1
154730,-100,4,2,3,100,0,1
154964,-100,4,2,5,100,0,1
155140,-100,4,2,3,50,0,1
155492,-100,4,2,5,100,0,1
155667,-100,4,2,3,100,0,1
156078,-100,4,2,3,50,0,1
156429,-100,4,2,5,100,0,1
156605,-100,4,2,3,100,0,1
156839,-100,4,2,5,100,0,1
157015,-100,4,2,3,50,0,1
157367,-100,4,2,5,100,0,1
157542,-100,4,2,3,100,0,1
157953,-100,4,2,3,50,0,1
158070,-100,4,2,4,40,0,1
158304,-100,4,2,5,100,0,1
158480,-100,4,2,3,100,0,1
158832,-100,4,2,4,60,0,1
159183,-100,4,2,5,100,0,1
159417,-100,4,2,3,100,0,1
159828,-100,4,2,3,50,0,1
160179,-100,4,2,5,100,0,1
160355,-100,4,2,3,100,0,1
160589,-100,4,2,5,100,0,1
160824,-100,4,2,4,60,0,1
161058,-100,4,2,5,100,0,1
161292,-100,4,2,3,100,0,1
161703,-100,4,2,3,50,0,1
162054,-100,4,2,5,100,0,1
162230,-100,4,2,3,100,0,1
162464,-100,4,2,5,100,0,1
162699,-100,4,2,4,60,0,1
162933,-100,4,2,5,100,0,1
163285,-100,4,2,3,40,0,0
166566,-100,4,2,3,60,0,0
166917,-100,4,2,2,40,0,0
167269,-100,4,2,3,60,0,0
167621,-100,4,2,5,80,0,0
167855,-100,4,2,3,80,0,0
168207,-100,4,2,7,80,0,0
168558,-100,4,2,5,80,0,0
168792,-100,4,2,3,80,0,0
169027,-100,4,2,5,80,0,0
169261,-100,4,2,3,80,0,0
169496,-100,4,2,5,80,0,0
169730,-100,4,2,3,80,0,0
170140,-100,4,2,3,10,0,0
170492,-100,4,2,5,80,0,0
170667,-100,4,2,3,80,0,0
171371,-100,4,2,5,80,0,0
171605,-100,4,2,3,80,0,0
172015,-100,4,2,3,10,0,0
172367,-100,4,2,5,80,0,0
172542,-100,4,2,3,80,0,0
172953,-100,4,2,3,10,0,0
173304,-100,4,2,5,80,0,0
173480,-100,4,2,3,80,0,0
173832,-100,4,2,7,80,0,0
174183,-100,4,2,5,80,0,0
174417,-100,4,2,3,80,0,0
174652,-100,4,2,5,80,0,0
174886,-100,4,2,3,80,0,0
175121,-100,4,2,5,80,0,0
175355,-100,4,2,3,80,0,0
175765,-100,4,2,3,10,0,0
176117,-100,4,2,5,80,0,0
176292,-100,4,2,3,80,0,0
176527,-100,4,2,5,80,0,0
176761,-100,4,2,3,80,0,0
176996,-100,4,2,5,80,0,0
177230,-100,4,2,3,80,0,0
177464,-100,4,2,5,80,0,0
177640,-100,4,2,3,10,0,0
177992,-100,4,2,5,80,0,0
178167,-100,4,2,3,80,0,0
178871,-100,4,2,5,80,0,0
179339,-100,4,2,5,80,0,0
179515,-100,4,2,3,10,0,0
179867,-100,4,2,5,80,0,0
180042,-100,4,2,3,80,0,0
180511,-100,4,2,3,80,0,0
180746,-100,4,2,5,80,0,0
181449,-100,4,2,7,80,0,0
181683,-100,4,2,5,80,0,0
181917,-100,4,2,3,40,0,0
182152,-100,4,2,5,80,0,0
182386,-100,4,2,1,40,0,0
182796,-100,4,2,3,10,0,0
183148,-100,4,2,5,80,0,0
183324,-100,4,2,3,80,0,0
183558,-100,4,2,5,80,0,0
183792,-100,4,2,3,80,0,0
184027,-100,4,2,5,80,0,0
184261,-100,4,2,1,40,0,0
184496,-100,4,2,5,80,0,0
185199,-100,4,2,3,80,0,0
185433,-100,4,2,5,80,0,0
185667,-100,4,2,3,80,0,0
186019,-100,4,2,1,20,0,0
186371,-100,4,2,5,80,0,0
186605,-100,4,2,3,80,0,0
187015,-100,4,2,3,10,0,0
187367,-100,4,2,5,80,0,0
187542,-100,4,2,3,80,0,0
187953,-100,4,2,3,10,0,0
188304,-100,4,2,5,80,0,0
188480,-100,4,2,3,80,0,0
189183,-100,4,2,5,80,0,0
189417,-100,4,2,3,80,0,0
189828,-100,4,2,3,10,0,0
190179,-100,4,2,5,80,0,0
190355,-100,4,2,3,80,0,0
190765,-100,4,2,3,10,0,0
191117,-100,4,2,5,80,0,0
191292,-100,4,2,3,80,0,0
191527,-100,4,2,5,80,0,0
191761,-100,4,2,1,40,0,0
191996,-100,4,2,5,80,0,0
192230,-100,4,2,3,80,0,0
192640,-100,4,2,3,10,0,0
192992,-100,4,2,5,80,0,0
193167,-100,4,2,3,50,0,0
194808,-100,4,2,3,40,0,0
195042,-100,4,2,3,40,0,0
195394,-100,4,2,3,30,0,0
195628,-100,4,2,3,20,0,0
195980,-100,4,2,3,10,0,0
196332,-100,4,2,3,20,0,0
197972,468.75,4,2,2,40,1,0
209690,-100,4,2,2,50,0,0
210159,-100,4,2,2,60,0,0
210628,-100,4,2,3,70,0,0
210979,-100,4,2,3,60,0,0
211272,-100,4,2,3,50,0,0
211624,-100,4,2,3,40,0,0
212268,-100,4,2,3,50,0,0
212972,-100,4,2,2,100,0,1
213264,-100,4,2,3,50,0,1
213616,-100,4,2,5,100,0,1
213792,-100,4,2,3,100,0,1
214026,-100,4,2,5,100,0,1
214202,-100,4,2,3,50,0,1
214554,-100,4,2,5,100,0,1
214729,-100,4,2,3,100,0,1
215139,-100,4,2,3,50,0,1
215491,-100,4,2,5,100,0,1
215667,-100,4,2,3,100,0,1
216077,-100,4,2,3,50,0,1
216429,-100,4,2,5,100,0,1
216604,-100,4,2,3,100,0,1
217014,-100,4,2,3,50,0,1
217366,-100,4,2,5,100,0,1
217542,-100,4,2,3,100,0,1
217776,-100,4,2,5,100,0,1
217952,-100,4,2,3,50,0,1
218128,-100,4,2,3,100,0,1
218304,-100,4,2,5,100,0,1
218479,-100,4,2,3,100,0,1
218889,-100,4,2,3,50,0,1
219241,-100,4,2,5,100,0,1
219417,-100,4,2,3,100,0,1
219651,-100,4,2,5,100,0,1
219827,-100,4,2,3,50,0,1
220179,-100,4,2,5,100,0,1
220354,-100,4,2,3,100,0,1
220764,-100,4,2,3,50,0,1
221116,-100,4,2,5,100,0,1
221292,-100,4,2,3,100,0,1
221526,-100,4,2,5,100,0,1
221702,-100,4,2,3,50,0,1
222054,-100,4,2,5,100,0,1
222229,-100,4,2,3,100,0,1
222639,-100,4,2,3,50,0,1
222991,-100,4,2,5,100,0,1
223167,-100,4,2,3,100,0,1
223518,-100,4,2,4,60,0,1
223870,-100,4,2,5,100,0,1
224104,-100,4,2,3,100,0,1
224514,-100,4,2,3,50,0,1
224866,-100,4,2,5,100,0,1
225042,-100,4,2,3,100,0,1
225276,-100,4,2,5,100,0,1
225511,-100,4,2,4,60,0,1
225745,-100,4,2,5,100,0,1
225979,-100,4,2,3,100,0,1
226389,-100,4,2,3,50,0,1
226741,-100,4,2,5,100,0,1
226917,-100,4,2,3,100,0,1
227151,-100,4,2,5,100,0,1
227386,-100,4,2,4,60,0,1
227620,-100,4,2,5,100,0,1
227972,-100,4,2,3,30,0,0
229729,-100,4,2,3,50,0,0
229964,-100,4,2,3,60,0,0
230667,-100,4,2,3,40,0,0
231136,-100,4,2,4,80,0,0
231370,-100,4,2,4,40,0,0
231604,-100,4,2,3,30,0,0
232014,-100,4,2,3,30,0,0
232132,-100,4,2,1,30,0,0
232366,-100,4,2,5,80,0,0
233011,-100,4,2,4,80,0,0
233245,-100,4,2,5,80,0,0
233479,-100,4,2,3,80,0,0
233889,-100,4,2,3,30,0,0
234007,-100,4,2,1,30,0,0
234241,-100,4,2,5,80,0,0
234886,-100,4,2,4,80,0,0
235120,-100,4,2,4,30,0,0
235354,-100,4,2,3,80,0,0
235764,-100,4,2,3,30,0,0
235882,-100,4,2,1,30,0,0
236116,-100,4,2,5,80,0,0
236761,-100,4,2,4,60,0,0
236995,-100,4,2,5,80,0,0
237288,-100,4,2,3,30,0,0
237639,-100,4,2,3,30,0,0
237757,-100,4,2,1,30,0,0
237991,-100,4,2,5,80,0,0
238167,-100,4,2,3,30,0,0
238518,-100,4,2,4,50,0,0
238870,-100,4,2,4,30,0,0
239104,-100,4,2,3,30,0,0
239514,-100,4,2,3,30,0,0
239632,-100,4,2,1,30,0,0
239866,-100,4,2,5,60,0,0
240511,-100,4,2,4,60,0,0
240745,-100,4,2,5,60,0,0
240979,-100,4,2,3,60,0,0
241389,-100,4,2,3,30,0,0
241507,-100,4,2,1,30,0,0
241741,-100,4,2,5,60,0,0
242386,-100,4,2,4,70,0,0
242620,-100,4,2,4,50,0,0
242854,-100,4,2,4,30,0,0
243557,-100,4,2,4,25,0,0
244261,-100,4,2,4,20,0,0
244729,-100,4,2,3,20,0,0
245667,-100,4,2,3,20,0,0
245901,-100,4,2,3,20,0,0
246604,-100,4,2,3,15,0,0
246839,-100,4,2,3,20,0,0
250354,-100,4,2,3,15,0,0
250589,-100,4,2,3,20,0,0
252229,-100,4,2,3,15,0,0
252464,-100,4,2,3,20,0,0
253167,-100,4,2,3,15,0,0
253401,-100,4,2,3,20,0,0
254104,-100,4,2,3,15,0,0
254339,-100,4,2,3,20,0,0
257151,-100,4,2,3,10,0,0

[Colours]
Combo1 : 185,92,0
Combo2 : 117,117,117
Combo3 : 128,128,255
Combo4 : 3,165,218
Combo5 : 64,0,128
Combo6 : 183,183,183
Combo7 : 0,114,168
Combo8 : 252,202,152

[HitObjects]
416,192,9535,85,0,0:0:0:0:
320,192,10003,1,0,0:0:0:0:
224,192,10472,1,0,0:0:0:0:
128,192,10941,1,0,0:0:0:0:
32,192,11410,1,0,0:0:0:0:
128,192,11878,1,0,0:0:0:0:
224,192,12347,1,0,0:0:0:0:
320,192,12816,1,0,0:0:0:0:
32,320,13285,69,0,0:0:0:0:
144,320,13753,1,0,0:0:0:0:
256,320,14222,1,0,0:0:0:0:
368,320,14691,1,0,0:0:0:0:
480,320,15160,1,0,0:0:0:0:
368,192,15628,1,0,0:0:0:0:
256,192,16097,1,0,0:0:0:0:
144,192,16566,1,0,0:0:0:0:
448,48,17035,85,0,0:0:0:0:
320,48,17503,1,0,0:0:0:0:
192,48,17972,1,0,0:0:0:0:
64,48,18441,1,0,0:0:0:0:
72,192,18910,1,0,0:0:0:0:
168,192,19378,1,0,0:0:0:0:
264,192,19847,1,0,0:0:0:0:
360,192,20316,1,0,0:0:0:0:
32,192,20785,53,0,0:0:0:0:
176,192,21253,1,0,0:0:0:0:
320,192,21722,1,0,0:0:0:0:
464,192,22191,1,0,0:0:0:0:
320,192,22660,1,0,0:0:0:0:
176,64,22894,2,0,L|136:144,1,80
336,64,23363,2,0,L|376:144,1,80
216,192,23832,2,0,L|244:277,1,80
368,192,24300,1,0,0:0:0:0:
72,320,24535,22,0,L|176:184,1,160,4|0,0:0|0:0,0:0:0:0:
256,192,25238,1,2,0:0:0:0:
440,320,25472,2,0,L|336:184,1,160,0|0,0:0|0:0,0:0:0:0:
256,64,26175,1,0,0:0:0:0:
120,192,26410,22,0,L|152:272,1,80,2|0,0:0|0:0,0:0:0:0:
312,192,26878,2,0,L|280:112,1,80,0|0,0:0|0:0,0:0:0:0:
80,64,27347,2,0,P|40:64|80:128,1,160
176,64,28050,1,0,0:0:0:0:
408,64,28285,54,0,L|352:248,1,160,2|0,0:0|0:0,0:0:0:0:
256,192,28988,1,0,0:0:0:0:
64,320,29222,2,0,L|120:136,1,160,0|0,0:0|0:0,0:0:0:0:
208,64,29925,1,0,0:0:0:0:
408,64,30160,22,0,L|432:144,1,80,2|0,0:0|0:0,0:0:0:0:
288,192,30628,2,0,L|256:272,1,80,0|2,0:0|0:0,0:0:0:0:
448,192,31097,2,0,L|496:368,1,160
352,192,31800,1,0,0:0:0:0:
120,64,32035,22,0,P|80:64|128:120,1,160,2|0,0:0|0:0,0:0:0:0:
224,64,32738,1,0,0:0:0:0:
424,192,32972,2,0,L|360:256,1,80
256,64,33324,2,0,L|288:208,1,120
472,64,33910,54,0,L|448:240,1,160,2|0,0:0|0:0,0:0:0:0:
336,192,34613,1,2,0:0:0:0:
136,320,34847,2,0,L|157:162,1,160
256,192,35550,1,0,0:0:0:0:
448,192,35785,5,2,0:0:0:0:
320,64,36019,2,0,L|320:128,1,40
256,192,36488,69,0,0:0:0:0:
64,192,36722,1,0,0:0:0:0:
192,64,36956,2,0,L|192:104,1,40
352,192,37425,37,0,0:0:0:0:
160,192,37660,2,0,L|200:272,1,80
352,192,38128,2,0,L|312:272,1,80
112,296,38597,69,0,0:0:0:0:
256,296,38832,1,2,0:0:0:0:
400,296,39066,2,0,L|376:216,1,80
80,192,39535,54,0,L|128:64,1,120,4|0,0:0|0:0,0:0:0:0:
160,192,40003,1,0,0:0:0:0:
256,64,40238,1,0,0:0:0:0:
432,192,40472,2,0,L|384:64,1,120,0|0,0:0|0:0,0:0:0:0:
352,192,40940,1,0,0:0:0:0:
256,192,41175,1,0,0:0:0:0:
56,192,41410,22,0,L|72:288,1,80,2|0,0:0|0:0,0:0:0:0:
176,192,41878,1,0,0:0:0:0:
296,192,42113,1,0,0:0:0:0:
96,64,42347,2,0,P|56:64|104:120,1,160,2|0,0:0|0:0,0:0:0:0:
200,64,43050,1,0,0:0:0:0:
448,192,43285,54,0,L|416:352,1,160,2|0,0:0|0:0,0:0:0:0:
320,192,43988,1,0,0:0:0:0:
144,264,44222,2,0,L|164:187,1,80
320,192,44691,2,0,L|300:114,1,80
120,64,45160,21,2,0:0:0:0:
256,192,45394,1,0,0:0:0:0:
392,64,45628,1,0,0:0:0:0:
256,192,45863,1,0,0:0:0:0:
40,64,46097,2,0,L|200:64,1,160
96,192,46800,1,0,0:0:0:0:
288,320,47035,22,0,L|176:200,1,160,2|0,0:0|0:0,0:0:0:0:
328,192,47738,1,0,0:0:0:0:
488,64,47972,2,0,L|360:64,1,120
328,64,48441,1,0,0:0:0:0:
208,64,48675,1,0,0:0:0:0:
408,192,48910,54,0,L|448:376,1,160,2|0,0:0|0:0,0:0:0:0:
304,192,49613,1,0,0:0:0:0:
168,64,49847,2,0,L|344:64,1,160,2|0,0:0|0:0,0:0:0:0:
424,64,50550,1,0,0:0:0:0:
256,192,50785,5,2,0:0:0:0:
400,192,51019,2,0,L|400:240,1,40
88,64,51488,69,0,0:0:0:0:
256,64,51722,1,0,0:0:0:0:
112,192,51956,2,0,L|112:240,1,40
312,64,52425,37,0,0:0:0:0:
128,64,52660,1,0,0:0:0:0:
384,64,53011,1,0,0:0:0:0:
144,192,53363,1,0,0:0:0:0:
368,192,53597,69,0,0:0:0:0:
160,320,53949,1,0,0:0:0:0:
352,320,54300,1,0,0:0:0:0:
40,192,54535,53,4,0:0:0:0:
176,64,54769,2,0,L|240:112,2,80,0|0|0,0:0|0:0|0:0,0:0:0:0:
392,192,55472,2,0,L|248:192,1,80
464,320,55941,2,0,L|272:320,1,160
128,64,56644,6,0,L|208:64,1,80
304,64,57113,1,0,0:0:0:0:
120,192,57347,2,0,L|264:192,1,80
48,320,57816,2,0,L|240:320,1,160
352,320,58519,5,0,0:0:0:0:
208,192,58753,2,0,L|256:128,1,80
432,64,59222,1,0,0:0:0:0:
288,64,59457,2,0,L|256:176,1,80
136,64,59925,1,0,0:0:0:0:
304,192,60160,54,0,L|224:192,1,80
336,320,60628,1,0,0:0:0:0:
208,320,60863,1,0,0:0:0:0:
416,192,61097,2,0,P|456:192|408:248,1,160,0|0,0:0|0:0,0:0:0:0:
256,192,61800,1,0,0:0:0:0:
80,192,62035,22,0,L|32:256,2,80,0|0|0,0:0|0:0|0:0,0:0:0:0:
224,64,62738,1,0,0:0:0:0:
368,64,62972,2,0,L|320:160,1,80
192,192,63441,2,0,L|240:288,1,80
400,320,63910,6,0,L|464:256,2,80,0|0|0,0:0|0:0|0:0,0:0:0:0:
192,320,64613,2,0,P|152:320|200:264,1,160,0|0,0:0|0:0,0:0:0:0:
320,320,65316,2,0,L|368:256,1,80
160,192,65785,6,0,L|64:48,1,160
256,192,66488,1,0,0:0:0:0:
440,325,66722,2,0,L|352:192,1,160
272,48,67425,1,0,0:0:0:0:
76,192,67660,69,0,0:0:0:0:
196,192,68128,69,0,0:0:0:0:
316,192,68597,85,0,0:0:0:0:
436,192,69066,54,0,L|416:272,1,80,0|0,0:0|0:0,0:0:0:0:
96,64,69535,70,0,L|16:160,2,120,4|0|0,0:0|0:0|0:0,0:0:0:0:
288,64,70472,2,0,L|336:144,1,80
400,192,70824,2,0,L|352:304,1,120
128,192,71410,22,0,L|256:272,1,120
272,192,71878,1,0,0:0:0:0:
160,64,72113,1,0,0:0:0:0:
368,64,72347,2,0,L|464:144,2,120,0|0|0,0:0|0:0|0:0,0:0:0:0:
144,64,73285,70,0,L|48:144,2,120,0|0|0,0:0|0:0|0:0,0:0:0:0:
336,64,74222,2,0,L|320:160,1,80
232,192,74574,2,0,L|304:304,1,120
480,320,75160,54,0,L|336:320,1,120
304,320,75628,1,0,0:0:0:0:
136,320,75863,1,0,0:0:0:0:
272,64,76097,2,0,L|128:64,2,120,0|0|0,0:0|0:0|0:0,0:0:0:0:
96,192,77035,70,0,L|32:304,2,120,0|0|0,0:0|0:0|0:0,0:0:0:0:
328,192,77972,2,0,L|392:288,1,80
448,192,78324,2,0,L|384:64,1,120
160,304,78910,22,0,L|304:304,1,120,0|0,0:0|0:0,0:0:0:0:
320,304,79378,1,0,0:0:0:0:
224,192,79613,1,0,0:0:0:0:
432,192,79847,2,0,L|352:32,1,160
288,192,80550,1,0,0:0:0:0:
80,320,80785,70,0,L|192:256,2,120,0|0|0,0:0|0:0|0:0,0:0:0:0:
272,64,81722,2,0,L|144:64,1,120,0|0,0:0|0:0,0:0:0:0:
96,64,82191,1,0,0:0:0:0:
240,192,82425,1,0,0:0:0:0:
448,320,82660,54,0,L|480:192,1,120
432,112,83128,1,0,0:0:0:0:
304,192,83363,1,0,0:0:0:0:
160,192,83597,2,0,L|208:128,1,80
400,192,84066,2,0,L|352:128,1,80
48,192,84535,70,0,L|160:288,2,120,4|0|0,0:0|0:0|0:0,0:0:0:0:
240,64,85472,2,0,L|288:144,1,80
352,192,85824,2,0,L|240:256,1,120
480,64,86410,22,0,L|352:64,1,120
320,64,86878,1,0,0:0:0:0:
192,192,87113,1,0,0:0:0:0:
352,336,87347,2,0,L|208:304,2,120,0|0|0,0:0|0:0|0:0,0:0:0:0:
160,48,88285,70,0,L|304:80,2,120,0|0|0,0:0|0:0|0:0,0:0:0:0:
352,192,89222,2,0,L|320:272,1,80
232,192,89574,2,0,L|272:64,1,120
480,192,90160,54,0,L|352:224,1,120
304,192,90628,1,0,0:0:0:0:
176,320,90863,1,0,0:0:0:0:
368,320,91097,2,0,L|456:224,2,120,0|0|0,0:0|0:0|0:0,0:0:0:0:
144,320,92035,70,0,L|56:224,2,120,0|0|0,0:0|0:0|0:0,0:0:0:0:
344,192,92972,2,0,L|392:256,1,80
472,192,93324,2,0,L|392:80,1,120
176,80,93910,22,0,L|304:80,1,120
336,80,94378,1,0,0:0:0:0:
208,192,94613,1,0,0:0:0:0:
416,192,94847,2,0,P|464:244|416:244,1,160
304,192,95550,1,0,0:0:0:0:
80,192,95785,70,0,L|192:256,2,120,0|0|0,0:0|0:0|0:0,0:0:0:0:
240,64,96722,2,0,L|304:144,1,80
472,192,97191,2,0,L|408:272,1,80
176,192,97660,54,0,L|80:288,2,120,0|0|0,0:0|0:0|0:0,0:0:0:0:
360,192,98597,2,0,L|392:288,1,80
152,192,99066,2,0,L|120:288,1,80
256,192,99535,12,2,102347,0:0:0:0:
408,192,103050,53,0,0:0:0:0:
112,192,103285,86,0,L|32:320,2,120,4|0|0,0:0|0:0|0:0,0:0:0:0:
336,64,104222,2,0,L|448:128,2,120,0|0|0,0:0|0:0|0:0,0:0:0:0:
144,64,105160,22,0,L|112:160,1,80,0|0,0:0|0:0,0:0:0:0:
272,192,105628,2,0,L|288:272,1,80
480,192,106097,2,0,L|336:96,1,160
240,96,106800,1,0,0:0:0:0:
48,192,107035,54,0,L|112:352,1,160
256,192,107738,1,0,0:0:0:0:
464,192,107972,2,0,L|400:32,1,160
208,48,108675,22,0,L|384:48,1,160,0|0,0:0|0:0,0:0:0:0:
256,192,109378,1,0,0:0:0:0:
144,192,109613,1,0,0:0:0:0:
368,304,109847,2,0,L|192:304,1,160
96,304,110550,1,0,0:0:0:0:
288,192,110785,22,0,P|336:244|288:244,1,160
176,72,111488,1,0,0:0:0:0:
352,192,111722,2,0,L|240:320,1,160
352,64,112425,1,0,0:0:0:0:
160,64,112660,54,0,L|112:128,1,80
256,192,113128,2,0,L|320:288,1,80
112,64,113597,2,0,L|80:256,1,160
144,192,114300,1,0,0:0:0:0:
368,192,114535,5,0,0:0:0:0:
192,64,114769,2,0,L|160:128,1,40
352,64,115238,69,0,0:0:0:0:
144,192,115472,1,0,0:0:0:0:
320,64,115706,2,0,L|352:128,1,40
160,64,116175,37,0,0:0:0:0:
352,64,116410,1,0,0:0:0:0:
144,192,116761,1,0,0:0:0:0:
368,192,117113,1,0,0:0:0:0:
176,192,117347,37,0,0:0:0:0:
336,192,117699,1,0,0:0:0:0:
128,320,118050,1,0,0:0:0:0:
448,192,118285,85,4,0:0:0:0:
320,192,118519,1,0,0:0:0:0:
432,64,118753,2,0,L|336:64,1,80
128,320,119222,2,0,L|224:320,1,80
48,192,119691,2,0,L|208:192,1,160
344,64,120394,5,0,0:0:0:0:
168,64,120628,1,0,0:0:0:0:
256,64,120863,1,0,0:0:0:0:
384,320,121097,2,0,L|288:320,1,80
464,192,121566,2,0,L|304:192,1,160
128,192,122269,5,0,0:0:0:0:
240,192,122503,1,0,0:0:0:0:
400,320,122738,2,0,L|224:320,1,160
96,320,123441,1,0,0:0:0:0:
208,320,123675,1,0,0:0:0:0:
352,192,123910,54,0,L|320:96,1,80
160,192,124378,2,0,L|192:288,1,80
400,192,124847,2,0,P|440:192|392:248,1,160,0|0,0:0|0:0,0:0:0:0:
304,192,125550,1,0,0:0:0:0:
80,192,125785,21,0,0:0:0:0:
224,192,126019,2,0,L|210:270,1,80
112,64,126488,1,0,0:0:0:0:
272,64,126722,2,0,L|288:144,1,80
432,192,127191,2,0,L|416:272,1,80
208,320,127660,6,0,L|128:304,2,80,0|0|0,0:0|0:0|0:0,0:0:0:0:
384,64,128363,2,0,L|208:64,1,160
64,192,129066,1,0,0:0:0:0:
256,192,129300,1,0,0:0:0:0:
448,192,129535,1,2,0:0:0:0:
80,192,130238,38,0,L|96:272,1,80
400,192,131175,38,0,L|384:272,1,80
128,270,131761,69,0,0:0:0:0:
336,192,132113,85,0,0:0:0:0:
176,192,132347,1,0,0:0:0:0:
432,64,132816,54,0,L|416:144,1,80
96,64,133285,70,0,L|192:176,2,120,4|0|0,0:0|0:0|0:0,0:0:0:0:
288,64,134222,2,0,L|352:128,1,80
288,192,134574,2,0,L|208:288,1,120
416,304,135160,22,0,L|288:304,1,120
240,304,135628,1,0,0:0:0:0:
336,192,135863,1,0,0:0:0:0:
152,48,136097,2,0,L|264:112,2,120,0|0|0,0:0|0:0|0:0,0:0:0:0:
360,48,137035,70,0,L|248:112,2,120,0|0|0,0:0|0:0|0:0,0:0:0:0:
160,192,137972,2,0,L|192:272,1,80
272,192,138324,2,0,L|160:128,1,120
352,304,138910,54,0,L|224:304,1,120
176,304,139378,1,0,0:0:0:0:
304,192,139613,1,0,0:0:0:0:
112,64,139847,2,0,L|208:160,2,120,0|0|0,0:0|0:0|0:0,0:0:0:0:
320,192,140785,70,0,L|432:112,2,120,0|0|0,0:0|0:0|0:0,0:0:0:0:
168,80,141722,2,0,L|152:176,1,80
248,192,142074,2,0,L|352:128,1,120
136,320,142660,22,0,L|43:243,2,120,0|0|0,0:0|0:0|0:0,0:0:0:0:
352,192,143597,2,0,P|392:192|344:248,1,160,0|0,0:0|0:0,0:0:0:0:
240,192,144300,1,0,0:0:0:0:
48,48,144535,70,0,L|176:112,2,120,0|0|0,0:0|0:0|0:0,0:0:0:0:
240,208,145472,2,0,L|121:194,1,120
73,194,145941,1,0,0:0:0:0:
256,64,146175,1,0,0:0:0:0:
464,192,146410,54,0,L|344:177,1,120
296,177,146879,1,0,0:0:0:0:
160,64,147113,1,0,0:0:0:0:
336,192,147347,2,0,L|400:288,1,80
176,192,147816,2,0,L|112:288,1,80
432,64,148285,70,0,L|336:144,2,120,4|0|0,0:0|0:0|0:0,0:0:0:0:
240,192,149222,2,0,L|208:272,1,80
288,288,149574,2,0,L|384:192,1,120
184,64,150160,22,0,L|288:152,1,120
336,64,150628,1,0,0:0:0:0:
208,192,150863,1,0,0:0:0:0:
400,320,151097,2,0,L|304:224,2,120,0|0|0,0:0|0:0|0:0,0:0:0:0:
192,64,152035,70,0,L|304:128,2,120,0|0|0,0:0|0:0|0:0,0:0:0:0:
384,192,152972,2,0,L|416:272,1,80
312,304,153324,2,0,L|184:336,1,120
32,192,153910,54,0,L|152:192,1,120
208,192,154378,1,0,0:0:0:0:
352,192,154613,1,0,0:0:0:0:
160,64,154847,2,0,L|83:156,2,120,0|0|0,0:0|0:0|0:0,0:0:0:0:
368,64,155785,70,0,L|480:144,2,120,0|0|0,0:0|0:0|0:0,0:0:0:0:
160,64,156722,2,0,L|112:144,1,80
192,192,157074,2,0,L|240:304,1,120
464,320,157660,22,0,L|320:320,1,120
288,320,158128,1,0,0:0:0:0:
168,192,158363,1,0,0:0:0:0:
368,192,158597,2,0,P|416:244|368:244,1,160
256,192,159300,1,0,0:0:0:0:
64,64,159535,70,0,L|192:128,2,120,0|0|0,0:0|0:0|0:0,0:0:0:0:
192,192,160472,2,0,L|240:272,1,80
416,64,160941,2,0,L|368:128,1,80
160,320,161410,54,0,L|64:224,2,120,0|0|0,0:0|0:0|0:0,0:0:0:0:
352,320,162347,2,0,L|400:224,1,80
160,320,162816,2,0,L|112:224,1,80
256,192,163285,12,2,166097,0:0:0:0:
96,192,166800,53,0,0:0:0:0:
416,192,167035,53,4,0:0:0:0:
256,64,167503,1,0,0:0:0:0:
112,64,167738,2,0,L|96:144,1,80
256,192,168441,53,0,0:0:0:0:
400,192,168675,2,0,L|416:272,1,80
288,64,169144,70,0,L|272:160,1,80
160,64,169613,1,0,0:0:0:0:
352,192,169847,2,0,L|464:256,2,120,0|0|0,0:0|0:0|0:0,0:0:0:0:
120,192,170785,101,0,0:0:0:0:
240,192,171253,2,0,L|304:272,1,80
144,64,171722,2,0,L|48:144,2,120,0|0|0,0:0|0:0|0:0,0:0:0:0:
368,64,172660,54,0,L|464:144,2,120,0|0|0,0:0|0:0|0:0,0:0:0:0:
144,192,173597,2,0,P|96:192|144:240,1,160
240,192,174300,1,0,0:0:0:0:
464,192,174535,69,0,0:0:0:0:
368,192,174769,2,0,L|288:224,1,80
136,80,175238,1,0,0:0:0:0:
320,80,175472,2,0,L|416:160,2,120,0|0|0,0:0|0:0|0:0,0:0:0:0:
80,80,176410,102,0,L|64:160,1,80
192,192,176878,2,0,L|208:272,1,80
432,80,177347,54,0,L|448:160,1,80
320,192,177815,2,0,L|304:272,1,80
80,80,178285,70,0,L|208:176,1,160
432,80,178988,102,0,L|304:176,1,160,0|0,0:0|0:0,0:0:0:0:
192,192,179691,2,0,L|208:272,1,80
432,304,180160,54,0,L|304:208,1,160
80,304,180863,70,0,L|208:208,1,160
368,192,181566,2,0,L|352:272,1,80
48,64,182035,102,0,L|64:144,1,80,4|0,0:0|0:0,0:0:0:0:
208,192,182503,2,0,L|80:224,2,120,0|0|0,0:0|0:0|0:0,0:0:0:0:
384,64,183441,2,0,L|416:144,1,80
256,192,183910,53,0,0:0:0:0:
128,64,184144,2,0,L|96:144,1,80
320,288,184613,2,0,L|128:288,1,160
272,192,185316,1,0,0:0:0:0:
368,192,185550,1,0,0:0:0:0:
128,192,185785,69,0,0:0:0:0:
288,64,186253,2,0,L|336:144,1,80
144,192,186722,2,0,L|48:288,2,120,0|0|0,0:0|0:0|0:0,0:0:0:0:
368,192,187660,102,0,L|464:288,2,120,0|0|0,0:0|0:0|0:0,0:0:0:0:
144,192,188597,2,0,P|96:192|144:240,1,160
224,192,189300,1,0,0:0:0:0:
448,192,189535,54,0,L|352:288,2,120,0|0|0,0:0|0:0|0:0,0:0:0:0:
288,48,190472,2,0,L|384:144,2,120,0|0|0,0:0|0:0|0:0,0:0:0:0:
80,192,191410,70,0,L|32:256,2,80,0|0|0,0:0|0:0|0:0,0:0:0:0:
176,192,192113,1,0,0:0:0:0:
368,192,192347,2,0,L|480:272,2,120,0|0|0,0:0|0:0|0:0,0:0:0:0:
256,192,193285,12,0,194691,0:0:0:0:
256,192,194925,102,0,L|256:288,1,80,2|4,0:0|0:0,0:0:0:0:
128,192,195511,53,2,0:0:0:0:
384,192,195863,21,0,0:0:0:0:
192,64,196097,1,0,0:0:0:0:
328,64,196566,37,2,0:0:0:0:
256,192,209222,12,0,210862,0:0:0:0:
144,192,211097,101,2,0:0:0:0:
368,192,211448,85,2,0:0:0:0:
176,80,211800,85,0,0:0:0:0:
336,80,212034,1,2,0:0:0:0:
80,80,212503,54,0,L|96:176,1,80,2|0,0:0|0:0,0:0:0:0:
432,192,212972,70,0,L|320:280,2,120,4|0|0,0:0|0:0|0:0,0:0:0:0:
272,80,213909,2,0,L|192:96,1,80
96,192,214261,2,0,L|144:320,1,120
368,304,214847,22,0,L|440:192,2,120,0|0|0,0:0|0:0|0:0,0:0:0:0:
144,304,215784,2,0,L|72:192,2,120,0|0|0,0:0|0:0|0:0,0:0:0:0:
360,80,216722,70,0,L|464:144,2,120,0|0|0,0:0|0:0|0:0,0:0:0:0:
176,192,217659,2,0,L|264:224,1,80
360,304,218011,2,0,L|320:176,1,120
104,72,218597,54,0,L|16:184,2,120,0|0|0,0:0|0:0|0:0,0:0:0:0:
408,72,219534,2,0,L|496:184,2,120,0|0|0,0:0|0:0|0:0,0:0:0:0:
168,192,220472,70,0,L|56:256,2,120,0|0|0,0:0|0:0|0:0,0:0:0:0:
392,192,221409,2,0,L|432:272,1,80
352,320,221761,2,0,L|288:192,1,120
104,64,222347,22,0,L|240:72,2,120,0|0|0,0:0|0:0|0:0,0:0:0:0:
296,192,223284,2,0,P|344:244|296:244,1,160
192,192,223987,1,0,0:0:0:0:
408,64,224222,70,0,L|480:176,2,120,0|0|0,0:0|0:0|0:0,0:0:0:0:
208,64,225159,2,0,L|128:96,1,80
304,64,225628,2,0,L|384:96,1,80
160,192,226097,54,0,L|64:288,2,120,0|0|0,0:0|0:0|0:0,0:0:0:0:
384,192,227034,2,0,L|344:96,1,80
128,192,227503,2,0,L|168:96,1,80
256,192,227972,12,2,229847,0:0:0:0:
320,192,230198,53,0,0:0:0:0:
192,192,230550,1,0,0:0:0:0:
416,192,230784,2,0,P|464:244|416:244,1,160,2|0,0:0|0:0,0:0:0:0:
336,80,231487,1,0,0:0:0:0:
128,80,231722,102,0,L|32:176,1,120,2|0,0:0|0:0,0:0:0:0:
64,192,232190,1,0,0:0:0:0:
288,176,232425,2,0,L|448:208,1,160
336,80,233128,1,0,0:0:0:0:
224,80,233362,1,0,0:0:0:0:
48,192,233597,102,0,L|192:192,1,120
208,192,234065,1,0,0:0:0:0:
408,192,234300,2,0,L|240:192,1,160
128,320,235003,1,0,0:0:0:0:
256,320,235237,1,0,0:0:0:0:
448,320,235472,86,0,L|384:192,1,120
360,192,235940,1,0,0:0:0:0:
200,64,236175,2,0,L|360:64,1,160
200,192,236878,1,0,0:0:0:0:
136,192,237112,1,0,0:0:0:0:
328,192,237347,54,0,L|400:304,1,120,2|0,0:0|0:0,0:0:0:0:
424,192,237815,1,0,0:0:0:0:
256,64,238050,1,0,0:0:0:0:
80,192,238284,2,0,L|256:192,1,160,2|0,0:0|0:0,0:0:0:0:
368,192,238987,1,0,0:0:0:0:
160,64,239222,102,0,L|96:208,1,120,2|0,0:0|0:0,0:0:0:0:
80,192,239690,1,0,0:0:0:0:
256,320,239925,2,0,L|88:320,1,160
216,192,240628,1,0,0:0:0:0:
336,192,240862,1,0,0:0:0:0:
136,192,241097,102,0,L|192:336,1,120
216,192,241565,1,0,0:0:0:0:
376,64,241800,2,0,L|208:64,1,160
88,64,242503,1,0,0:0:0:0:
256,192,242737,1,0,0:0:0:0:
424,64,242972,86,0,L|456:96,2,40,0|0|0,0:0|0:0|0:0,0:0:0:0:
256,64,243440,1,0,0:0:0:0:
384,192,243675,2,0,L|416:232,1,40
256,192,244026,2,0,L|240:232,1,40
392,320,244378,1,0,0:0:0:0:
256,320,244612,1,0,0:0:0:0:
80,192,244847,54,0,L|200:192,1,120,2|0,0:0|0:0,0:0:0:0:
456,192,245550,1,0,0:0:0:0:
256,192,245784,2,0,P|208:244|256:244,1,160,2|0,0:0|0:0,0:0:0:0:
352,192,246487,1,0,0:0:0:0:
160,64,246722,54,0,L|96:192,1,120,2|0,0:0|0:0,0:0:0:0:
352,192,247425,2,0,L|456:320,1,160
96,328,248597,54,0,L|168:216,1,120
400,56,249300,2,0,L|312:200,1,160
96,192,250237,1,0,0:0:0:0:
256,192,250472,54,0,L|384:208,1,120,2|0,0:0|0:0,0:0:0:0:
112,320,251175,2,0,L|32:160,1,160
256,64,252112,1,0,0:0:0:0:
448,64,252347,54,0,L|376:176,1,120,2|0,0:0|0:0,0:0:0:0:
272,192,253050,1,0,0:0:0:0:
72,192,253284,2,0,L|128:296,1,80,2|0,0:0|0:0,0:0:0:0:
272,192,253987,1,0,0:0:0:0:
472,192,254222,54,0,L|392:56,1,120,2|0,0:0|0:0,0:0:0:0:
112,64,254925,2,0,P|64:116|112:116,1,160
392,320,256097,54,0,L|440:208,1,120,0|0,0:0|0:0,0:0:0:0:
144,320,256800,2,0,L|88:144,1,160,0|4,0:0|0:0,0:0:0:0:
