osu file format v13

[General]
AudioFilename: 02 18.mp3
AudioLeadIn: 0
PreviewTime: 67308
Countdown: 0
SampleSet: Soft
StackLeniency: 0.7
Mode: 2
LetterboxInBreaks: 0
EpilepsyWarning: 1
WidescreenStoryboard: 1

[Editor]
Bookmarks: 9535,24535,39535,54535,69535,84535,103285,118285,133285,148285,167035,182035,197972,212972,227972,242972
DistanceSpacing: 2
BeatDivisor: 8
GridSize: 8
TimelineZoom: 1.4

[Metadata]
Title:18sai
TitleUnicode:18歳
Artist:Goose house
ArtistUnicode:Goose house
Creator:mingmichael
Version:Rain
Source:
Tags:-[Koinuri] Phrase #1 Soundtrack Jyuuhassai じゅうはっさい 神田莉緒香 工藤秀平 なんだ神田K.K. Kanda Rioka Kudou Shuuhei Nanda Kanda K.K.
BeatmapID:560408
BeatmapSetID:242856

[Difficulty]
HPDrainRate:7
CircleSize:4
OverallDifficulty:8.6
ApproachRate:8.6
SliderMultiplier:1.8
SliderTickRate:1

[Events]
//Background and Video events
0,0,"18 sai osu 2.jpg",0,0
//Break Periods
2,197972,208563
//Storyboard Layer 0 (Background)
//Storyboard Layer 1 (Fail)
//Storyboard Layer 2 (Pass)
//Storyboard Layer 3 (Foreground)
//Storyboard Sound Samples

[TimingPoints]
9535.18119610049,468.75,4,2,3,50,1,0
24417,-100,4,2,3,40,0,0
24652,-100,4,2,3,70,0,0
25121,-100,4,2,3,40,0,0
25355,-100,4,2,3,70,0,0
26058,-100,4,2,5,70,0,0
26351,-100,4,2,3,40,0,0
26468,-100,4,2,5,70,0,0
26761,-100,4,2,3,70,0,0
27054,-100,4,2,3,40,0,0
27171,-100,4,2,3,70,0,0
27933,-100,4,2,5,70,0,0
28226,-100,4,2,3,40,0,0
28343,-100,4,2,3,70,0,0
28929,-100,4,2,3,40,0,0
29046,-100,4,2,3,70,0,0
29808,-100,4,2,5,70,0,0
30101,-100,4,2,3,30,0,0
30218,-100,4,2,5,70,0,0
30511,-100,4,2,3,70,0,0
30804,-100,4,2,3,40,0,0
30921,-100,4,2,3,70,0,0
31683,-100,4,2,5,70,0,0
31976,-100,4,2,3,40,0,0
32093,-100,4,2,3,70,0,0
32679,-100,4,2,3,40,0,0
32796,-100,4,2,3,70,0,0
33148,-100,4,2,5,70,0,0
33265,-100,4,2,3,30,0,0
33558,-100,4,2,5,70,0,0
33851,-100,4,2,3,40,0,0
33968,-100,4,2,3,70,0,0
34554,-100,4,2,3,40,0,0
34671,-100,4,2,3,70,0,0
35433,-100,4,2,5,70,0,0
35726,-100,4,2,3,40,0,0
35843,-100,4,2,3,70,0,0
39476,-100,4,2,3,50,0,0
39593,-100,4,2,5,80,0,0
39828,-100,4,2,3,50,0,0
40179,-100,4,2,5,80,0,0
40296,-100,4,2,3,80,0,0
40648,-100,4,2,5,80,0,0
40765,-100,4,2,3,50,0,0
41117,-100,4,2,5,80,0,0
41234,-100,4,2,3,30,0,0
41585,-100,4,2,5,80,0,0
41703,-100,4,2,3,80,0,0
42054,-100,4,2,5,80,0,0
42171,-100,4,2,3,30,0,0
42757,-100,4,2,1,40,0,0
42875,-100,4,2,5,80,0,0
43167,-100,4,2,3,30,0,0
43519,-100,4,2,3,80,0,0
43929,-100,4,2,5,80,0,0
44046,-100,4,2,3,80,0,0
44398,-100,4,2,5,80,0,0
44515,-100,4,2,1,40,0,0
44867,-100,4,2,5,80,0,0
44984,-100,4,2,3,30,0,0
45335,-100,4,2,5,80,0,0
45453,-100,4,2,3,80,0,0
45804,-100,4,2,5,80,0,0
45921,-100,4,2,3,80,0,0
46507,-100,4,2,1,40,0,0
46625,-100,4,2,5,80,0,0
46976,-100,4,2,3,30,0,0
47269,-100,4,2,3,80,0,0
47679,-100,4,2,5,80,0,0
47796,-100,4,2,3,80,0,0
48148,-100,4,2,5,80,0,0
48265,-100,4,2,3,50,0,0
48617,-100,4,2,5,80,0,0
48734,-100,4,2,3,30,0,0
49085,-100,4,2,5,80,0,0
49203,-100,4,2,3,80,0,0
49554,-100,4,2,5,80,0,0
49671,-100,4,2,3,30,0,0
50257,-100,4,2,1,40,0,0
50375,-100,4,2,5,80,0,0
50667,-100,4,2,3,30,0,0
50902,-100,4,2,3,50,0,0
52660,-100,4,2,3,60,0,0
52835,-100,4,2,3,30,0,0
52953,-100,4,2,3,60,0,0
53187,-100,4,2,3,30,0,0
53304,-100,4,2,3,60,0,0
53773,-100,4,2,3,30,0,0
53890,-100,4,2,3,60,0,0
54125,-100,4,2,3,30,0,0
54242,-100,4,2,3,60,0,0
54359,-100,4,2,3,30,0,0
54476,-100,4,2,3,45,0,0
54710,-100,4,2,5,60,0,0
54828,-100,4,2,6,50,0,0
55062,-100,4,2,5,80,0,0
55355,-100,4,2,3,80,0,0
55589,-100,4,2,5,80,0,0
55824,-100,4,2,7,80,0,0
56175,-100,4,2,3,80,0,0
56527,-100,4,2,5,80,0,0
56761,-100,4,2,7,80,0,0
56996,-100,4,2,5,80,0,0
57230,-66.6666666666667,4,2,3,80,0,0
57464,-66.6666666666667,4,2,5,80,0,0
57699,-100,4,2,7,80,0,0
58050,-100,4,2,3,80,0,0
58402,-100,4,2,5,80,0,0
58636,-100,4,2,7,80,0,0
58871,-66.6666666666667,4,2,5,80,0,0
59105,-66.6666666666667,4,2,3,80,0,0
59339,-100,4,2,5,80,0,0
59574,-83.3333333333333,4,2,7,80,0,0
59808,-83.3333333333333,4,2,5,80,0,0
60042,-100,4,2,3,80,0,0
60277,-100,4,2,5,80,0,0
60511,-100,4,2,7,80,0,0
60746,-100,4,2,5,80,0,0
60980,-100,4,2,3,80,0,0
61332,-100,4,2,7,80,0,0
61683,-100,4,2,5,80,0,0
61917,-100,4,2,3,80,0,0
62152,-100,4,2,5,80,0,0
62386,-100,4,2,7,80,0,0
62621,-100,4,2,5,80,0,0
62855,-100,4,2,3,80,0,0
63089,-100,4,2,5,80,0,0
63324,-100,4,2,7,80,0,0
63558,-100,4,2,5,80,0,0
63792,-66.6666666666667,4,2,3,80,0,0
64027,-66.6666666666667,4,2,5,80,0,0
64261,-100,4,2,7,80,0,0
64496,-83.3333333333333,4,2,5,80,0,0
65199,-100,4,2,7,80,0,0
65433,-100,4,2,5,80,0,0
65667,-100,4,2,3,80,0,0
66019,-100,4,2,7,80,0,0
66371,-100,4,2,5,80,0,0
66605,-100,4,2,3,80,0,0
66957,-100,4,2,7,80,0,0
67308,-100,4,2,5,80,0,0
67542,-100,4,2,3,80,0,0
67894,-100,4,2,5,70,0,0
68363,-100,4,2,5,60,0,0
68832,-100,4,2,5,70,0,0
69535,-100,4,2,2,80,0,1
69652,-100,4,2,5,100,0,1
69828,-100,4,2,3,40,0,1
70179,-100,4,2,5,100,0,1
70355,-100,4,2,3,100,0,1
70589,-100,4,2,5,100,0,1
70765,-100,4,2,3,40,0,1
71117,-100,4,2,5,100,0,1
71292,-100,4,2,3,100,0,1
71527,-100,4,2,5,100,0,1
71703,-100,4,2,3,40,0,1
72054,-100,4,2,5,100,0,1
72230,-100,4,2,3,100,0,1
72464,-100,4,2,5,100,0,1
72640,-100,4,2,3,40,0,1
72992,-100,4,2,5,100,0,1
73167,-100,4,2,3,100,0,1
73402,-100,4,2,5,100,0,1
73578,-100,4,2,3,40,0,1
73929,-100,4,2,5,100,0,1
74105,-100,4,2,3,100,0,1
74339,-100,4,2,5,100,0,1
74515,-100,4,2,3,40,0,1
74867,-100,4,2,5,100,0,1
75042,-100,4,2,3,100,0,1
75277,-100,4,2,5,100,0,1
75453,-100,4,2,3,40,0,1
75804,-100,4,2,5,100,0,1
75980,-100,4,2,3,100,0,1
76214,-100,4,2,5,100,0,1
76390,-100,4,2,3,40,0,1
76742,-100,4,2,5,100,0,1
76917,-100,4,2,3,100,0,1
77152,-100,4,2,5,100,0,1
77328,-100,4,2,3,40,0,1
77679,-100,4,2,5,100,0,1
77855,-100,4,2,3,100,0,1
78089,-100,4,2,5,100,0,1
78265,-100,4,2,3,40,0,1
78617,-100,4,2,5,100,0,1
78792,-100,4,2,3,100,0,1
79203,-100,4,2,3,40,0,1
79554,-100,4,2,5,100,0,1
79730,-100,4,2,3,100,0,1
80082,-100,4,2,4,50,0,1
80433,-100,4,2,5,100,0,1
80667,-100,4,2,3,100,0,1
80902,-100,4,2,5,100,0,1
81078,-100,4,2,3,40,0,1
81429,-100,4,2,5,100,0,1
81605,-100,4,2,3,100,0,1
81839,-100,4,2,5,100,0,1
82015,-100,4,2,3,40,0,1
82367,-100,4,2,5,100,0,1
82542,-100,4,2,3,100,0,1
82777,-100,4,2,5,100,0,1
82953,-100,4,2,3,50,0,1
83304,-100,4,2,5,100,0,1
83480,-100,4,2,3,100,0,1
83714,-100,4,2,5,100,0,1
83949,-100,4,2,4,50,0,1
84183,-100,4,2,5,100,0,1
84417,-100,4,2,2,60,0,1
84652,-100,4,2,5,80,0,1
84828,-100,4,2,3,40,0,1
85179,-100,4,2,5,100,0,1
85355,-100,4,2,3,100,0,1
85589,-100,4,2,5,100,0,1
85765,-100,4,2,3,40,0,1
86117,-100,4,2,5,100,0,1
86292,-100,4,2,3,100,0,1
86527,-100,4,2,5,100,0,1
86703,-100,4,2,3,40,0,1
87054,-100,4,2,5,100,0,1
87230,-100,4,2,3,100,0,1
87464,-100,4,2,5,100,0,1
87640,-100,4,2,3,40,0,1
87992,-100,4,2,5,100,0,1
88167,-100,4,2,3,100,0,1
88402,-100,4,2,5,100,0,1
88578,-100,4,2,3,40,0,1
88929,-100,4,2,5,100,0,1
89105,-100,4,2,3,100,0,1
89339,-100,4,2,5,100,0,1
89515,-100,4,2,3,40,0,1
89867,-100,4,2,5,100,0,1
90042,-100,4,2,3,100,0,1
90277,-100,4,2,5,100,0,1
90453,-100,4,2,3,40,0,1
90804,-100,4,2,5,100,0,1
90980,-100,4,2,3,100,0,1
91214,-100,4,2,5,100,0,1
91390,-100,4,2,3,40,0,1
91742,-100,4,2,5,100,0,1
91917,-100,4,2,3,100,0,1
92152,-100,4,2,5,100,0,1
92328,-100,4,2,3,40,0,1
92679,-100,4,2,5,100,0,1
92855,-100,4,2,3,100,0,1
93089,-100,4,2,5,100,0,1
93265,-100,4,2,3,40,0,1
93617,-100,4,2,5,100,0,1
93792,-100,4,2,3,100,0,1
94203,-100,4,2,3,40,0,1
94554,-100,4,2,5,100,0,1
94730,-100,4,2,3,100,0,1
95082,-100,4,2,4,60,0,1
95433,-100,4,2,5,100,0,1
95667,-100,4,2,3,100,0,1
95902,-100,4,2,5,100,0,1
96078,-100,4,2,3,40,0,1
96429,-100,4,2,5,100,0,1
96605,-100,4,2,3,100,0,1
96839,-100,4,2,5,100,0,1
97074,-100,4,2,4,50,0,1
97308,-100,4,2,5,100,0,1
97542,-100,4,2,3,100,0,1
97777,-100,4,2,5,100,0,1
97953,-100,4,2,3,40,0,1
98304,-100,4,2,5,100,0,1
98480,-100,4,2,3,100,0,1
98714,-100,4,2,5,100,0,1
98949,-100,4,2,4,50,0,1
99183,-100,4,2,5,100,0,1
99535,-100,4,2,3,40,0,0
100003,-100,4,2,3,35,0,0
100472,-100,4,2,3,30,0,0
100941,-100,4,2,3,25,0,0
101410,-100,4,2,3,20,0,0
101878,-100,4,2,3,15,0,0
102289,-100,4,2,3,40,0,0
103167,-100,4,2,3,50,0,0
103402,-100,4,2,5,80,0,0
103578,-100,4,2,3,30,0,0
103929,-100,4,2,5,80,0,0
104105,-100,4,2,3,80,0,0
104339,-100,4,2,5,80,0,0
104515,-100,4,2,3,30,0,0
104867,-100,4,2,5,80,0,0
105042,-100,4,2,3,80,0,0
105277,-100,4,2,5,80,0,0
105511,-100,4,2,3,80,0,0
105746,-100,4,2,5,80,0,0
105980,-100,4,2,3,80,0,0
106332,-100,4,2,7,80,0,0
106683,-100,4,2,5,80,0,0
106917,-100,4,2,3,80,0,0
107621,-100,4,2,5,80,0,0
107855,-100,4,2,3,80,0,0
108207,-100,4,2,7,80,0,0
108558,-100,4,2,5,80,0,0
109261,-100,4,2,3,80,0,0
109496,-100,4,2,5,80,0,0
109730,-100,4,2,3,80,0,0
110082,-100,4,2,7,80,0,0
110433,-100,4,2,5,80,0,0
110667,-100,4,2,3,80,0,0
111371,-100,4,2,5,80,0,0
111605,-100,4,2,3,80,0,0
111957,-100,4,2,7,80,0,0
112308,-100,4,2,5,80,0,0
113011,-100,4,2,3,80,0,0
113246,-100,4,2,5,80,0,0
113480,-100,4,2,3,80,0,0
113832,-100,4,2,7,80,0,0
114183,-100,4,2,5,80,0,0
114417,-100,4,2,3,60,0,0
116585,-100,4,2,3,30,0,0
116703,-100,4,2,3,60,0,0
116937,-100,4,2,3,30,0,0
117054,-100,4,2,3,60,0,0
117523,-100,4,2,3,30,0,0
117640,-100,4,2,3,60,0,0
117875,-100,4,2,3,30,0,0
117992,-100,4,2,3,60,0,0
118109,-100,4,2,3,30,0,0
118226,-100,4,2,3,50,0,0
118402,-100,4,2,5,80,0,0
118636,-100,4,2,7,80,0,0
118871,-100,4,2,5,80,0,0
119105,-66.6666666666667,4,2,3,80,0,0
119339,-66.6666666666667,4,2,5,80,0,0
119574,-100,4,2,7,80,0,0
119925,-100,4,2,3,80,0,0
120277,-100,4,2,5,80,0,0
120511,-100,4,2,7,80,0,0
120746,-100,4,2,5,80,0,0
120980,-66.6666666666667,4,2,3,80,0,0
121214,-66.6666666666667,4,2,5,80,0,0
121449,-100,4,2,7,80,0,0
121800,-100,4,2,3,80,0,0
122152,-100,4,2,5,80,0,0
122386,-100,4,2,7,80,0,0
122621,-100,4,2,5,80,0,0
122855,-100,4,2,3,80,0,0
123089,-100,4,2,5,80,0,0
123324,-100,4,2,7,80,0,0
123558,-100,4,2,5,80,0,0
123792,-66.6666666666667,4,2,3,80,0,0
124027,-66.6666666666667,4,2,5,80,0,0
124261,-100,4,2,7,80,0,0
124496,-100,4,2,5,80,0,0
124730,-100,4,2,3,80,0,0
125082,-100,4,2,7,80,0,0
125375,-100,4,2,5,80,0,0
125726,-100,4,2,3,80,0,0
125902,-100,4,2,5,80,0,0
126136,-100,4,2,7,80,0,0
126371,-100,4,2,5,80,0,0
126605,-100,4,2,3,80,0,0
126839,-100,4,2,5,80,0,0
127074,-100,4,2,7,80,0,0
127308,-100,4,2,5,80,0,0
127542,-100,4,2,3,80,0,0
127777,-100,4,2,5,80,0,0
128011,-100,4,2,7,80,0,0
128246,-100,4,2,5,80,0,0
128949,-100,4,2,7,80,0,0
129183,-100,4,2,5,80,0,0
129417,-100,4,2,3,60,0,0
129652,-100,4,2,3,60,0,0
130941,-100,4,2,3,75,0,0
131292,-100,4,2,3,70,0,0
131585,-100,4,2,3,65,0,0
131937,-100,4,2,3,60,0,0
132230,-100,4,2,3,55,0,0
132582,-100,4,2,3,90,0,0
133285,-100,4,2,2,80,0,1
133402,-100,4,2,5,100,0,1
133578,-100,4,2,3,50,0,1
133929,-100,4,2,5,100,0,1
134105,-100,4,2,3,100,0,1
134339,-100,4,2,5,100,0,1
134515,-100,4,2,3,50,0,1
134867,-100,4,2,5,100,0,1
135042,-100,4,2,3,100,0,1
135277,-100,4,2,5,100,0,1
135453,-100,4,2,3,50,0,1
135804,-100,4,2,5,100,0,1
135980,-100,4,2,3,100,0,1
136214,-100,4,2,5,100,0,1
136390,-100,4,2,3,50,0,1
136742,-100,4,2,5,100,0,1
136917,-100,4,2,3,100,0,1
137152,-100,4,2,5,100,0,1
137328,-100,4,2,3,50,0,1
137679,-100,4,2,5,100,0,1
137855,-100,4,2,3,100,0,1
138089,-100,4,2,5,100,0,1
138265,-100,4,2,3,50,0,1
138617,-100,4,2,5,100,0,1
138792,-100,4,2,3,100,0,1
139027,-100,4,2,5,100,0,1
139203,-100,4,2,3,50,0,1
139554,-100,4,2,5,100,0,1
139730,-100,4,2,3,100,0,1
139964,-100,4,2,5,100,0,1
140140,-100,4,2,3,50,0,1
140492,-100,4,2,5,100,0,1
140667,-100,4,2,3,100,0,1
140902,-100,4,2,5,100,0,1
141078,-100,4,2,3,50,0,1
141429,-100,4,2,5,100,0,1
141605,-100,4,2,3,100,0,1
141839,-100,4,2,5,100,0,1
142015,-100,4,2,3,50,0,1
142367,-100,4,2,5,100,0,1
142542,-100,4,2,3,100,0,1
142953,-100,4,2,3,50,0,1
143304,-100,4,2,5,100,0,1
143480,-100,4,2,3,100,0,1
143832,-100,4,2,4,60,0,1
144183,-100,4,2,5,100,0,1
144417,-100,4,2,3,100,0,1
144652,-100,4,2,5,100,0,1
144828,-100,4,2,3,50,0,1
145179,-100,4,2,5,100,0,1
145355,-100,4,2,3,100,0,1
145589,-100,4,2,5,100,0,1
145765,-100,4,2,3,50,0,1
146117,-100,4,2,5,100,0,1
146292,-100,4,2,3,100,0,1
146527,-100,4,2,5,100,0,1
146703,-100,4,2,3,50,0,1
147054,-100,4,2,5,100,0,1
147230,-83.3333333333333,4,2,3,100,0,1
147464,-83.3333333333333,4,2,5,100,0,1
147699,-83.3333333333333,4,2,4,60,0,1
147933,-83.3333333333333,4,2,5,100,0,1
148167,-100,4,2,2,60,0,1
148402,-100,4,2,5,100,0,1
148578,-100,4,2,3,50,0,1
148929,-100,4,2,5,100,0,1
149105,-100,4,2,3,100,0,1
149339,-100,4,2,5,100,0,1
149515,-100,4,2,3,50,0,1
149867,-100,4,2,5,100,0,1
150042,-100,4,2,3,100,0,1
150277,-100,4,2,5,100,0,1
150453,-100,4,2,3,50,0,1
150804,-100,4,2,5,100,0,1
150980,-100,4,2,3,100,0,1
151214,-100,4,2,5,100,0,1
151390,-100,4,2,3,50,0,1
151742,-100,4,2,5,100,0,1
151917,-100,4,2,3,100,0,1
152152,-100,4,2,5,100,0,1
152328,-100,4,2,3,50,0,1
152679,-100,4,2,5,100,0,1
152855,-100,4,2,3,100,0,1
153089,-100,4,2,5,100,0,1
153265,-100,4,2,3,50,0,1
153617,-100,4,2,5,100,0,1
153792,-100,4,2,3,100,0,1
154027,-100,4,2,5,100,0,1
154203,-100,4,2,3,50,0,1
154554,-100,4,2,5,100,0,1
154730,-100,4,2,3,100,0,1
154964,-100,4,2,5,100,0,1
155140,-100,4,2,3,50,0,1
155492,-100,4,2,5,100,0,1
155667,-100,4,2,3,100,0,1
155902,-100,4,2,5,100,0,1
156078,-100,4,2,3,50,0,1
156429,-100,4,2,5,100,0,1
156605,-100,4,2,3,100,0,1
156839,-100,4,2,5,100,0,1
157015,-100,4,2,3,50,0,1
157367,-100,4,2,5,100,0,1
157542,-100,4,2,3,100,0,1
157953,-100,4,2,3,50,0,1
158304,-100,4,2,5,100,0,1
158480,-100,4,2,3,100,0,1
158832,-100,4,2,4,60,0,1
159183,-100,4,2,5,100,0,1
159417,-100,4,2,3,100,0,1
159652,-100,4,2,5,100,0,1
159828,-100,4,2,3,50,0,1
160179,-100,4,2,5,100,0,1
160355,-100,4,2,3,100,0,1
160589,-100,4,2,5,100,0,1
160824,-100,4,2,4,60,0,1
161058,-100,4,2,5,100,0,1
161292,-100,4,2,3,100,0,1
161527,-100,4,2,5,100,0,1
161703,-100,4,2,3,50,0,1
162054,-100,4,2,5,100,0,1
162230,-83.3333333333333,4,2,3,100,0,1
162464,-83.3333333333333,4,2,5,100,0,1
162699,-83.3333333333333,4,2,4,60,0,1
162933,-83.3333333333333,4,2,5,100,0,1
163285,-100,4,2,3,40,0,0
166332,-100,4,2,7,50,0,0
166683,-100,4,2,5,70,0,0
166917,-100,4,2,2,40,0,0
167269,-100,4,2,3,80,0,0
167621,-100,4,2,5,80,0,0
167855,-100,4,2,3,80,0,0
168207,-100,4,2,7,80,0,0
168558,-100,4,2,5,80,0,0
168792,-100,4,2,3,80,0,0
169027,-100,4,2,5,80,0,0
169261,-100,4,2,3,80,0,0
169496,-100,4,2,5,80,0,0
169730,-100,4,2,3,80,0,0
169964,-100,4,2,5,80,0,0
170140,-100,4,2,3,10,0,0
170492,-100,4,2,5,80,0,0
170667,-100,4,2,3,80,0,0
171371,-100,4,2,5,80,0,0
171605,-100,4,2,3,80,0,0
171839,-100,4,2,5,80,0,0
172015,-100,4,2,3,10,0,0
172367,-100,4,2,5,80,0,0
172542,-100,4,2,3,80,0,0
172777,-100,4,2,5,80,0,0
172953,-100,4,2,3,10,0,0
173304,-100,4,2,5,80,0,0
173480,-100,4,2,3,80,0,0
173832,-100,4,2,7,60,0,0
174183,-100,4,2,5,80,0,0
174417,-100,4,2,3,80,0,0
174652,-100,4,2,5,80,0,0
174886,-100,4,2,3,80,0,0
175121,-100,4,2,5,80,0,0
175355,-100,4,2,3,80,0,0
175589,-100,4,2,5,80,0,0
175765,-100,4,2,3,10,0,0
176117,-100,4,2,5,80,0,0
176292,-100,4,2,3,80,0,0
176527,-100,4,2,5,80,0,0
176761,-100,4,2,3,80,0,0
176996,-100,4,2,5,80,0,0
177230,-100,4,2,3,80,0,0
177464,-100,4,2,5,80,0,0
177640,-100,4,2,3,10,0,0
177992,-100,4,2,5,80,0,0
178167,-100,4,2,3,80,0,0
178871,-100,4,2,5,80,0,0
179105,-100,4,2,3,80,0,0
179339,-100,4,2,5,80,0,0
179515,-100,4,2,3,10,0,0
179867,-100,4,2,5,80,0,0
180042,-100,4,2,3,80,0,0
180277,-100,4,2,5,80,0,0
180511,-100,4,2,3,80,0,0
180746,-100,4,2,5,80,0,0
181449,-100,4,2,7,80,0,0
181683,-100,4,2,5,80,0,0
181917,-100,4,2,3,80,0,0
182152,-100,4,2,5,80,0,0
182386,-100,4,2,1,40,0,0
182621,-100,4,2,5,80,0,0
182796,-100,4,2,3,10,0,0
183148,-100,4,2,5,80,0,0
183324,-100,4,2,3,80,0,0
183558,-100,4,2,5,80,0,0
183792,-100,4,2,3,80,0,0
184027,-100,4,2,5,80,0,0
184261,-100,4,2,1,40,0,0
184496,-100,4,2,5,80,0,0
185199,-100,4,2,3,80,0,0
185433,-100,4,2,5,80,0,0
185667,-100,4,2,3,80,0,0
186019,-100,4,2,1,20,0,0
186371,-100,4,2,5,80,0,0
186605,-100,4,2,3,80,0,0
186839,-100,4,2,5,80,0,0
187015,-100,4,2,3,10,0,0
187367,-100,4,2,5,80,0,0
187542,-100,4,2,3,80,0,0
187777,-100,4,2,5,80,0,0
187953,-100,4,2,3,10,0,0
188304,-100,4,2,5,80,0,0
188480,-100,4,2,3,80,0,0
189183,-100,4,2,5,80,0,0
189417,-100,4,2,3,80,0,0
189652,-100,4,2,5,80,0,0
189828,-100,4,2,3,10,0,0
190179,-100,4,2,5,80,0,0
190355,-100,4,2,3,80,0,0
190589,-100,4,2,5,80,0,0
190765,-100,4,2,3,10,0,0
191117,-100,4,2,5,80,0,0
191292,-100,4,2,3,80,0,0
191527,-100,4,2,5,80,0,0
191761,-100,4,2,1,40,0,0
191996,-100,4,2,5,80,0,0
192230,-100,4,2,3,80,0,0
192464,-100,4,2,5,80,0,0
192640,-100,4,2,3,10,0,0
192992,-100,4,2,5,80,0,0
193167,-100,4,2,3,50,0,0
194808,-100,4,2,3,40,0,0
195042,-100,4,2,3,40,0,0
195394,-100,4,2,3,30,0,0
195628,-100,4,2,3,20,0,0
195980,-100,4,2,3,10,0,0
196332,-100,4,2,3,20,0,0
197972,468.75,4,2,2,40,1,0
209690,-100,4,2,2,50,0,0
210159,-100,4,2,2,60,0,0
210628,-100,4,2,3,70,0,0
210979,-100,4,2,3,60,0,0
211272,-100,4,2,3,50,0,0
211624,-100,4,2,3,40,0,0
212268,-100,4,2,3,50,0,0
212972,-100,4,2,2,100,0,1
213089,-100,4,2,5,100,0,1
213264,-100,4,2,3,50,0,1
213616,-100,4,2,5,100,0,1
213792,-100,4,2,3,100,0,1
214026,-100,4,2,5,100,0,1
214202,-100,4,2,3,50,0,1
214554,-100,4,2,5,100,0,1
214729,-100,4,2,3,100,0,1
214964,-100,4,2,5,100,0,1
215139,-100,4,2,3,50,0,1
215491,-100,4,2,5,100,0,1
215667,-100,4,2,3,100,0,1
215901,-100,4,2,5,100,0,1
216077,-100,4,2,3,50,0,1
216429,-100,4,2,5,100,0,1
216604,-100,4,2,3,100,0,1
216839,-100,4,2,5,100,0,1
217014,-100,4,2,3,50,0,1
217366,-100,4,2,5,100,0,1
217542,-100,4,2,3,100,0,1
217776,-100,4,2,5,100,0,1
217952,-100,4,2,3,50,0,1
218128,-100,4,2,3,50,0,1
218304,-100,4,2,5,100,0,1
218479,-100,4,2,3,100,0,1
218714,-100,4,2,5,100,0,1
218889,-100,4,2,3,50,0,1
219241,-100,4,2,5,100,0,1
219417,-100,4,2,3,100,0,1
219651,-100,4,2,5,100,0,1
219827,-100,4,2,3,40,0,1
220179,-100,4,2,5,100,0,1
220354,-100,4,2,3,100,0,1
220589,-100,4,2,5,100,0,1
220764,-100,4,2,3,50,0,1
221116,-100,4,2,5,100,0,1
221292,-100,4,2,3,100,0,1
221526,-100,4,2,5,100,0,1
221702,-100,4,2,3,50,0,1
222054,-100,4,2,5,100,0,1
222229,-100,4,2,3,100,0,1
222464,-100,4,2,5,100,0,1
222639,-100,4,2,3,50,0,1
222991,-100,4,2,5,100,0,1
223167,-100,4,2,3,100,0,1
223518,-100,4,2,4,60,0,1
223870,-100,4,2,5,100,0,1
224104,-100,4,2,3,100,0,1
224339,-100,4,2,5,100,0,1
224514,-100,4,2,3,50,0,1
224866,-100,4,2,5,100,0,1
225042,-100,4,2,3,100,0,1
225276,-100,4,2,5,100,0,1
225511,-100,4,2,4,60,0,1
225745,-100,4,2,5,100,0,1
225979,-100,4,2,3,100,0,1
226214,-100,4,2,5,80,0,1
226389,-100,4,2,3,50,0,1
226741,-100,4,2,5,100,0,1
226917,-100,4,2,3,100,0,1
227151,-100,4,2,5,100,0,1
227386,-100,4,2,4,60,0,1
227620,-100,4,2,5,100,0,1
227972,-100,4,2,3,30,0,0
229729,-100,4,2,3,50,0,0
229964,-100,4,2,3,80,0,0
230667,-100,4,2,3,40,0,0
230901,-100,4,2,3,80,0,0
231136,-100,4,2,4,80,0,0
231370,-100,4,2,4,40,0,0
231604,-100,4,2,3,30,0,0
231839,-100,4,2,5,80,0,0
232014,-100,4,2,3,30,0,0
232366,-100,4,2,5,80,0,0
233011,-100,4,2,4,80,0,0
233245,-100,4,2,5,80,0,0
233479,-100,4,2,3,80,0,0
233714,-100,4,2,5,80,0,0
233889,-100,4,2,3,30,0,0
234241,-100,4,2,5,80,0,0
234886,-100,4,2,4,80,0,0
235120,-100,4,2,4,30,0,0
235354,-100,4,2,3,80,0,0
235589,-100,4,2,5,80,0,0
235764,-100,4,2,3,30,0,0
236116,-100,4,2,5,80,0,0
236761,-100,4,2,4,80,0,0
236995,-100,4,2,5,80,0,0
237171,-100,4,2,3,30,0,0
237288,-100,4,2,3,30,0,0
237464,-100,4,2,5,80,0,0
237639,-100,4,2,3,30,0,0
237991,-100,4,2,5,80,0,0
238167,-100,4,2,3,30,0,0
238518,-100,4,2,4,50,0,0
238870,-100,4,2,4,30,0,0
239104,-100,4,2,3,30,0,0
239339,-100,4,2,5,80,0,0
239514,-100,4,2,3,30,0,0
239866,-100,4,2,5,80,0,0
240511,-100,4,2,4,80,0,0
240745,-100,4,2,5,80,0,0
240979,-100,4,2,3,80,0,0
241214,-100,4,2,5,80,0,0
241389,-100,4,2,3,30,0,0
241741,-83.3333333333333,4,2,5,80,0,0
242386,-100,4,2,4,70,0,0
242620,-100,4,2,4,50,0,0
242854,-100,4,2,4,30,0,0
243557,-100,4,2,4,25,0,0
244261,-100,4,2,4,20,0,0
244729,-100,4,2,3,20,0,0
245667,-100,4,2,3,15,0,0
245901,-100,4,2,3,20,0,0
246604,-100,4,2,3,15,0,0
246839,-100,4,2,3,20,0,0
250413,-100,4,2,3,15,0,0
250589,-100,4,2,3,20,0,0
252288,-100,4,2,3,15,0,0
252464,-100,4,2,3,20,0,0
253167,-100,4,2,3,15,0,0
253401,-100,4,2,3,20,0,0
254163,-100,4,2,3,15,0,0
254339,-100,4,2,3,20,0,0
257151,-100,4,2,3,10,0,0

[Colours]
Combo1 : 185,92,0
Combo2 : 117,117,117
Combo3 : 128,128,255
Combo4 : 3,165,218
Combo5 : 64,0,128
Combo6 : 183,183,183
Combo7 : 0,114,168
Combo8 : 252,202,152

[HitObjects]
96,128,9535,85,0,0:0:0:0:
208,128,10003,1,0,0:0:0:0:
320,128,10472,1,0,0:0:0:0:
432,128,10941,1,0,0:0:0:0:
368,240,11410,1,0,0:0:0:0:
272,240,11878,1,0,0:0:0:0:
176,240,12347,1,0,0:0:0:0:
80,240,12816,1,0,0:0:0:0:
480,48,13285,69,0,0:0:0:0:
336,48,13753,1,0,0:0:0:0:
192,48,14222,1,0,0:0:0:0:
48,48,14691,1,0,0:0:0:0:
64,192,15160,1,0,0:0:0:0:
208,192,15628,1,0,0:0:0:0:
352,192,16097,1,0,0:0:0:0:
496,192,16566,1,0,0:0:0:0:
80,320,17035,85,0,0:0:0:0:
256,320,17503,1,0,0:0:0:0:
432,320,17972,1,0,0:0:0:0:
256,192,18441,1,0,0:0:0:0:
80,192,18910,1,0,0:0:0:0:
208,192,19378,1,0,0:0:0:0:
336,192,19847,1,0,0:0:0:0:
464,192,20316,1,0,0:0:0:0:
48,64,20785,53,0,0:0:0:0:
136,64,21253,1,0,0:0:0:0:
224,64,21722,1,0,0:0:0:0:
312,64,22191,1,0,0:0:0:0:
400,64,22660,1,0,0:0:0:0:
296,176,22894,2,0,L|232:248,1,90
35,106,23363,2,0,L|80:184,1,90
288,320,23832,2,0,L|243:242,1,90
96,320,24300,1,0,0:0:0:0:
400,288,24535,22,0,P|456:220|384:184,1,180,4|0,0:0|0:0,0:0:0:0:
288,184,25238,1,2,0:0:0:0:
104,184,25472,2,0,P|48:252|120:288,1,180
208,184,26175,1,0,0:0:0:0:
408,192,26410,22,0,L|432:96,1,90,2|0,0:2|0:0,0:0:0:40:
208,64,26878,2,0,L|184:160,1,90,0|0,0:2|0:0,0:0:0:40:
408,304,27347,2,0,L|488:136,1,180
272,192,28050,1,0,0:0:0:0:
88,48,28285,54,0,P|32:112|96:168,1,180,2|0,0:2|0:0,0:0:0:0:
208,184,28988,1,2,0:2:0:0:
424,48,29222,2,0,P|480:112|416:168,1,180
304,184,29925,1,0,0:0:0:0:
112,304,30160,22,0,L|176:232,1,90,2|0,0:2|0:0,0:0:0:0:
400,304,30628,2,0,L|336:232,1,90,0|2,0:0|0:0,0:0:0:0:
88,312,31097,2,0,P|32:248|96:192,1,180
272,192,31800,1,0,0:0:0:0:
480,32,32035,22,0,L|408:208,1,180,2|0,0:2|0:0,0:0:0:0:
304,192,32738,1,2,0:0:0:0:
76,118,32972,2,0,L|128:192,1,90
168,192,33324,2,0,L|272:296,1,135
480,32,33910,54,0,L|312:97,1,180,2|0,0:2|0:0,0:0:0:0:
152,192,34613,1,2,0:2:0:0:
384,192,34847,2,0,P|440:240|384:240,1,180
232,192,35550,1,0,0:0:0:0:
72,192,35785,5,2,0:2:0:0:
288,192,36019,2,0,L|316:226,1,45
152,320,36488,69,0,0:0:0:0:
360,320,36722,1,0,0:0:0:0:
152,192,36957,2,0,L|123:156,1,45
376,192,37425,37,0,0:0:0:0:
160,48,37660,2,0,L|96:120,1,90
288,192,38128,2,0,L|368:264,1,90
152,192,38597,69,0,0:0:0:0:
272,192,38832,1,2,0:0:0:0:
392,192,39066,2,0,L|344:288,1,90
48,72,39535,54,0,L|224:80,1,90,4|0,0:0|0:0,0:0:0:0:
272,192,39886,2,0,L|104:184,1,135
352,200,40472,2,0,L|432:144,1,90,0|0,0:0|0:0,0:0:0:0:
320,72,40824,2,0,L|160:72,1,135
352,200,41410,22,0,L|408:270,1,90,2|0,0:0|0:0,0:0:0:0:
144,64,41878,2,0,L|87:134,1,90
352,72,42347,2,0,P|408:120|352:120,1,180,2|0,0:0|0:0,0:0:0:0:
160,192,43050,1,0,0:0:0:0:
400,192,43285,54,0,P|456:256|384:312,1,180,2|0,0:0|0:0,0:0:0:0:
256,72,43988,1,0,0:0:0:0:
104,192,44222,2,0,L|160:264,1,90
384,192,44691,2,0,L|328:120,1,90
80,192,45160,22,0,L|40:304,1,90,2|0,0:0|0:0,0:0:0:0:
312,192,45628,2,0,L|352:80,1,90
96,56,46097,2,0,P|40:88|104:160,1,180
192,192,46800,1,0,0:0:0:0:
440,192,47035,22,0,L|488:376,1,180,2|0,0:0|0:0,0:0:0:0:
312,192,47738,1,0,0:0:0:0:
160,56,47972,2,0,L|96:152,1,90
232,192,48324,2,0,L|368:128,1,135
135,249,48910,54,0,L|191:319,1,90,2|0,0:0|0:0,0:0:0:0:
383,191,49378,2,0,L|327:121,1,90
104,56,49847,2,0,L|272:144,1,180,2|0,0:0|0:0,0:0:0:0:
376,56,50550,1,0,0:0:0:0:
80,192,50785,5,2,0:0:0:0:
256,192,51019,2,0,L|256:248,1,45,0|0,0:0|0:0,0:0:0:0:
176,56,51488,69,0,0:0:0:0:
432,192,51722,1,0,0:0:0:0:
256,192,51957,2,0,L|256:120,1,45
336,56,52425,37,0,0:0:0:0:
128,312,52660,2,0,L|224:288,1,90
336,312,53011,2,0,L|392:240,1,90
288,56,53363,1,0,0:0:0:0:
128,192,53597,70,0,L|80:112,1,90
184,248,53949,2,0,L|288:248,1,90
336,112,54300,2,0,L|280:112,1,45
48,112,54535,53,6,0:0:0:0:
216,112,54769,1,0,0:0:0:0:
384,112,55003,2,0,L|272:64,1,90
128,192,55472,1,0,0:0:0:0:
336,192,55707,1,0,0:0:0:0:
96,192,55941,2,0,P|40:240|96:240,1,180,0|0,0:0|0:0,0:0:0:0:
256,192,56644,5,0,0:0:0:0:
432,192,56878,1,0,0:0:0:0:
256,192,57113,1,0,0:0:0:0:
80,72,57347,2,0,L|224:72,1,135.000005149842
416,72,57816,2,0,P|472:120|416:120,1,180,0|0,0:0|0:0,0:0:0:0:
256,192,58519,5,0,0:0:0:0:
416,192,58753,1,0,0:0:0:0:
240,304,58988,2,0,L|384:304,1,135.000005149842
208,192,59457,1,0,0:0:0:0:
40,64,59691,2,0,L|160:64,1,107.999996704102
376,64,60160,54,0,L|280:136,1,90
80,192,60628,2,0,L|176:264,1,90
392,192,61097,2,0,P|457:214|392:239,1,180,0|0,0:0|0:0,0:0:0:0:
256,192,61800,1,0,0:0:0:0:
40,64,62035,21,0,0:0:0:0:
256,152,62269,2,0,L|240:64,1,90
48,192,62738,1,0,0:0:0:0:
256,320,62972,2,0,L|272:232,1,90
472,184,63441,2,0,L|400:128,1,90
192,64,63910,6,0,L|40:64,1,135.000005149842
272,192,64378,1,0,0:0:0:0:
464,320,64613,2,0,L|240:320,1,215.999993408203
48,192,65316,2,0,L|128:136,1,90
440,56,65785,6,0,L|480:240,1,180
272,192,66488,1,0,0:0:0:0:
72,328,66722,2,0,L|32:144,1,180
248,192,67425,1,0,0:0:0:0:
464,192,67660,69,0,0:0:0:0:
336,192,68128,69,0,0:0:0:0:
176,192,68597,85,0,0:0:0:0:
48,192,69066,54,0,L|88:304,1,90
424,192,69535,70,0,L|464:104,1,90,4|0,0:0|0:0,0:0:0:0:
336,288,69886,2,0,L|288:208,1,90
184,192,70238,1,0,0:0:0:0:
344,192,70472,2,0,L|360:104,1,90
240,40,70824,2,0,L|216:144,1,90
344,192,71175,1,0,0:0:0:0:
136,192,71410,22,0,L|160:288,1,90
304,320,71761,2,0,L|288:224,1,90
176,192,72113,1,0,0:0:0:0:
368,192,72347,2,0,L|344:296,1,90
216,192,72699,2,0,L|240:88,1,90
360,40,73050,1,0,0:0:0:0:
160,40,73285,70,0,L|64:64,1,90
208,304,73636,2,0,L|304:304,1,90
416,192,73988,1,0,0:0:0:0:
256,192,74222,2,0,L|232:96,1,90
104,200,74574,2,0,L|136:304,1,90
256,192,74925,1,0,0:0:0:0:
416,192,75160,54,0,L|328:240,1,90
200,120,75511,2,0,L|296:64,1,90
392,72,75863,1,0,0:0:0:0:
256,312,76097,2,0,L|224:216,1,90
48,192,76449,2,0,L|80:96,1,90
256,56,76800,1,0,0:0:0:0:
448,192,77035,70,0,L|400:304,1,90
280,192,77386,2,0,L|256:80,1,90
144,192,77738,1,0,0:0:0:0:
320,312,77972,2,0,L|352:184,1,90
200,192,78324,2,0,L|176:80,1,90
320,56,78675,1,0,0:0:0:0:
104,56,78910,21,0,0:0:0:0:
400,200,79261,1,0,0:0:0:0:
104,192,79613,1,0,0:0:0:0:
280,192,79847,2,0,P|336:240|280:240,1,180,0|0,0:0|0:0,0:0:0:0:
112,56,80550,1,0,0:0:0:0:
352,56,80785,70,0,L|368:152,1,90
224,192,81136,2,0,L|216:296,1,90
352,192,81488,1,0,0:0:0:0:
168,192,81722,2,0,L|152:80,1,90
296,192,82074,2,0,L|312:296,1,90
168,288,82425,1,0,0:0:0:0:
352,192,82660,54,0,L|424:96,1,90
284,296,83011,2,0,L|196:240,1,90
124,192,83363,1,0,0:0:0:0:
296,192,83597,2,0,P|355:140|368:128,1,90
168,192,84066,2,0,P|108:140|96:128,1,90
432,192,84535,70,0,L|448:304,1,90,4|0,0:0|0:0,0:0:0:0:
320,192,84886,2,0,L|304:96,1,90
424,64,85238,1,0,0:0:0:0:
240,192,85472,2,0,L|144:176,1,90
32,200,85824,2,0,L|48:312,1,90
144,288,86175,1,0,0:0:0:0:
328,288,86410,22,0,L|376:184,1,90
240,48,86761,2,0,L|192:152,1,90
304,48,87113,1,0,0:0:0:0:
112,192,87347,2,0,L|80:312,1,90
224,192,87699,2,0,L|256:72,1,90
120,48,88050,1,0,0:0:0:0:
304,48,88285,70,0,L|328:144,1,90,0|0,0:0|0:0,0:0:0:0:
456,192,88636,2,0,L|424:296,1,90
312,192,88988,1,0,0:0:0:0:
144,192,89222,2,0,L|167:278,1,90
304,48,89574,2,0,L|280:168,1,90
144,48,89925,1,0,0:0:0:0:
344,192,90160,54,0,L|400:288,1,90
272,272,90511,2,0,L|152:272,1,90
80,272,90863,1,0,0:0:0:0:
256,48,91097,2,0,L|288:144,1,90
96,200,91449,2,0,L|64:304,1,90
280,192,91800,1,0,0:0:0:0:
448,192,92035,70,0,L|440:296,1,90
312,192,92386,2,0,L|288:104,1,90
152,48,92738,1,0,0:0:0:0:
312,192,92972,2,0,L|296:304,1,90
160,192,93324,2,0,L|184:88,1,90
312,48,93675,1,0,0:0:0:0:
144,192,93910,21,0,0:0:0:0:
424,192,94261,1,0,0:0:0:0:
152,48,94613,1,0,0:0:0:0:
312,192,94847,2,0,P|368:240|312:240,1,180,0|0,0:0|0:0,0:0:0:0:
192,192,95550,1,0,0:0:0:0:
432,56,95785,70,0,L|448:160,1,90
304,192,96136,2,0,L|288:296,1,90
160,192,96488,1,0,0:0:0:0:
328,56,96722,1,0,0:0:0:0:
184,56,96957,1,0,0:0:0:0:
360,128,97191,1,0,0:0:0:0:
152,128,97425,1,0,0:0:0:0:
368,192,97660,54,0,L|392:288,1,90
256,192,98011,2,0,L|232:96,1,90
344,56,98363,1,0,0:0:0:0:
144,192,98597,2,0,L|48:192,1,90
368,192,99066,2,0,L|464:192,1,90
256,192,99535,12,2,102347,0:0:0:0:
400,192,103050,53,0,0:0:0:0:
64,192,103285,86,0,L|112:312,1,90,4|0,0:0|0:0,0:0:0:0:
208,192,103636,2,0,L|248:80,1,90
336,192,103988,1,0,0:0:0:0:
144,192,104222,2,0,L|176:304,1,90
304,56,104574,2,0,L|291:145,1,90
160,56,104925,1,0,0:0:0:0:
352,192,105160,22,0,L|448:224,1,90
208,192,105628,2,0,L|144:120,1,90
408,192,106097,2,0,P|464:256|392:312,1,180,0|0,0:0|0:0,0:0:0:0:
252,192,106800,1,0,0:0:0:0:
96,56,107035,54,0,L|32:240,1,180
224,192,107738,1,0,0:0:0:0:
400,56,107972,2,0,L|464:240,1,180
232,56,108675,22,0,L|32:56,1,180
240,192,109378,1,0,0:0:0:0:
400,192,109613,1,0,0:0:0:0:
224,320,109847,2,0,L|408:320,1,180
232,56,110550,1,0,0:0:0:0:
32,64,110785,22,0,L|64:272,1,180
268,192,111488,1,0,0:0:0:0:
480,64,111722,2,0,L|448:272,1,180
256,56,112425,54,0,L|464:112,1,180
224,192,113128,1,0,0:0:0:0:
368,192,113363,1,0,0:0:0:0:
144,192,113597,2,0,P|88:240|144:240,1,180,0|0,0:0|0:0,0:0:0:0:
368,56,114300,1,0,0:0:0:0:
144,56,114535,5,0,0:0:0:0:
336,56,114769,2,0,L|320:112,1,45
136,192,115238,69,0,0:0:0:0:
376,192,115472,1,0,0:0:0:0:
168,192,115707,2,0,L|200:264,1,45
376,192,116175,37,0,0:0:0:0:
168,192,116410,2,0,L|136:80,1,90
48,192,116761,2,0,L|80:304,1,90
144,288,117113,1,0,0:0:0:0:
304,288,117347,70,0,L|272:176,1,90,0|0,0:0|0:0,0:0:0:0:
168,192,117699,2,0,L|192:104,1,90
232,192,118050,2,0,L|280:192,1,45
464,192,118285,53,4,0:0:0:0:
312,192,118519,1,0,0:0:0:0:
160,192,118753,1,0,0:0:0:0:
336,64,118988,1,0,0:0:0:0:
144,64,119222,2,0,L|288:64,1,135.000005149842
72,192,119691,2,0,L|256:192,1,180
440,192,120394,5,0,0:0:0:0:
256,320,120628,1,0,0:0:0:0:
72,192,120863,1,0,0:0:0:0:
272,192,121097,2,0,L|128:192,1,135.000005149842
344,64,121566,2,0,L|144:64,1,180
392,192,122269,5,0,0:0:0:0:
216,192,122503,2,0,L|232:296,1,90
392,64,122972,1,0,0:0:0:0:
176,192,123207,2,0,L|192:296,1,90
416,192,123675,1,0,0:0:0:0:
200,64,123910,54,0,L|56:64,1,135.000005149842
256,192,124378,1,0,0:0:0:0:
440,192,124613,1,0,0:0:0:0:
232,64,124847,2,0,P|176:112|232:112,1,180,0|0,0:0|0:0,0:0:0:0:
304,192,125433,1,0,0:0:0:0:
304,192,125550,1,0,0:0:0:0:
232,192,125667,1,0,0:0:0:0:
40,192,125785,21,0,0:0:0:0:
232,192,126019,2,0,L|224:296,1,90
88,64,126488,1,0,0:0:0:0:
320,64,126722,2,0,L|304:176,1,90
128,192,127191,2,0,L|144:296,1,90
384,192,127660,6,0,L|368:296,1,90
184,192,128128,1,0,0:0:0:0:
416,64,128363,2,0,P|472:112|416:112,1,180,0|0,0:0|0:0,0:0:0:0:
256,64,129066,1,0,0:0:0:0:
104,64,129300,1,0,0:0:0:0:
424,192,129535,1,2,0:0:0:0:
88,192,130238,38,0,L|72:288,1,90,0|0,0:0|0:0,0:0:0:0:
424,192,131175,38,0,L|376:288,1,90,0|0,0:0|0:0,0:0:0:0:
128,272,131761,69,0,0:0:0:0:
320,192,132113,85,0,0:0:0:0:
192,192,132347,1,0,0:0:0:0:
424,192,132816,54,0,L|408:96,1,90
48,192,133285,70,0,L|64:288,1,90,4|0,0:0|0:0,0:0:0:0:
192,192,133636,2,0,L|176:80,1,90
64,80,133988,1,0,0:0:0:0:
232,192,134222,2,0,L|248:296,1,90
384,192,134574,2,0,L|368:96,1,90
256,80,134925,1,0,0:0:0:0:
136,192,135160,22,0,L|120:288,1,90
248,192,135511,2,0,L|256:96,1,90
144,80,135863,1,0,0:0:0:0:
352,192,136097,2,0,L|360:288,1,90
248,192,136449,2,0,L|232:88,1,90
352,80,136800,1,0,0:0:0:0:
176,312,137035,70,0,L|136:216,1,90
40,192,137386,2,0,L|80:96,1,90
160,80,137738,1,0,0:0:0:0:
344,192,137972,2,0,L|376:296,1,90
232,192,138324,2,0,L|216:72,1,90
336,80,138675,1,0,0:0:0:0:
192,312,138910,54,0,L|104:288,1,90
280,192,139261,2,0,L|384:168,1,90
192,80,139613,1,0,0:0:0:0:
336,192,139847,2,0,L|352:288,1,90
152,192,140199,2,0,L|136:96,1,90
328,80,140550,1,0,0:0:0:0:
216,192,140785,70,0,L|200:288,1,90
64,200,141136,2,0,L|88:80,1,90
216,80,141488,1,0,0:0:0:0:
400,192,141722,2,0,L|384:304,1,90
248,192,142074,2,0,L|264:96,1,90
384,80,142425,1,0,0:0:0:0:
176,312,142660,21,0,0:0:0:0:
456,312,143011,1,0,0:0:0:0:
176,192,143363,1,0,0:0:0:0:
384,80,143597,2,0,P|440:128|384:128,1,180,0|0,0:0|0:0,0:0:0:0:
256,80,144300,1,0,0:0:0:0:
88,80,144535,70,0,L|104:192,1,90
240,192,144886,2,0,L|208:296,1,90
96,280,145238,1,0,0:0:0:0:
256,192,145472,2,0,L|280:104,1,90
416,192,145824,2,0,L|384:304,1,90
256,280,146175,1,0,0:0:0:0:
104,192,146410,54,0,L|176:120,1,90
408,192,146761,2,0,L|336:120,1,90
160,192,147113,1,0,0:0:0:0:
352,192,147347,2,0,L|464:192,1,107.999996704102
160,192,147816,2,0,L|48:192,1,107.999996704102
440,72,148285,70,0,L|424:168,1,90,4|0,0:0|0:0,0:0:0:0:
288,192,148636,2,0,L|304:96,1,90
424,192,148988,1,0,0:0:0:0:
232,288,149222,2,0,L|216:168,1,90
88,192,149574,2,0,L|104:80,1,90
216,192,149925,1,0,0:0:0:0:
384,288,150160,22,0,L|408:184,1,90
272,192,150511,2,0,L|248:96,1,90
368,104,150863,1,0,0:0:0:0:
216,192,151097,2,0,L|192:280,1,90
72,192,151449,2,0,L|96:96,1,90
208,104,151800,1,0,0:0:0:0:
424,192,152035,70,0,L|440:288,1,90
312,192,152386,2,0,L|296:96,1,90
416,96,152738,1,0,0:0:0:0:
216,312,152972,2,0,L|248:208,1,90,0|0,0:0|0:0,0:0:0:0:
360,192,153324,2,0,L|336:88,1,90
232,192,153675,1,0,0:0:0:0:
400,192,153910,54,0,L|440:296,1,90
248,192,154261,2,0,L|208:88,1,90
432,104,154613,1,0,0:0:0:0:
304,192,154847,2,0,L|272:288,1,90
80,192,155199,2,0,L|112:96,1,90
304,192,155550,1,0,0:0:0:0:
464,192,155785,70,0,L|440:288,1,90
304,192,156136,2,0,L|320:96,1,90
432,104,156488,1,0,0:0:0:0:
256,288,156722,2,0,L|240:192,1,90
104,192,157074,2,0,L|120:88,1,90
256,192,157425,1,0,0:0:0:0:
104,64,157660,21,0,0:0:0:0:
408,64,158011,1,0,0:0:0:0:
152,192,158363,1,0,0:0:0:0:
368,192,158597,2,0,P|424:240|368:240,1,180,0|0,0:0|0:0,0:0:0:0:
152,192,159300,1,0,0:0:0:0:
472,192,159535,70,0,L|440:104,1,90
312,192,159886,2,0,L|344:296,1,90
448,192,160238,1,0,0:0:0:0:
328,56,160472,1,0,0:0:0:0:
184,56,160707,1,0,0:0:0:0:
384,128,160941,1,0,0:0:0:0:
128,128,161175,1,0,0:0:0:0:
336,192,161410,54,0,L|368:280,1,90
176,192,161761,2,0,L|144:104,1,90
328,56,162113,1,0,0:0:0:0:
160,192,162347,2,0,L|40:192,1,107.999996704102
352,192,162816,2,0,L|472:192,1,107.999996704102
256,192,163285,12,2,166097,0:0:0:0:
448,176,166566,54,0,L|424:272,1,90
72,192,167035,53,4,0:0:0:0:
176,192,167503,1,0,0:0:0:0:
216,192,167738,1,0,0:0:0:0:
440,64,167972,53,0,0:0:0:0:
336,64,168441,1,0,0:0:0:0:
296,64,168675,1,0,0:0:0:0:
48,64,168910,70,0,L|96:152,1,90
304,304,169378,2,0,L|254:229,1,90
48,64,169847,2,0,L|64:160,1,90
168,312,170199,2,0,L|149:223,1,90
48,64,170550,1,0,0:0:0:0:
384,192,170785,101,0,0:0:0:0:
256,192,171253,1,0,0:0:0:0:
160,192,171488,1,0,0:0:0:0:
352,192,171722,2,0,L|360:304,1,90
240,192,172074,2,0,L|232:80,1,90
352,104,172425,1,0,0:0:0:0:
48,192,172660,54,0,L|56:304,1,90
168,192,173011,2,0,L|156:102,1,90
48,104,173363,1,0,0:0:0:0:
224,104,173597,2,0,P|276:104|216:156,1,180
104,104,174300,1,0,0:0:0:0:
448,192,174535,69,0,0:0:0:0:
328,192,174769,1,0,0:0:0:0:
208,192,175003,1,0,0:0:0:0:
328,192,175238,1,0,0:0:0:0:
168,192,175472,2,0,L|184:288,1,90
304,192,175824,2,0,L|288:96,1,90
168,96,176175,1,0,0:0:0:0:
464,48,176410,101,0,0:0:0:0:
336,48,176644,1,0,0:0:0:0:
464,96,176878,2,0,L|368:96,1,90
48,192,177347,54,0,L|144:192,1,90
256,192,177699,2,0,L|224:288,1,90
120,96,178050,1,0,0:0:0:0:
416,192,178285,70,0,P|468:192|408:244,1,180
88,192,178988,101,0,0:0:0:0:
232,192,179222,2,0,L|128:192,1,90
32,192,179574,2,0,L|48:96,1,90
144,96,179925,1,0,0:0:0:0:
440,192,180160,54,0,L|344:192,2,90,0|0|0,0:0|0:0|0:0,0:0:0:0:
136,192,180863,70,0,P|84:192|144:244,1,180
288,96,181566,1,0,0:0:0:0:
144,96,181800,1,0,0:0:0:0:
464,192,182035,101,4,0:0:0:0:
336,192,182269,1,0,0:0:0:0:
208,192,182503,2,0,L|312:192,1,90
408,192,182855,2,0,L|392:64,1,90
296,88,183207,1,0,0:0:0:0:
152,88,183441,1,0,0:0:0:0:
352,88,183675,2,0,L|392:176,1,90
256,192,184144,53,0,0:0:0:0:
128,192,184378,1,0,0:0:0:0:
336,192,184613,2,0,P|388:192|328:244,1,180
192,88,185316,1,0,0:0:0:0:
352,88,185550,1,0,0:0:0:0:
48,192,185785,69,0,0:0:0:0:
216,192,186253,2,0,L|240:304,1,90
416,192,186722,2,0,L|392:88,1,90
296,88,187074,2,0,L|184:88,1,90
120,192,187425,1,0,0:0:0:0:
456,192,187660,102,0,L|440:304,1,90
320,192,188011,2,0,L|328:88,1,90
448,96,188363,1,0,0:0:0:0:
256,192,188597,2,0,P|204:192|264:244,1,180
432,192,189300,1,0,0:0:0:0:
64,192,189535,54,0,L|72:288,1,90
176,192,189886,2,0,L|168:88,1,90
64,96,190238,1,0,0:0:0:0:
216,96,190472,2,0,L|224:200,1,90
352,192,190824,2,0,L|240:192,1,90
176,192,191175,1,0,0:0:0:0:
472,192,191410,69,0,0:0:0:0:
328,296,191644,2,0,L|424:296,1,90
256,192,192113,1,0,0:0:0:0:
416,192,192347,2,0,L|400:96,1,90
280,192,192699,2,0,L|296:288,1,90
416,288,193050,1,0,0:0:0:0:
256,192,193285,12,0,194691,0:0:0:0:
72,192,194925,101,2,0:0:0:0:
440,192,195160,1,4,0:0:0:0:
160,192,195511,53,2,0:0:0:0:
352,192,195863,21,0,0:0:0:0:
192,192,196097,1,2,0:0:0:0:
320,192,196566,37,2,0:0:0:0:
256,192,209222,12,0,210628,0:0:0:0:
432,192,210862,101,0,0:0:0:0:
80,192,211097,1,2,0:0:0:0:
392,192,211448,85,2,0:0:0:0:
112,192,211800,85,0,0:0:0:0:
352,192,212034,1,2,0:0:0:0:
152,192,212503,53,2,0:0:0:0:
352,192,212737,1,0,0:0:0:0:
48,192,212972,70,0,L|64:288,1,90,4|0,0:0|0:0,0:0:0:0:
288,192,213323,2,0,L|272:96,1,90
64,80,213675,1,0,0:0:0:0:
176,192,213909,2,0,L|192:296,1,90
424,192,214261,2,0,L|416:96,1,90
224,192,214612,1,0,0:0:0:0:
352,192,214847,22,0,L|320:288,1,90
72,192,215198,2,0,L|112:88,1,90
328,80,215550,1,0,0:0:0:0:
176,192,215784,2,0,L|88:152,1,90
328,304,216136,2,0,L|416:264,1,90
176,192,216487,1,0,0:0:0:0:
312,192,216722,70,0,L|360:288,1,90
96,192,217073,2,0,L|48:104,1,90
304,88,217425,1,0,0:0:0:0:
176,192,217659,2,0,L|136:280,1,90
400,192,218011,2,0,L|440:280,1,90
216,88,218362,1,0,0:0:0:0:
352,88,218597,54,0,L|464:88,1,90
160,88,218948,2,0,L|48:88,1,90
320,192,219300,1,0,0:0:0:0:
176,192,219534,2,0,L|136:288,1,90
336,192,219886,2,0,L|376:288,1,90
192,152,220237,1,0,0:0:0:0:
360,200,220472,70,0,L|352:304,1,90
160,200,220823,2,0,L|168:96,1,90
360,200,221175,1,0,0:0:0:0:
144,208,221409,2,0,L|184:288,1,90
384,208,221761,2,0,L|344:128,1,90
144,120,222112,1,0,0:0:0:0:
344,192,222347,22,0,L|440:200,1,90
168,192,222698,2,0,L|72:200,1,90
256,192,223050,1,0,0:0:0:0:
408,192,223284,2,0,P|460:192|400:244,1,180
256,192,223987,1,0,0:0:0:0:
104,192,224222,70,0,L|112:288,1,90
408,192,224573,2,0,L|400:288,1,90
176,96,224925,1,0,0:0:0:0:
336,96,225159,1,0,0:0:0:0:
176,96,225393,1,0,0:0:0:0:
360,160,225628,1,0,0:0:0:0:
152,160,225862,1,0,0:0:0:0:
384,192,226097,54,0,L|357:278,1,90
128,192,226448,2,0,L|154:278,1,90
336,96,226800,1,0,0:0:0:0:
152,192,227034,2,0,L|56:192,1,90
360,192,227503,2,0,L|456:192,1,90
256,192,227972,12,2,229847,0:0:0:0:
400,192,230198,53,0,0:0:0:0:
112,192,230550,1,0,0:0:0:0:
344,192,230784,2,0,P|396:192|336:244,1,180,2|0,0:0|0:0,0:0:0:0:
144,192,231487,1,0,0:0:0:0:
440,192,231722,102,0,L|416:288,1,90,2|0,0:0|0:0,0:0:0:0:
304,192,232073,2,0,L|336:88,1,90
456,48,232425,2,0,L|240:48,1,180
56,48,233128,1,0,0:0:0:0:
256,192,233362,1,0,0:0:0:0:
456,296,233597,102,0,L|360:296,1,90
240,192,233948,2,0,L|360:192,1,90
456,48,234300,2,0,L|256:48,1,180
104,192,235003,1,0,0:0:0:0:
296,192,235237,1,0,0:0:0:0:
64,192,235472,86,0,L|80:296,1,90
184,192,235823,2,0,L|168:88,1,90
56,40,236175,2,0,L|272:40,1,180
448,40,236878,1,0,0:0:0:0:
256,192,237112,1,0,0:0:0:0:
160,120,237229,1,0,0:0:0:0:
64,192,237347,54,0,L|176:192,1,90,2|0,0:0|0:0,0:0:0:0:
264,120,237698,2,0,L|152:120,1,90
64,328,238050,1,0,0:0:0:0:
296,328,238284,2,0,P|360:294|294:265,1,180,2|0,0:0|0:0,0:0:0:0:
120,200,238987,1,0,0:0:0:0:
432,192,239222,102,0,L|416:288,1,90,2|0,0:0|0:0,0:0:0:0:
288,192,239573,2,0,L|304:96,1,90
416,328,239925,2,0,L|216:328,1,180
64,192,240628,1,0,0:0:0:0:
256,192,240862,1,0,0:0:0:0:
448,192,241097,102,0,L|440:288,1,90
320,192,241448,2,0,L|328:96,1,90
448,72,241800,2,0,L|192:72,1,215.999993408203
104,192,242503,1,0,0:0:0:0:
408,192,242737,1,0,0:0:0:0:
64,192,242972,86,0,L|16:184,2,45,0|0|0,0:0|0:0|0:0,0:0:0:0:
256,192,243440,1,0,0:0:0:0:
448,192,243675,2,0,L|496:184,1,45
320,72,244026,2,0,L|272:64,1,45
448,72,244378,1,0,0:0:0:0:
256,192,244612,1,0,0:0:0:0:
64,72,244847,54,0,L|160:112,1,90,2|0,0:0|0:0,0:0:0:0:
256,192,245198,2,0,L|112:192,1,135
288,192,245784,2,0,P|352:225|285:254,1,180,2|0,0:0|0:0,0:0:0:0:
112,192,246487,1,0,0:0:0:0:
304,192,246722,54,0,L|408:192,1,90,2|0,0:0|0:0,0:0:0:0:
320,64,247073,2,0,L|224:64,1,90
112,192,247425,2,0,P|48:225|115:254,1,180,0|0,0:0|0:0,0:0:0:0:
440,192,248597,54,0,L|328:192,1,90
240,192,248948,2,0,L|272:304,1,90
368,320,249300,2,0,L|168:320,1,180
48,200,250237,2,0,L|80:160,1,45
256,192,250472,54,0,L|368:192,1,90,2|0,0:0|0:0,0:0:0:0:
440,192,250823,2,0,L|408:88,1,90
312,48,251175,2,0,L|120:48,1,180
256,192,252112,2,0,L|272:248,1,45
464,48,252347,54,0,L|400:120,1,90,2|0,0:0|0:0,0:0:0:0:
288,192,252698,2,0,L|368:280,1,90
456,312,253050,2,0,L|352:312,1,90,0|2,0:0|0:0,0:0:0:0:
176,312,253518,1,0,0:0:0:0:
360,192,253987,2,0,L|368:144,1,45
176,56,254222,54,0,L|120:136,1,90,2|0,0:0|0:0,0:0:0:0:
24,192,254573,2,0,L|80:272,1,90
200,312,254925,2,0,P|264:279|197:250,1,180,0|0,0:0|0:0,0:0:0:0:
176,56,255862,1,0,0:0:0:0:
336,56,256097,54,0,L|392:136,1,90,0|0,0:0|0:0,0:0:0:0:
488,192,256448,2,0,L|432:272,1,90
312,312,256800,2,0,P|248:279|315:250,1,180,0|4,0:0|0:0,0:0:0:0:
