osu file format v14

[General]
AudioFilename: Hikarunara.mp3
AudioLeadIn: 0
PreviewTime: 49270
Countdown: 0
SampleSet: Soft
StackLeniency: 0.6
Mode: 0
LetterboxInBreaks: 0
WidescreenStoryboard: 0

[Editor]
Bookmarks: 37551,53114,64832,65020,76551,89114
DistanceSpacing: 1.4
BeatDivisor: 4
GridSize: 8
TimelineZoom: 1

[Metadata]
Title:Hikaru Nara
TitleUnicode:Hikaru Nara
Artist:Goose House
ArtistUnicode:Goose House
Creator:Aretheus
Version:Normal
Source:Your Lie In April
Tags:Shigatsu wa Kimi no Uso anime op opening
BeatmapID:653475
BeatmapSetID:289995

[Difficulty]
HPDrainRate:4
CircleSize:4
OverallDifficulty:3
ApproachRate:5
SliderMultiplier:1
SliderTickRate:1

[Events]
//Background and Video events
0,0,"piccit_accompaniment___your_lie_in__678720961.jpg",0,0
//Break Periods
//Storyboard Layer 0 (Background)
//Storyboard Layer 1 (Fail)
//Storyboard Layer 2 (Pass)
//Storyboard Layer 3 (Foreground)
//Storyboard Sound Samples

[TimingPoints]
614,375,4,2,1,60,1,0
614,-111.111111111111,4,2,1,30,0,0
5020,-111.111111111111,4,2,1,45,0,0
14301,-100,4,2,1,40,0,0
25739,-100,4,2,1,40,0,0
31926,-100,4,2,1,45,0,0
37926,-117.647058823529,4,2,1,40,0,0
53114,-90.9090909090909,4,2,1,70,0,1
64832,-100,4,2,1,70,0,0
65020,-90.9090909090909,4,2,1,70,0,1
76551,-100,4,2,1,40,0,0
87239,-100,4,2,1,5,0,0

[HitObjects]
400,280,614,6,0,P|328:272|312:256,1,89.9999972534181
376,176,1364,1,0,0:0:0:0:
472,128,1739,2,0,P|360:48|240:88,1,269.999991760254
104,248,3614,1,4,0:0:0:0:
208,216,3989,2,4,L|136:344,1,134.999995880127
304,336,5114,6,8,P|344:344|392:328,1,89.9999972534181
336,232,5864,1,0,0:0:0:0:
440,240,6239,1,0,0:0:0:0:
464,136,6614,2,8,P|456:96|424:56,1,89.9999972534181
360,144,7364,1,0,0:0:0:0:
256,176,7739,1,0,0:0:0:0:
328,248,8114,2,0,P|171:236|215:85,1,359.999989013672
104,72,9989,1,0,0:0:0:0:
56,168,10364,6,8,L|64:264,1,89.9999972534181
168,264,11114,1,8,0:0:0:0:
168,264,11489,1,0,0:0:0:0:
168,264,11864,1,8,0:0:0:0:
264,304,12239,6,4,L|280:216,1,89.9999972534181,0|0,0:0|0:0,0:0:0:0:
360,288,12989,1,0,0:0:0:0:
464,256,13364,1,0,0:0:0:0:
392,176,13739,6,8,P|408:128|408:88,1,89.9999972534181
288,64,14489,2,0,P|240:48|192:72,2,100
240,176,15614,5,8,0:0:0:0:
144,104,15989,1,0,0:0:0:0:
72,200,16364,1,8,0:0:0:0:
144,296,16739,1,0,0:0:0:0:
264,264,17114,1,0,0:0:0:0:
256,144,17489,6,8,P|264:216|296:248,2,100
304,104,18426,2,8,P|336:80|360:80,1,50
376,192,18989,1,0,0:0:0:0:
416,304,19364,1,0,0:0:0:0:
464,192,19739,2,0,L|424:96,1,100
232,240,20864,6,8,P|256:192|232:152,1,100
120,120,21614,2,8,P|88:160|104:208,1,100
184,120,22364,2,0,L|216:216,2,100
304,96,23489,6,0,P|368:168|352:280,1,200
256,320,24614,2,0,L|160:280,1,100
104,112,25551,1,8,0:0:0:0:
64,288,26114,1,2,0:0:0:0:
136,88,26489,2,8,P|176:176|136:264,1,200
328,120,27989,5,8,0:0:0:0:
416,200,28364,1,0,0:0:0:0:
416,200,28551,1,0,0:0:0:0:
296,232,28926,6,8,P|248:296|184:296,1,150
200,176,29864,1,8,0:0:0:0:
136,80,30239,2,0,L|233:57,1,100
344,112,30989,2,0,L|368:120|392:128,1,50
336,232,31551,1,8,0:0:0:0:
280,56,32114,6,0,L|96:152,1,200
136,264,33239,1,8,0:0:0:0:
208,168,33614,1,0,0:0:0:0:
328,160,33989,5,0,0:0:0:0:
416,240,34364,1,8,0:0:0:0:
304,280,34739,1,0,0:0:0:0:
184,312,35114,2,4,L|80:296,1,100
168,208,35864,1,8,0:0:0:0:
88,120,36239,6,6,P|232:112|256:288,1,350
328,144,38114,2,12,P|368:112|416:120,1,85.0000016212464
400,216,38864,1,0,0:0:0:0:
448,304,39239,1,8,0:0:0:0:
416,208,39614,2,0,P|408:152|384:120,1,85.0000016212464
352,160,40176,1,6,0:0:0:0:
200,152,40739,5,8,0:0:0:0:
144,240,41114,2,0,L|56:224,2,85.0000016212464
120,144,42239,2,0,P|160:96|224:112,1,127.50000243187
320,104,43176,2,0,P|368:64|424:88,1,127.50000243187
384,184,44114,5,12,0:0:0:0:
184,160,44489,1,8,0:0:0:0:
272,200,44864,1,8,0:0:0:0:
192,256,45239,2,8,L|256:312,3,85.0000016212464
360,304,46739,1,0,0:0:0:0:
432,232,47114,2,12,P|392:200|344:208,1,85.0000016212464
256,200,47864,5,8,0:0:0:0:
176,264,48239,2,0,P|152:200|176:144,1,127.50000243187
64,248,49364,5,0,0:0:0:0:
80,144,49739,1,0,0:0:0:0:
112,48,50114,2,14,L|152:72,1,42.5000008106232
240,112,50676,6,14,L|256:72,1,42.5000008106232
360,64,51239,2,14,L|312:192,1,127.50000243187
464,232,52364,1,2,0:0:0:0:
376,280,52739,1,2,0:0:0:0:
312,168,53114,6,4,P|240:184|152:152,1,165.000005035401
136,288,54051,1,0,0:0:0:0:
64,176,54426,1,0,0:0:0:0:
216,56,54989,2,0,L|352:56,1,110.000003356934
216,136,55739,5,8,0:0:0:0:
216,136,56114,2,0,L|288:232,1,110.000003356934
408,176,56864,2,0,L|312:312,1,165.000005035401
256,192,57801,12,6,58926,0:0:0:0:
280,232,59489,6,4,L|200:312,1,110.000003356934
104,224,60239,1,0,0:0:0:0:
200,136,60614,5,0,0:0:0:0:
296,48,60989,2,0,P|392:104|368:200,1,220.000006713867
248,152,62114,2,0,L|136:192,1,110.000003356934
264,248,62864,2,0,L|344:328,2,110.000003356934
288,120,63989,1,10,0:0:0:0:
168,64,64364,5,2,0:0:0:0:
192,192,64739,1,2,0:0:0:0:
64,152,65114,1,2,0:0:0:0:
176,88,65489,2,0,P|256:112|296:184,1,165.000005035401
264,304,66426,6,0,P|332:316|392:232,1,165.000005035401
136,328,67739,2,0,P|207:300|128:224,1,220.000006713867
40,48,69051,5,0,0:0:0:0:
168,48,69426,2,8,L|232:144,1,110.000003356934
288,160,69989,2,8,L|344:64,1,110.000003356934
408,48,70551,2,8,L|464:144,1,110.000003356934
272,192,71489,5,0,0:0:0:0:
184,288,71864,1,0,0:0:0:0:
64,232,72239,1,0,0:0:0:0:
176,160,72614,2,0,L|320:40,1,165.000005035401
104,56,73739,5,8,0:0:0:0:
72,184,74114,1,8,0:0:0:0:
136,296,74489,1,8,0:0:0:0:
240,128,75051,1,4,0:0:0:0:
320,232,75426,6,0,P|368:208|384:149,1,110.000003356934
368,288,76176,1,0,0:0:0:0:
248,320,76551,1,0,0:0:0:0:
80,248,77114,6,4,L|80:144,1,100
200,144,77864,2,8,L|200:40,1,100
320,40,78614,2,8,L|320:144,1,100
440,144,79364,2,8,L|440:248,1,100
328,288,80114,6,0,L|272:288,1,50
248,176,80676,1,0,0:0:0:0:
160,256,81051,2,10,P|88:192|144:120,1,200
320,144,82364,5,10,0:0:0:0:
232,56,82739,1,10,0:0:0:0:
208,176,83114,2,4,L|149:256,1,100
112,144,83864,2,0,P|176:72|272:80,1,200
280,200,84989,5,10,0:0:0:0:
392,232,85364,1,0,0:0:0:0:
296,312,85739,1,0,0:0:0:0:
184,264,86114,1,0,0:0:0:0:
80,200,86489,2,4,L|80:144,2,50
256,192,87239,12,12,88739,0:0:0:0:
