osu file format v14

[General]
AudioFilename: Hikarunara.mp3
AudioLeadIn: 0
PreviewTime: 49270
Countdown: 0
SampleSet: None
StackLeniency: 0.8
Mode: 0
LetterboxInBreaks: 0
WidescreenStoryboard: 0

[Editor]
Bookmarks: 6426,6801,7551,20114,20676,23114,27239,27801,46176,46926,47301,52926,53114,64832,65020,70364,70926,75426,76551,78614,78989,89489
DistanceSpacing: 1.4
BeatDivisor: 4
GridSize: 8
TimelineZoom: 1

[Metadata]
Title:Hikaru Nara
TitleUnicode:Hikaru Nara
Artist:Goose House
ArtistUnicode:Goose House
Creator:Aretheus
Version:Hard
Source:Your Lie In April
Tags:Shigatsu wa Kimi no Uso anime op opening
BeatmapID:654885
BeatmapSetID:289995

[Difficulty]
HPDrainRate:6
CircleSize:4
OverallDifficulty:6
ApproachRate:8
SliderMultiplier:1.4
SliderTickRate:2

[Events]
//Background and Video events
0,0,"piccit_accompaniment___your_lie_in__678720961.jpg",0,0
Video,0,"video.avi"
//Break Periods
//Storyboard Layer 0 (Background)
//Storyboard Layer 1 (Fail)
//Storyboard Layer 2 (Pass)
//Storyboard Layer 3 (Foreground)
//Storyboard Sound Samples

[TimingPoints]
614,375,4,2,0,60,1,0
614,-111.111111111111,4,3,0,30,0,0
5020,-111.111111111111,4,3,0,45,0,0
14301,-100,4,3,0,40,0,0
25739,-100,4,3,0,40,0,0
31926,-100,4,3,0,45,0,0
37926,-117.647058823529,4,3,0,40,0,0
53114,-90.9090909090909,4,3,0,70,0,1
64832,-100,4,3,0,70,0,0
65020,-90.9090909090909,4,2,0,70,0,1
76551,-100,4,3,0,40,0,0
87239,-100,4,3,0,5,0,0

[HitObjects]
168,80,614,21,0,0:0:0:0:
256,80,801,1,8,0:0:0:0:
312,144,989,1,0,0:0:0:0:
312,232,1176,1,8,0:0:0:0:
424,96,1551,6,0,P|440:112|432:152,1,62.9999980773926
384,216,1926,1,0,0:0:0:0:
224,288,2301,2,0,P|168:312|104:288,1,125.999996154785
56,272,3614,6,12,L|104:224,1,62.9999980773926
128,144,3989,2,8,L|176:192,1,62.9999980773926
232,128,4364,2,0,L|280:80,1,62.9999980773926
368,80,4739,1,4,0:0:0:0:
448,232,5114,6,8,P|392:264|320:232,1,125.999996154785
384,176,5676,1,0,0:0:0:0:
336,344,6051,1,0,0:0:0:0:
168,304,6426,2,0,P|88:304|64:256,1,125.999996154785
64,184,6989,2,0,P|72:152|96:136,1,62.9999980773926
200,280,7551,1,0,0:0:0:0:
376,320,7926,6,0,L|448:208,1,125.999996154785
360,240,8488,1,2,0:0:0:0:
424,176,8676,1,2,0:0:0:0:
368,104,8863,1,2,0:0:0:0:
432,48,9051,1,2,0:0:0:0:
352,232,9426,6,0,L|256:136,1,125.999996154785
224,64,9989,1,0,0:0:0:0:
176,136,10176,1,0,0:0:0:0:
88,152,10364,6,0,P|104:80|160:48,1,125.999996154785
248,192,11114,2,8,L|288:256,1,62.9999980773926
360,200,11489,2,0,L|400:264,1,62.9999980773926
320,136,11864,2,0,L|286:82,1,62.9999980773926
286,82,12239,1,0,0:0:0:0:
376,96,12426,5,0,0:0:0:0:
432,160,12614,2,0,P|456:208|408:264,1,125.999996154785
336,288,13176,5,0,0:0:0:0:
160,288,13551,1,0,0:0:0:0:
280,160,13926,1,4,0:0:0:0:
280,160,14114,1,4,0:0:0:0:
112,96,14676,5,0,0:0:0:0:
208,64,14864,2,8,L|296:96,2,70
224,144,15426,2,0,P|296:160|352:104,1,140
360,216,15989,1,0,0:0:0:0:
312,304,16176,1,0,0:0:0:0:
216,280,16364,6,8,L|144:232,2,70
256,192,16926,1,0,0:0:0:0:
240,96,17114,1,0,0:0:0:0:
232,288,17489,2,8,P|160:304|112:256,1,140
184,224,18051,1,8,0:0:0:0:
280,192,18239,2,0,L|264:120,1,70
360,136,18614,1,8,0:0:0:0:
432,72,18801,5,0,0:0:0:0:
352,136,18989,1,0,0:0:0:0:
256,120,19176,1,0,0:0:0:0:
160,88,19364,2,8,P|127:88|116:119,1,70
64,200,19739,1,0,0:0:0:0:
120,280,19926,5,0,0:0:0:0:
216,248,20114,2,0,L|288:320,2,70
408,216,20864,1,8,0:0:0:0:
272,80,21239,6,0,P|152:104|200:232,1,280
360,136,22364,1,8,0:0:0:0:
264,168,22551,1,8,0:0:0:0:
344,232,22739,1,0,0:0:0:0:
400,200,23114,6,8,L|448:136,1,70
344,168,23489,2,0,L|400:96,1,70
288,104,23864,1,8,0:0:0:0:
240,184,24051,1,8,0:0:0:0:
144,168,24239,6,0,P|144:72|96:40,1,140
64,128,24801,1,0,0:0:0:0:
256,80,25176,1,0,0:0:0:0:
448,64,25551,2,0,P|352:136|240:144,1,210
80,72,26489,6,0,L|144:112,1,70
56,160,26864,1,8,0:0:0:0:
152,192,27051,1,0,0:0:0:0:
72,240,27239,2,0,P|152:280|248:208,1,210
312,304,27989,6,0,L|384:280,1,70
424,200,28364,2,8,L|368:152,1,70
208,88,28926,6,0,L|128:112,1,70
138,108,29301,1,0,0:0:0:0:
138,108,29489,1,0,0:0:0:0:
320,64,29864,5,0,0:0:0:0:
320,64,30051,2,0,B|280:96|216:104|192:240,1,210
112,280,30801,6,0,P|192:304|256:288,1,140
320,224,31364,1,8,0:0:0:0:
232,200,31551,1,0,0:0:0:0:
400,288,31926,5,0,0:0:0:0:
392,192,32114,2,8,P|448:144|432:88,2,140
240,152,33051,1,8,0:0:0:0:
280,64,33239,6,0,P|192:64|160:104,1,140
72,72,33801,1,0,0:0:0:0:
144,192,33989,2,0,P|256:200|304:224,1,140
408,160,34551,1,8,0:0:0:0:
376,296,34739,2,0,P|272:296|240:272,1,140
144,272,35301,2,0,P|226:303|288:256,1,140
320,200,35864,1,0,0:0:0:0:
416,192,36239,6,0,P|456:96|424:64,1,140
344,64,36801,2,4,L|304:152,1,70
256,56,37176,2,0,L|224:128,1,70
144,80,37551,1,0,0:0:0:0:
376,152,38114,5,0,0:0:0:0:
304,112,38301,2,0,P|304:208|392:232,1,178.500003404617
264,288,39051,1,0,0:0:0:0:
200,240,39239,1,0,0:0:0:0:
176,160,39426,2,0,P|288:120|328:176,1,178.500003404617
392,200,40176,1,2,0:0:0:0:
456,208,40364,2,0,B|459:132|384:112|328:128|304:192|328:240|352:248,1,238.00000453949
272,200,41301,5,0,0:0:0:0:
208,152,41489,1,8,0:0:0:0:
200,232,41676,1,8,0:0:0:0:
136,176,41864,2,0,P|128:128|200:80,1,119.000002269745
256,104,42426,5,0,0:0:0:0:
256,104,42614,2,8,L|310:73,1,59.5000011348725
392,88,42989,2,0,L|464:56,1,59.5000011348725
416,136,43364,2,0,L|480:104,4,59.5000011348725
408,216,44301,5,0,0:0:0:0:
376,288,44489,2,0,P|272:248|216:296,1,178.500003404617
144,304,45239,2,0,L|80:280,1,59.5000011348725
125,211,45614,2,0,L|218:251,2,89.2500017023087
88,184,46364,6,8,L|64:120,1,59.5000011348725
136,88,46739,1,0,0:0:0:0:
288,144,47114,1,0,0:0:0:0:
428,64,47489,6,0,L|399:138,1,59.5000011348725
423,200,47864,2,8,L|471:270,1,59.5000011348725
381,277,48239,2,0,L|307:299,1,59.5000011348725
302,215,48614,2,0,L|264:144,1,59.5000011348725
347,135,48989,1,0,0:0:0:0:
201,66,49364,5,0,0:0:0:0:
66,155,49739,1,0,0:0:0:0:
227,163,50114,2,12,L|147:195,1,59.5000011348725
329,204,50676,2,12,L|265:228,1,59.5000011348725
440,256,51239,6,0,P|376:304|320:296,1,119.000002269745
288,240,51801,1,0,0:0:0:0:
240,312,51989,1,0,0:0:0:0:
160,288,52176,2,4,P|144:224|168:176,1,119.000002269745
232,128,52739,1,0,0:0:0:0:
288,192,52926,1,0,0:0:0:0:
392,168,53114,5,4,0:0:0:0:
368,64,53301,1,0,0:0:0:0:
285,90,53489,2,0,L|173:98,1,77.0000023498536
96,274,54051,5,0,0:0:0:0:
96,272,54239,1,0,0:0:0:0:
96,272,54426,2,0,B|74:220|93:153|174:121,1,154.000004699707
235,78,54989,1,0,0:0:0:0:
229,181,55176,2,0,P|333:141|461:53,1,231.000007049561
385,272,56114,6,0,L|281:296,1,77.0000023498536
312,184,56489,2,0,L|224:208,1,77.0000023498536
80,64,57051,1,0,0:0:0:0:
128,160,57239,1,0,0:0:0:0:
192,80,57426,1,0,0:0:0:0:
400,80,57801,6,0,L|296:120,2,77.0000023498536
384,184,58364,2,0,L|304:216,1,77.0000023498536
152,80,58926,2,0,P|88:112|88:200,1,154.000004699707
83,193,59489,1,0,0:0:0:0:
83,193,59676,1,0,0:0:0:0:
280,128,60051,5,0,0:0:0:0:
472,56,60426,2,0,L|384:120,1,77.0000023498536
448,200,60801,1,0,0:0:0:0:
344,224,60989,1,0,0:0:0:0:
424,296,61176,2,0,P|344:344|288:312,1,154.000004699707
192,296,61739,1,0,0:0:0:0:
64,120,62114,6,0,L|128:72,3,77.0000023498536
232,56,62864,1,0,0:0:0:0:
336,56,63051,2,0,B|368:56|400:64|400:64|424:88|424:88|432:120|432:168,1,154.000004699707
328,144,63614,6,0,L|384:208,2,77.0000023498536
304,248,64176,1,0,0:0:0:0:
208,200,64364,1,0,0:0:0:0:
192,304,64551,2,0,L|32:240,1,154.000004699707
48,136,65114,6,4,L|136:120,1,77.0000023498536
208,64,65489,2,0,L|304:120,1,77.0000023498536
368,224,65864,2,0,P|272:232|224:200,1,154.000004699707
72,184,66426,6,0,P|104:248|208:264,1,154.000004699707
280,272,66989,1,8,0:0:0:0:
376,272,67176,1,0,0:0:0:0:
432,184,67364,1,0,0:0:0:0:
344,128,67551,2,0,L|272:192,2,77.0000023498536
448,136,68114,2,0,L|443:217,1,77.0000023498536
376,296,68489,2,0,L|288:320,1,77.0000023498536
130,185,69051,6,0,P|116:220|133:254,2,77.0000023498536
128,72,69614,2,0,L|192:128,1,77.0000023498536
288,96,69989,5,0,0:0:0:0:
352,144,70176,1,0,0:0:0:0:
280,184,70364,2,0,P|184:224|240:344,1,231.000007049561
304,280,71114,6,0,L|400:320,1,77.0000023498536
464,240,71489,2,0,L|360:200,1,77.0000023498536
296,168,71864,1,0,0:0:0:0:
384,120,72051,2,0,P|296:72|200:144,1,231.000007049561
152,48,72801,6,0,L|64:64,1,77.0000023498536
88,168,73176,2,0,L|104:256,1,77.0000023498536
200,288,73551,1,0,0:0:0:0:
304,296,73739,5,8,0:0:0:0:
256,200,73926,1,0,0:0:0:0:
360,208,74114,2,8,L|400:288,2,77.0000023498536
464,216,74676,1,0,0:0:0:0:
392,136,74864,1,8,0:0:0:0:
288,144,75051,1,8,0:0:0:0:
336,48,75239,1,4,0:0:0:0:
232,72,75426,6,0,P|128:104|96:72,1,154.000004699707
88,192,75989,1,0,0:0:0:0:
48,296,76176,2,0,L|132:270,1,77.0000023498536
96,176,76551,1,0,0:0:0:0:
96,176,76739,1,0,0:0:0:0:
192,192,76926,1,0,0:0:0:0:
192,288,77114,5,0,0:0:0:0:
384,304,77489,1,0,0:0:0:0:
424,112,77864,1,0,0:0:0:0:
232,56,78239,1,0,0:0:0:0:
56,112,78614,2,12,P|128:152|200:144,1,140
64,288,79364,2,0,P|128:328|184:296,1,140
368,240,80114,6,0,L|336:168,1,70
272,204,80489,2,0,L|338:173,1,70
338,173,80864,1,0,0:0:0:0:
340,171,81051,1,0,0:0:0:0:
405,144,81239,2,0,L|338:173,1,70
308,106,81614,2,0,L|338:173,1,70
338,173,81989,1,0,0:0:0:0:
152,104,82364,6,0,L|204:57,2,70
152,104,82926,1,0,0:0:0:0:
224,200,83114,6,0,L|144:160,1,70
224,240,83489,2,0,L|144:200,1,70
224,280,83864,2,0,L|144:240,1,70
96,176,84239,1,0,0:0:0:0:
256,72,84614,6,0,L|336:112,1,70
408,72,84989,1,0,0:0:0:0:
464,143,85364,2,0,L|320:175,1,140
232,144,85926,2,0,L|272:296,1,140
352,240,86489,1,0,0:0:0:0:
256,256,86676,6,4,L|232:288,2,35
160,248,87051,1,0,0:0:0:0:
256,192,87239,12,0,88739,0:0:0:0:
