osu file format v5

[General]
AudioFilename: The Pineapple Song.mp3
AudioLeadIn: 0
PreviewTime: -1
Countdown: 1
SampleSet: Normal
StackLeniency: 0.7
Mode: 0
LetterboxInBreaks: 1

[Metadata]
Title:The Pineapple Song
Artist:Good Size
Creator:luke0719
Version:Normal
Source:After the Sunset OST
Tags:The Pineapple Song Good Size After the Sunset OST

[Difficulty]
HPDrainRate:4
CircleSize:5
OverallDifficulty:3
SliderMultiplier:1.4
SliderTickRate:2

[Events]
//Background and Video events
0,0,"1600x1200_1.JPG"
//Break Periods
2,98690,112259
2,126594,140494
//Storyboard Layer 0 (Background)
//Storyboard Layer 1 (Failing)
//Storyboard Layer 2 (Passing)
//Storyboard Layer 3 (Foreground)
//Storyboard Sound Samples
//Background Colour Transformations
3,100,163,162,255

[TimingPoints]
7300,441.176470588235,4,1,0,100,1
155495,441.176470588235,4,1,0,100,1

[Colours]
Combo1 : 255,128,128
Combo2 : 128,255,128
Combo3 : 128,255,255
Combo4 : 255,255,128
Combo5 : 255,198,113

[HitObjects]
256,191,14469,1,0
311,188,14689,1,0
358,319,15241,1,0
302,319,15461,1,0
245,319,15682,1,8
255,179,16233,5,0
311,177,16454,1,0
317,37,17005,1,0
261,38,17226,1,0
205,39,17447,1,8
118,110,17888,5,0
190,194,18329,1,8
118,280,18770,1,8
229,278,19211,1,8
340,277,19652,5,0
452,279,20094,1,8
452,167,20535,1,8
346,166,20976,1,8
349,330,21527,5,0
305,293,21748,1,0
201,199,22300,1,0
155,167,22520,1,0
109,199,22741,1,8
147,64,23292,5,0
146,120,23513,1,0
284,137,24064,1,0
284,193,24285,1,0
284,248,24505,1,8
396,252,24947,5,0
284,249,25388,1,8
285,137,25829,1,8
173,137,26270,1,8
172,248,26711,5,0
283,250,27152,1,8
285,137,27594,1,8
286,25,28035,1,8
397,30,28476,6,0,B|397:175,1,140
397,281,29358,1,8
284,281,29800,1,0
172,280,30241,1,0
60,280,30682,1,8
244,280,31454,6,0,B|353:280,1,105
405,280,32005,1,8
405,167,32447,2,0,B|245:167,1,140,0|8
181,175,33219,2,8,B|92:239,1,105
113,287,33770,2,8,B|154:313|201:287|220:236|232:200|259:170|304:181|343:204|363:231,1,280
277,126,35094,1,8
321,35,35535,6,0,B|465:35,1,140
461,153,36417,1,8
458,236,36748,2,8,B|403:197|359:185|309:193|267:215|212:253|191:268|175:292,1,315
269,223,38182,1,8
190,192,38513,6,8,B|259:94,1,105
300,81,39064,2,8,B|348:111|369:143|379:168|383:195|367:229|335:257|296:286|267:307,1,280
195,296,40277,2,0,B|124:287|95:261|81:220|79:165|100:140|142:132|187:107|196:70,1,315,8|8
304,77,41711,1,8
415,75,42152,5,0
415,131,42373,5,0
414,215,42704,5,0
358,215,42924,1,0
217,215,43476,1,0
160,215,43697,1,0
104,215,43917,1,8
98,74,44469,5,0
153,74,44689,1,0
293,79,45241,1,0
293,135,45461,1,0
294,191,45682,1,8
294,302,46123,5,0
292,190,46564,1,8
196,247,47005,1,8
139,247,47226,1,8
82,248,47447,1,8
82,136,47888,5,0
193,134,48329,1,0
304,133,48770,1,8
360,134,48991,1,8
415,134,49211,1,8
322,239,49763,5,0
266,240,49983,1,0
125,238,50535,1,0
94,191,50755,1,0
131,149,50976,1,8
270,150,51527,5,0
326,150,51748,1,0
375,280,52299,1,0
322,300,52520,1,0
271,324,52741,1,8
160,308,53182,5,0
161,196,53623,1,8
230,108,54064,1,8
276,77,54285,1,8
317,114,54505,1,8
318,225,54947,2,8,B|284:225|245:225,1,70
191,222,55388,2,8,B|180:187|169:147,1,70
115,155,55829,2,8,B|72:151|23:146,1,70
37,203,56270,1,8
39,91,56711,6,8,B|83:59|113:44|152:34|195:31|228:31|257:38|314:69,1,280
424,176,58255,2,8,B|402:220|380:240|352:259|320:272|279:279|248:279|112:242,1,350
117,74,60020,5,0
173,74,60241,1,0
284,76,60682,1,0
339,76,60902,1,0
395,76,61123,1,0
447,107,61344,2,0,B|384:176,1,70
362,200,61785,2,0,B|330:201|295:238,1,70
285,285,62226,2,8,B|310:313|282:352,1,70
227,347,62667,2,8,B|152:346,1,70
38,228,63549,6,0,B|67:181|95:159|117:142|156:121|189:111|222:162|226:201|226:239|232:281|249:307,1,350
301,307,64873,1,8
357,302,65094,6,8,B|401:260|413:224|409:199|380:162|349:137|306:120|263:111|221:111|107:137,1,420
256,94,67079,6,0,B|199:106|192:155,1,70
167,177,67520,2,0,B|144:226|176:271,1,70
192,291,67961,2,0,B|233:321|277:301|276:302,1,70
370,295,68623,1,8
368,183,69064,1,8
256,182,69505,1,8
144,181,69947,1,8
144,349,70608,5,0
190,317,70829,1,0
281,252,71270,1,12
378,197,71711,1,12
384,29,72373,5,0
383,84,72594,1,0
381,196,73035,1,12
286,136,73476,1,12
117,134,74138,6,0,B|197:134,1,70
185,190,74579,2,0,B|185:277,1,70
241,260,75020,2,0,B|333:260,1,70
367,261,75461,2,8,B|416:228|427:198|438:159|427:129|415:101|382:79|323:74|266:76|223:87|192:99|152:115|106:142|93:152,1,490
225,257,77667,5,0
271,225,77888,1,0
322,125,78329,1,0
323,69,78549,1,0
266,67,78770,1,0
209,67,78991,2,8,B|122:67,1,70
90,95,79432,2,8,B|50:127|35:162|35:184|50:227|69:251|91:281|127:304|227:347,1,350
233,175,81197,5,0
289,176,81417,1,0
400,178,81858,1,8
343,177,82079,1,8
337,121,82299,2,8,B|316:81|297:58|261:35,1,105
153,119,83182,5,4
248,177,83623,5,4
177,263,84064,5,4
335,67,85057,5,0
335,122,85277,1,0
338,262,85829,1,0
281,262,86050,1,0
231,287,86270,1,8
227,146,86822,5,0
171,146,87042,1,0
30,146,87594,1,0
71,183,87814,1,0
115,217,88035,1,8
223,246,88476,5,0
334,246,88917,1,8
403,158,89358,1,8
368,113,89579,1,8
417,86,89800,1,8
305,79,90241,5,0
193,79,90682,1,8
113,158,91123,1,8
152,197,91344,1,8
194,233,91564,1,8
334,233,92116,5,0
372,192,92336,1,0
284,82,92888,1,0
234,56,93108,1,0
188,88,93329,1,8
48,86,93880,5,0
48,142,94101,1,0
162,221,94652,1,0
205,256,94873,1,0
250,222,95094,1,8
361,222,95535,5,0
363,333,95976,1,8
261,286,96417,1,8
204,284,96638,1,8
148,286,96858,1,8
256,192,97189,12,0,98623
257,192,113182,5,8
199,96,113623,1,0
310,98,114064,1,8
386,179,114505,1,0
309,260,114947,1,8
196,258,115388,1,0
119,175,115829,1,8
319,76,116711,6,0,B|246:76,1,70
249,132,117152,2,0,B|249:206,1,70
193,197,117594,1,8
80,197,118035,1,8
79,252,118255,2,8,B|98:314|126:331|164:348|186:356|206:356|226:350|257:333|278:320|304:301|338:268|340:238,1,350
127,167,120241,6,0,B|156:134|191:129,1,70
241,129,120682,1,8
352,130,121123,1,8
349,241,121564,2,0,B|319:279|287:292,1,70
241,288,122005,1,8
129,288,122447,1,8
133,175,122888,1,8
319,62,123770,5,4
384,152,124211,5,4
308,234,124652,5,4
196,235,125094,5,4
121,151,125535,5,4
188,61,125976,5,4
268,138,126417,5,4
257,194,141527,5,0
313,191,141748,1,0
351,321,142300,1,0
295,321,142520,1,0
238,321,142741,1,8
239,156,143292,5,0
295,156,143513,1,0
366,35,144064,1,0
399,80,144285,1,0
361,121,144505,1,8
246,129,144947,6,8,B|272:171|316:202|342:209|362:213,1,140
364,323,145829,1,0
307,323,146050,1,0
251,324,146270,1,8
139,321,146711,2,8,B|148:310|149:266|135:224|112:185,1,140
136,78,147594,1,0
191,78,147814,1,0
247,78,148035,1,8
250,242,148586,5,0
306,242,148807,1,0
439,199,149358,1,0
412,147,149579,1,0
355,147,149800,1,8
190,149,150351,5,0
133,150,150572,1,0
133,289,151123,1,0
189,288,151344,1,0
244,288,151564,1,8
355,286,152005,6,8,B|355:140,1,140
274,67,152888,2,8,B|203:67,2,70
275,178,153770,2,8,B|195:178,2,70
386,181,154652,2,8,B|386:253,2,70
242,178,155605,5,0
242,234,155826,1,0
381,235,156377,1,0
325,235,156597,1,0
323,178,156818,1,8
321,37,157370,5,0
321,92,157590,1,0
321,232,158142,1,0
350,279,158362,1,0
307,315,158583,1,8
195,305,159024,6,8,B|138:282|127:261|106:218|106:198,1,140
150,101,159906,1,8
206,100,160127,1,8
262,100,160347,1,8
256,192,160568,12,0,162002
