osu file format v5

[General]
AudioFilename: The Pineapple Song.mp3
AudioLeadIn: 0
PreviewTime: -1
Countdown: 1
SampleSet: Normal
StackLeniency: 0.7
Mode: 0
LetterboxInBreaks: 1

[Metadata]
Title:The Pineapple Song
Artist:Good Size
Creator:luke0719
Version:Easy
Source:After the Sunset OST
Tags:The Pineapple Song Good Size After the Sunset OST

[Difficulty]
HPDrainRate:1
CircleSize:4
OverallDifficulty:1
SliderMultiplier:1.4
SliderTickRate:2

[Events]
//Background and Video events
0,0,"Tropical_Island.jpg"
//Break Periods
2,98690,112259
2,126594,140494
//Storyboard Layer 0 (Background)
//Storyboard Layer 1 (Failing)
//Storyboard Layer 2 (Passing)
//Storyboard Layer 3 (Foreground)
//Storyboard Sound Samples
//Background Colour Transformations
3,100,163,162,255

[TimingPoints]
7300,441.176470588235,4,1,0,100,1
155495,441.176470588235,4,1,0,100,1

[Colours]
Combo1 : 255,128,128
Combo2 : 128,255,128
Combo3 : 128,255,255
Combo4 : 255,255,128
Combo5 : 255,198,113

[HitObjects]
254,38,14469,1,0
254,93,14689,1,0
254,233,15241,1,0
142,233,15682,1,8
151,101,16233,5,0
207,101,16454,1,0
346,99,17005,1,0
458,96,17447,1,8
460,207,17888,5,0
236,209,18770,1,8
459,206,19652,5,0
234,208,20535,1,8
452,82,21527,5,0
395,82,21748,1,0
254,84,22300,1,0
142,83,22741,1,8
142,222,23292,5,0
198,222,23513,1,0
337,223,24064,1,0
338,111,24505,1,8
450,107,24947,5,0
226,106,25829,1,8
226,329,26711,5,0
450,329,27594,1,8
450,105,28476,6,0,B|450:250,1,140
343,279,29358,1,8
254,279,29800,2,0,B|110:279,1,140
34,277,30682,1,8
229,277,31454,6,0,B|339:277,1,105
390,278,32005,1,8
394,53,32888,1,0
170,51,33770,1,8
166,276,34652,1,8
163,51,35535,6,0,B|307:51,1,140
414,53,36417,1,8
417,164,36858,2,0,B|261:164,1,140
164,161,37741,1,0
275,162,38182,1,8
51,160,39064,5,0
274,162,39947,1,8
465,45,40829,1,0
274,162,41711,1,8
385,161,42152,6,0,B|471:161,1,70
455,245,42704,1,0
399,246,42924,1,0
258,244,43476,2,0,B|162:244,2,70,8|8|8
264,104,44469,5,0
319,105,44689,1,0
319,245,45241,2,8,B|417:245,2,70
207,247,46123,5,0
95,247,46564,1,0
96,135,47005,2,8,B|8:135,2,70
208,136,47888,5,0
319,134,48329,1,0
430,134,48770,2,8,B|430:222,2,70
307,201,49763,5,0
251,199,49983,1,0
110,201,50535,2,8,B|110:103,2,70
234,138,51527,5,0
290,138,51748,1,0
288,277,52299,2,8,B|288:366,2,70
175,271,53182,5,0
63,271,53623,1,0
120,175,54064,2,8,B|120:94,2,70
209,107,54947,2,0,B|245:107|284:107,3,70
335,106,55829,1,0
446,106,56270,1,8
445,217,56711,6,0,B|360:217,4,70
276,215,58255,2,0,B|276:117,5,70
123,73,60020,5,0
173,74,60241,1,0
284,76,60902,1,0
339,76,61123,1,0
287,236,61785,2,8,B|385:236,5,70,8|8|8|8|8|8
38,228,63549,6,0,B|67:181|95:159|117:142|156:121|189:111|222:162|226:201|226:239|232:281|249:307,1,350
357,297,65094,6,8,B|401:255|413:219|409:194|380:157|349:132|311:112|271:97|224:82|105:54,1,420
297,68,67079,5,0
241,68,67299,1,0
133,66,67741,2,8,B|133:144,2,70
244,66,68623,1,0
244,177,69064,1,0
243,288,69505,1,0
354,286,69947,1,8
354,117,70608,5,0
297,117,70829,1,0
185,115,71270,1,12
73,115,71711,1,12
68,283,72373,5,0
123,282,72594,1,0
235,284,73035,1,12
346,284,73476,1,12
177,286,74138,5,8
178,224,74358,1,0
234,222,74579,1,8
289,223,74799,1,0
318,279,75020,1,0
374,279,75241,2,8,B|423:246|434:216|445:177|434:147|422:119|389:97|330:92|273:94|230:105|199:117|159:133|113:160|51:239,1,560
225,257,77667,5,0
281,257,77888,1,0
282,145,78329,2,8,B|282:47,2,70
197,143,79101,1,0
112,143,79432,2,8,B|72:175|57:210|57:232|72:275|91:299|113:329|167:342|276:303,1,350
272,138,81197,5,0
272,194,81417,1,0
383,198,82079,1,8
385,141,82299,1,8
161,130,83182,5,4
272,132,83623,5,4
272,243,84064,5,4
335,67,85057,5,0
335,122,85277,1,0
331,262,85829,2,8,B|244:262,2,70
259,141,86822,5,0
203,141,87042,1,0
62,138,87594,2,8,B|62:212,2,70
144,62,88476,5,0
142,172,88917,1,0
222,250,89358,2,8,B|306:250,2,70
226,137,90241,5,0
337,139,90682,1,0
448,140,91123,1,0
448,251,91564,1,8
307,251,92116,5,0
307,306,92336,1,0
195,321,92888,2,8,B|195:225,2,70
55,319,93880,5,0
57,262,94101,1,0
154,162,94652,1,0
177,212,94873,1,0
233,212,95094,1,8
344,212,95535,5,0
340,314,95976,1,0
232,311,96417,1,8
176,310,96638,1,8
176,253,96858,1,8
256,192,97189,12,0,98623
256,194,113182,5,0
479,194,114064,1,8
255,194,114947,1,0
30,196,115829,1,8
319,76,116711,6,0,B|246:76,1,70
192,75,117152,1,8
192,186,117594,1,8
304,187,118035,2,0,B|381:187,1,70
430,188,118476,1,0
430,299,118917,1,8
318,300,119358,1,8
93,295,120241,6,0,B|92:197,1,70
93,168,120682,2,8,B|93:94,2,70
261,169,122005,2,0,B|336:169,1,70
386,172,122447,2,8,B|469:172,2,70
161,167,123770,5,4
384,163,124652,5,4
159,167,125535,5,4
382,163,126417,5,4
257,194,141527,5,0
313,192,141748,1,0
315,332,142300,1,0
203,332,142741,1,8
203,192,143292,5,0
203,135,143513,1,0
330,78,144064,1,0
441,76,144505,1,8
448,187,144947,6,0,B|299:187,1,140
196,188,145829,2,8,B|109:188,2,70
307,188,146711,2,0,B|470:188,1,140
359,117,147594,2,8,B|359:35,2,70
219,109,148586,5,0
162,108,148807,1,0
160,247,149358,1,0
272,248,149800,1,8
275,108,150351,5,0
331,107,150572,1,0
331,246,151123,1,0
333,357,151564,1,8
229,313,152005,6,0,B|229:167,1,140
116,169,152888,2,8,B|45:169,2,70
116,280,153770,2,0,B|36:280,2,70
227,282,154652,2,8,B|227:354,2,70
231,152,155605,5,0
286,152,155825,1,0
336,282,156377,1,0
447,283,156818,1,8
432,143,157369,5,0
375,141,157590,1,0
227,141,158142,1,0
127,89,158583,1,8
132,200,159024,6,8,B|132:214|153:257|164:278|221:301,1,140
331,300,159906,1,8
442,300,160347,1,8
256,192,160568,12,0,162002
