osu file format v13

[General]
AudioFilename: Goldfinger - Spokesman [mp3clan.com].mp3
AudioLeadIn: 0
PreviewTime: 26885
Countdown: 0
SampleSet: None
StackLeniency: 0.7
Mode: 0
LetterboxInBreaks: 1
WidescreenStoryboard: 0

[Editor]
DistanceSpacing: 0.8
BeatDivisor: 4
GridSize: 16
TimelineZoom: 1.9

[Metadata]
Title:Spokesman
TitleUnicode:Spokesman
Artist:Goldfinger
ArtistUnicode:Goldfinger
Creator:Tuxxy
Version:Platinum
Source:Tony Hawk's Pro Skater 4
Tags:thps4 rock tony hawk explicit
BeatmapID:563105
BeatmapSetID:244275

[Difficulty]
HPDrainRate:7
CircleSize:3
OverallDifficulty:7
ApproachRate:9
SliderMultiplier:2.8
SliderTickRate:1

[Events]
//Background and Video events
//Break Periods
//Storyboard Layer 0 (Background)
//Storyboard Layer 1 (Fail)
//Storyboard Layer 2 (Pass)
//Storyboard Layer 3 (Foreground)
//Storyboard Sound Samples
//Background Colour Transformations
3,100,163,162,255

[TimingPoints]
255.615384615385,292.682926829268,4,1,0,100,1,0
3767,-100,4,2,0,100,0,0
4642,292.682926829268,4,1,0,100,1,0
14007,-100,4,2,0,100,0,0
15178,-100,4,1,0,100,0,0
24544,-200,4,2,0,100,0,0
29231,-100,4,1,0,100,0,1
47963,-100,4,1,0,100,0,0
52353,292.682926829268,4,1,0,100,1,0
75767,-100,4,1,0,100,0,1
94499,-100,4,1,0,100,0,0

[HitObjects]
96,72,255,6,0,P|184:40|376:56,1,280,8|0,0:0|0:0,0:0:0:0:
224,136,694,2,0,P|328:160|496:96,1,280,8|0,0:0|0:0,0:0:0:0:
224,136,1133,1,8,0:0:0:0:
32,240,1426,5,8,0:0:0:0:
104,312,1572,1,0,0:0:0:0:
216,312,1719,1,0,0:0:0:0:
328,312,1865,1,0,0:0:0:0:
432,312,2011,1,8,0:0:0:0:
488,224,2158,1,0,0:0:0:0:
368,192,2304,1,8,0:0:0:0:
216,192,2597,6,0,P|168:112|112:96,2,140,8|0|0,0:0|0:0|0:0,0:0:0:0:
368,192,3036,6,0,P|428:223|456:286,2,140,8|0|0,0:0|0:0|0:0,0:0:0:0:
216,192,3475,1,12,0:0:0:0:
256,32,3767,5,4,0:0:0:0:
168,192,4060,1,0,0:0:0:0:
336,192,4206,1,8,0:0:0:0:
168,192,4353,1,0,0:0:0:0:
336,192,4499,1,8,0:0:0:0:
464,32,4642,6,0,P|472:112|496:184,2,140,0|0|8,0:0|0:0|0:0,0:0:0:0:
256,32,5081,1,0,0:0:0:0:
64,31,5227,6,0,P|69:101|0:216,2,140,0|0|8,0:0|0:0|0:0,0:0:0:0:
48,168,5666,1,0,0:0:0:0:
160,192,5812,6,0,P|224:248|280:240,1,140
216,96,6105,2,0,P|320:120|336:144,1,140,8|0,0:0|0:0,0:0:0:0:
160,192,6398,5,0,0:0:0:0:
216,96,6544,1,0,0:0:0:0:
336,144,6690,1,8,0:0:0:0:
272,248,6837,1,0,0:0:0:0:
216,96,6983,6,0,L|64:16,1,140
336,144,7276,2,0,L|480:216,1,140,8|0,0:0|0:0,0:0:0:0:
160,192,7568,2,0,L|8:112,1,140
280,240,7861,2,0,L|424:312,1,140,8|0,0:0|0:0,0:0:0:0:
336,144,8154,5,0,0:0:0:0:
160,192,8300,1,0,0:0:0:0:
336,144,8446,1,8,0:0:0:0:
160,40,8593,1,0,0:0:0:0:
336,144,8739,1,0,0:0:0:0:
272,328,8885,1,0,0:0:0:0:
336,144,9032,1,8,0:0:0:0:
456,320,9178,1,0,0:0:0:0:
336,144,9324,6,0,L|336:288,1,140
160,192,9617,2,0,L|160:40,1,140,8|0,0:0|0:0,0:0:0:0:
336,144,9910,2,0,L|488:144,1,140
160,192,10202,2,0,L|8:192,1,140,8|0,0:0|0:0,0:0:0:0:
160,192,10495,5,0,0:0:0:0:
256,48,10641,1,0,0:0:0:0:
360,192,10788,1,8,0:0:0:0:
264,312,10934,1,0,0:0:0:0:
160,192,11081,1,0,0:0:0:0:
256,48,11227,1,0,0:0:0:0:
360,192,11374,1,8,0:0:0:0:
264,312,11520,1,0,0:0:0:0:
264,48,11666,6,0,B|200:200|200:200|272:336,1,280,4|0,0:0|0:0,0:0:0:0:
360,192,12105,2,0,B|240:120|240:120|112:200,1,280,4|0,0:0|0:0,0:0:0:0:
264,312,12544,1,4,0:0:0:0:
256,192,12837,5,0,0:0:0:0:
128,80,12983,1,0,0:0:0:0:
384,80,13129,1,8,0:0:0:0:
256,192,13276,1,0,0:0:0:0:
384,288,13422,1,0,0:0:0:0:
256,192,13568,1,0,0:0:0:0:
128,288,13715,1,8,0:0:0:0:
256,192,13861,1,0,0:0:0:0:
256,192,14007,5,4,0:0:0:0:
192,32,15178,6,0,L|16:32,2,140,0|0|8,0:0|0:0|0:0,0:0:0:0:
256,192,15617,1,0,0:0:0:0:
324,32,15763,2,0,L|464:32,2,140,0|0|8,0:0|0:0|0:0,0:0:0:0:
256,192,16202,1,0,0:0:0:0:
208,320,16349,6,0,L|64:320,1,140
304,320,16641,2,0,L|448:320,1,140,8|0,0:0|0:0,0:0:0:0:
208,192,16934,2,0,L|68:192,1,140
304,192,17226,2,0,L|444:192,1,140,8|0,0:0|0:0,0:0:0:0:
256,144,17520,6,0,L|256:4,1,140
256,224,17812,2,0,L|256:364,1,140,8|0,0:0|0:0,0:0:0:0:
208,160,18105,2,0,L|68:160,1,140
304,160,18397,2,0,L|444:160,1,140,8|0,0:0|0:0,0:0:0:0:
112,160,18690,5,0,0:0:0:0:
400,160,18837,1,0,0:0:0:0:
112,160,18983,1,8,0:0:0:0:
400,160,19129,1,0,0:0:0:0:
256,80,19276,1,0,0:0:0:0:
256,256,19422,1,0,0:0:0:0:
256,80,19568,1,8,0:0:0:0:
256,256,19715,1,0,0:0:0:0:
192,192,19861,5,0,0:0:0:0:
256,240,20007,1,0,0:0:0:0:
320,192,20154,1,8,0:0:0:0:
256,144,20300,1,0,0:0:0:0:
112,192,20446,5,0,0:0:0:0:
256,304,20593,1,0,0:0:0:0:
400,192,20739,1,8,0:0:0:0:
256,64,20885,1,0,0:0:0:0:
32,192,21032,5,0,0:0:0:0:
256,368,21178,1,0,0:0:0:0:
480,192,21324,1,8,0:0:0:0:
256,16,21471,1,0,0:0:0:0:
16,16,21617,5,0,0:0:0:0:
16,352,21763,1,0,0:0:0:0:
496,352,21910,1,8,0:0:0:0:
496,16,22056,1,0,0:0:0:0:
256,16,22202,6,0,L|256:304,1,280,4|0,0:0|0:0,0:0:0:0:
256,16,22641,2,0,L|256:304,1,280,4|0,0:0|0:0,0:0:0:0:
256,296,23081,1,4,0:0:0:0:
16,192,23373,5,0,0:0:0:0:
144,192,23520,1,8,0:0:0:0:
144,192,23593,1,0,0:0:0:0:
144,192,23666,1,0,0:0:0:0:
256,192,23812,1,0,0:0:0:0:
384,192,23959,2,0,L|384:48,3,140,2|2|2|2,0:0|0:0|0:0|0:0,0:0:0:0:
256,192,24544,6,0,P|256:256|384:320,2,210,4|8|0,0:0|0:0|0:0,0:0:0:0:
128,192,25715,1,0,0:0:0:0:
32,192,25861,2,0,P|32:128|96:64,1,140
176,64,26300,1,12,0:0:0:0:
32,192,26593,1,0,0:0:0:0:
272,192,26885,6,0,B|384:224|384:224|480:176,2,210,0|4|8,0:0|0:0|0:0,0:0:0:0:
32,192,28056,1,0,0:0:0:0:
160,192,28349,1,8,0:0:0:0:
256,16,28641,5,8,0:0:0:0:
256,128,28788,1,12,0:0:0:0:
256,240,28934,1,12,0:0:0:0:
256,352,29081,1,12,0:0:0:0:
32,192,29227,6,0,L|32:96,2,70,0|0|8,0:0|0:0|0:0,0:0:0:0:
160,80,29666,1,0,0:0:0:0:
256,192,29812,2,0,L|256:336,2,140,0|0|8,0:0|0:0|0:0,0:0:0:0:
368,80,30251,1,0,0:0:0:0:
416,192,30398,6,0,P|480:240|480:336,1,140
256,192,30690,2,0,P|192:240|192:336,1,140,8|0,0:0|0:0,0:0:0:0:
336,144,30983,2,0,L|336:0,2,140,0|0|8,0:0|0:0|0:0,0:0:0:0:
336,4,31422,1,8,0:0:0:0:
256,192,31568,6,0,L|128:112,1,140
416,192,31861,2,0,L|512:80,1,140,8|0,0:0|0:0,0:0:0:0:
256,192,32154,2,0,L|128:320,1,140
416,192,32446,2,0,L|496:320,1,140,8|0,0:0|0:0,0:0:0:0:
256,192,32739,6,0,B|192:224|192:224|128:192|128:192|64:224|64:224|0:192,1,280,4|0,0:0|0:0,0:0:0:0:
16,32,33178,2,0,B|74:61|74:61|138:29|138:29|202:61|202:61|266:29,1,280,12|0,0:0|0:0,0:0:0:0:
256,192,33617,1,12,0:0:0:0:
352,336,33910,6,0,L|496:336,1,140
272,272,34202,2,0,L|128:272,1,140,8|0,0:0|0:0,0:0:0:0:
336,208,34495,2,0,L|480:208,1,140
272,144,34788,2,0,L|128:144,1,140,8|0,0:0|0:0,0:0:0:0:
272,48,35081,5,0,0:0:0:0:
160,16,35227,1,0,0:0:0:0:
48,64,35373,1,8,0:0:0:0:
160,144,35520,1,0,0:0:0:0:
48,192,35666,1,0,0:0:0:0:
160,272,35812,1,0,0:0:0:0:
48,336,35959,1,8,0:0:0:0:
48,192,36105,1,0,0:0:0:0:
48,64,36251,6,0,P|128:16|304:48,1,280
160,144,36690,2,0,P|256:176|464:112,1,280,4|0,0:0|0:0,0:0:0:0:
304,48,37129,1,8,0:0:0:0:
96,304,37422,5,2,0:0:0:0:
256,192,37568,1,4,0:0:0:0:
96,80,37715,1,4,0:0:0:0:
256,192,37861,1,4,0:0:0:0:
416,80,38007,1,4,0:0:0:0:
256,192,38154,1,4,0:0:0:0:
416,288,38300,1,4,0:0:0:0:
256,192,38446,1,4,0:0:0:0:
256,192,38593,5,0,0:0:0:0:
256,80,38739,1,0,0:0:0:0:
96,80,38885,1,8,0:0:0:0:
96,192,39032,1,0,0:0:0:0:
96,304,39178,1,0,0:0:0:0:
256,304,39324,1,0,0:0:0:0:
256,192,39471,1,8,0:0:0:0:
256,192,39617,1,0,0:0:0:0:
256,80,39763,5,0,0:0:0:0:
416,80,39910,1,0,0:0:0:0:
416,192,40056,1,8,0:0:0:0:
416,304,40202,1,0,0:0:0:0:
256,304,40349,1,0,0:0:0:0:
256,192,40495,1,0,0:0:0:0:
256,80,40641,1,8,0:0:0:0:
128,80,40788,1,0,0:0:0:0:
32,192,40934,6,0,P|112:224|320:192,1,280,4|0,0:0|0:0,0:0:0:0:
416,304,41373,1,0,0:0:0:0:
416,80,41520,2,0,P|320:32|160:80,1,280,4|0,0:0|0:0,0:0:0:0:
320,192,42105,6,0,L|480:192,2,140,0|0|8,0:0|0:0|0:0,0:0:0:0:
192,32,42544,2,0,L|32:32,2,140,0|0|0,0:0|0:0|0:0,0:0:0:0:
320,192,42983,1,8,0:0:0:0:
176,32,43129,1,0,0:0:0:0:
144,192,43276,6,0,P|64:192|16:144,1,140
176,32,43568,2,0,P|240:16|320:96,1,140,8|0,0:0|0:0,0:0:0:0:
320,192,43861,6,0,P|416:208|480:160,1,140
304,48,44154,2,0,P|368:16|464:64,1,140,8|0,0:0|0:0,0:0:0:0:
448,192,44446,5,0,0:0:0:0:
144,192,44593,1,0,0:0:0:0:
176,32,44739,1,8,0:0:0:0:
400,32,44885,1,0,0:0:0:0:
288,192,45032,1,0,0:0:0:0:
288,32,45178,1,0,0:0:0:0:
288,192,45324,1,8,0:0:0:0:
288,32,45471,1,0,0:0:0:0:
176,32,45617,6,0,P|112:80|128:288,1,280,2|0,0:0|0:0,0:0:0:0:
192,160,46056,2,0,P|288:176|480:144,1,280,2|0,0:0|0:0,0:0:0:0:
416,48,46495,1,8,0:0:0:0:
256,144,46934,5,4,0:0:0:0:
256,224,47081,1,4,0:0:0:0:
256,64,47227,1,4,0:0:0:0:
256,304,47373,1,4,0:0:0:0:
256,0,47520,1,4,0:0:0:0:
256,368,47666,1,4,0:0:0:0:
256,192,47812,1,4,0:0:0:0:
