osu file format v9

[General]
AudioFilename: Twilight Chronicle I Am Sisterht.mp3
AudioLeadIn: 2500
PreviewTime: 29527
Countdown: 0
SampleSet: Soft
StackLeniency: 0.7
Mode: 0
LetterboxInBreaks: 1

[Editor]
DistanceSpacing: 1
BeatDivisor: 4
GridSize: 8

[Metadata]
Title:Twilight Chronicle ~ I am Sister
Artist:Golden City Factory
Creator:Patchouli
Version:Lunatic
Source:Touhou
Tags:Frandle The Embodiment Of Scarlet Devil Mayuu U. N. Owen Was Her? Koumakyou Holoaz

[Difficulty]
HPDrainRate:6
CircleSize:4
OverallDifficulty:8
ApproachRate:8
SliderMultiplier:1.8
SliderTickRate:1

[Events]
//Background and Video events
0,0,"Lunatic-BG.jpg"
//Break Periods
2,86724,94407
2,171327,176421
//Storyboard Layer 0 (Background)
//Storyboard Layer 1 (Fail)
//Storyboard Layer 2 (Pass)
//Storyboard Layer 3 (Foreground)
//Storyboard Sound Samples
//Background Colour Transformations
3,100,163,162,255

[TimingPoints]
175,431.654676258993,4,2,1,70,1,0
2657,-200,4,2,1,70,0,0
3304,-100,4,2,1,70,0,0
13880,-100,4,1,1,60,0,0
14095,-100,4,2,1,70,0,0
17333,-100,4,1,1,60,0,0
17549,-100,4,2,1,70,0,0
19059,-100,4,2,1,50,0,0
20840,-100,4,1,1,60,0,0
21002,-100,4,2,1,70,0,0
21433,-100,4,2,1,50,0,0
21865,-100,4,2,1,70,0,0
22081,-100,4,2,1,50,0,0
22513,-100,4,1,1,60,0,0
22728,-100,4,2,1,70,0,0
24023,-100,4,2,1,50,0,0
24293,-100,4,1,1,60,0,0
24455,-100,4,2,1,70,0,0
24671,-100,4,2,1,50,0,0
25103,-100,4,2,1,70,0,0
25534,-100,4,2,1,50,0,0
26182,-100,4,2,1,70,0,0
26398,-100,4,2,1,50,0,0
26613,-100,4,2,1,70,0,0
26829,-200,4,2,1,50,0,0
27369,-200,4,2,1,70,0,0
27800,-100,4,2,1,70,0,0
29527,-100,4,1,1,50,0,1
35031,-100,4,1,1,40,0,1
35462,-200,4,1,1,40,0,1
36110,-100,4,1,1,50,0,1
41505,-200,4,1,1,60,0,1
41721,-200,4,1,1,49,0,1
41937,-200,4,1,1,40,0,1
42153,-200,4,1,1,30,0,1
42800,-200,4,1,1,40,0,1
43016,-200,4,1,1,50,0,1
43232,-200,4,1,1,60,0,1
43340,-100,4,2,1,70,0,0
45175,-100,4,2,1,60,0,0
46685,-100,4,2,1,70,0,0
47117,-100,4,2,1,60,0,0
47549,-100,4,2,1,70,0,0
48196,-100,4,2,1,60,0,0
48412,-100,4,2,1,70,0,0
50139,-100,4,1,1,41,0,0
50354,-100,4,2,1,70,0,0
50786,-100,4,2,1,60,0,0
51218,-100,4,2,1,70,0,0
51865,-100,4,2,1,60,0,0
52081,-100,4,2,1,70,0,0
52728,-100,4,2,1,60,0,0
53376,-100,4,2,1,70,0,0
54123,-100,4,2,1,60,0,0
54455,-100,4,2,1,70,0,0
54887,-100,4,2,1,60,0,0
55103,-100,4,2,1,70,0,0
56182,-100,4,2,1,60,0,0
56398,-100,4,2,1,70,0,0
56613,-100,4,2,1,60,0,0
56829,-100,4,2,1,70,0,0
57167,431.654676258993,4,2,1,70,1,0
57477,-100,4,2,1,60,0,0
57692,-100,4,2,1,70,0,0
58340,-100,4,2,1,60,0,0
58556,-100,4,2,1,70,0,0
59203,-100,4,2,1,60,0,0
59635,-100,4,2,1,70,0,0
60067,-100,4,2,1,60,0,0
60498,-100,4,2,1,70,0,0
60930,-100,4,2,1,60,0,0
61146,-100,4,2,1,70,0,0
61793,-100,4,2,1,60,0,0
62009,-100,4,2,1,70,0,0
62657,-100,4,2,1,60,0,0
62872,-100,4,2,1,70,0,0
63088,-200,4,2,1,70,0,0
63520,-200,4,2,1,60,0,0
63736,-100,4,2,1,60,0,0
63951,-100,4,2,1,70,0,0
64383,-100,4,2,1,60,0,0
64599,-100,4,2,1,70,0,0
65246,-100,4,2,1,60,0,0
65462,-100,4,2,1,70,0,0
66326,-100,4,2,1,60,0,0
66541,-100,4,2,1,70,0,0
66973,-100,4,2,1,60,0,0
67189,-100,4,2,1,70,0,0
67836,-100,4,2,1,60,0,0
68052,-100,4,2,1,70,0,0
68700,-100,4,2,1,60,0,0
68916,-100,4,2,1,70,0,0
69131,-100,4,2,1,60,0,0
69347,-100,4,2,1,70,0,0
69563,-100,4,2,1,60,0,0
69779,-100,4,2,1,70,0,0
69995,-200,4,2,1,60,0,0
70642,-100,4,2,1,70,0,0
71721,-100,4,2,1,50,0,0
72369,-100,4,2,1,70,0,0
72706,-100,4,1,1,50,0,1
78196,-100,4,1,1,40,0,1
78628,-100,4,1,1,30,0,1
79059,-100,4,1,1,50,0,1
86524,431.654676258993,5,2,1,70,1,0
96541,-100,5,2,1,50,0,0
96973,-100,5,2,1,70,0,0
98700,-100,5,2,1,50,0,0
99077,-100,5,2,1,70,0,0
100858,-100,5,2,1,50,0,0
101290,-100,5,2,1,70,0,0
103016,-100,5,2,1,50,0,0
103448,-100,5,2,1,70,0,0
103880,-100,5,2,1,50,0,0
104311,-100,5,2,1,70,0,0
105390,-100,5,2,1,50,0,0
105606,-100,5,2,1,70,0,0
106038,-100,5,2,1,50,0,0
106469,-100,5,2,1,70,0,0
107333,-100,5,2,1,50,0,0
107764,-100,5,2,1,70,0,0
108196,-100,5,2,1,50,0,0
108628,-100,5,2,1,70,0,0
109491,-100,5,2,1,50,0,0
109923,-100,5,2,1,70,0,0
110354,-100,5,2,1,50,0,0
110786,-100,5,2,1,70,0,0
111649,-100,5,2,1,50,0,0
112027,-100,5,2,1,70,0,0
112728,-100,5,2,1,50,0,0
112944,-100,5,2,1,70,0,0
113808,-100,5,2,1,51,0,0
114239,-100,5,2,1,70,0,0
114671,-100,5,2,1,50,0,0
115103,-100,5,2,1,70,0,0
115966,-100,5,2,1,50,0,0
116398,-100,5,2,1,70,0,0
117045,-100,5,2,1,50,0,0
117261,-100,5,2,1,70,0,0
118124,-100,5,2,1,50,0,0
118556,-100,5,2,1,70,0,0
118987,-100,5,2,1,50,0,0
119419,-100,5,2,1,70,0,0
120282,-100,5,2,1,50,0,0
120714,-100,5,2,1,70,0,0
121056,431.654676258993,4,2,1,50,1,0
122674,-200,4,2,1,50,0,0
126019,-200,4,2,1,30,0,0
126450,-200,4,2,1,50,0,0
126882,-200,4,2,1,30,0,0
127314,-200,4,2,1,50,0,0
127853,-200,4,2,1,30,0,0
128069,-200,4,2,1,40,0,0
128285,-200,4,2,1,50,0,0
128501,-200,4,2,1,60,0,0
128717,-200,4,2,1,70,0,0
129364,-200,4,2,1,50,0,0
129580,-200,4,2,1,50,0,0
131415,-200,4,2,1,40,0,0
132494,-200,4,2,1,50,0,0
133357,-200,4,2,1,60,0,0
133789,-200,4,2,1,50,0,0
134220,-200,4,2,1,40,0,0
134760,-200,4,2,1,40,0,0
135192,-200,4,2,1,30,0,0
135515,-200,4,2,1,40,0,0
135839,-100,4,2,1,40,0,0
136055,-100,4,2,1,50,0,0
136271,-100,4,2,1,60,0,0
136486,-100,4,1,1,50,0,0
136594,-100,4,1,1,50,0,1
142098,-100,4,1,1,40,0,1
142530,-100,4,1,1,30,0,1
142961,-100,4,1,1,40,0,1
143177,-100,4,1,1,50,0,1
155911,-100,4,1,1,40,0,1
156343,-100,4,1,1,30,0,1
156774,-100,4,1,1,40,0,1
156990,-100,4,1,1,50,0,1
163249,-100,4,2,1,70,0,1
163465,-100,4,2,1,60,0,1
163681,-100,4,2,1,50,0,1
163897,-100,4,2,1,40,0,1
164220,-100,4,2,1,70,0,0
165407,-100,4,2,1,60,0,0
165839,-100,4,2,1,70,0,0
166918,-100,4,2,1,60,0,0
167141,-100,4,2,1,70,0,0
167350,-100,4,2,1,60,0,0
167566,-100,4,2,1,70,0,0
167997,-100,4,2,1,60,0,0
168213,-100,4,2,1,70,0,0
168861,-100,4,2,1,60,0,0
169292,-100,4,2,1,70,0,0
177062,-100,4,1,1,20,0,0
177278,-100,4,1,1,30,0,0
177494,-100,4,1,1,40,0,0
177709,-100,4,1,1,60,0,0
178033,-100,4,1,1,60,0,1
183537,-100,4,1,1,50,0,1
183968,-100,4,2,1,71,0,1
184400,-100,4,2,1,50,0,1
184616,-100,4,2,1,60,0,1
184832,-100,4,1,1,60,0,1
190012,-200,4,1,1,60,0,1
191091,-100,4,2,1,70,0,1
191738,-100,4,1,1,60,0,1
197350,-100,4,1,1,50,0,1
197781,-100,4,2,1,79,0,1
198213,-100,4,2,1,70,0,1
198429,-100,4,2,1,60,0,1
198645,-200,4,1,1,60,0,1
199292,-100,4,1,1,60,0,1
205551,-100,4,2,1,50,0,1
207386,-100,4,2,1,70,0,0
209868,-200,4,2,1,70,0,0
210515,-100,4,2,1,70,0,0
234904,-100,4,2,1,21,0,0

[Colours]
Combo1 : 255,128,0
Combo2 : 53,255,104
Combo3 : 62,255,255
Combo4 : 255,255,45
Combo5 : 255,0,0

[HitObjects]
96,120,175,2,0,B|136:88|192:104,1,90,2|0
152,184,606,1,0
64,200,822,1,0
240,168,1038,2,0,B|344:144,1,90,2|0
327,147,1362,1,0
327,147,1469,1,0
240,168,1685,1,0
304,232,1901,5,2
176,104,2117,1,0
216,248,2333,2,0,B|208:304|160:328,1,90
264,88,2764,2,0,B|272:32|320:8,1,90,2|2
328,200,3628,6,0,B|352:248|408:248,1,90,2|0
408,160,4059,1,0
328,200,4275,1,2
264,264,4491,2,0,B|216:304|152:280,1,90
200,200,4923,2,0,B|144:192|136:136,1,90,2|0
224,112,5354,1,2
304,144,5570,6,0,B|344:160,2,45
160,248,6002,2,0,B|112:272,2,45
336,288,6433,2,0,B|392:312,2,45
296,272,6757,1,0
256,256,6865,1,0
208,184,7081,6,0,B|208:88,1,90,2|0
128,200,7513,2,0,B|128:304,2,90,0|0|2
88,120,8160,1,0
128,104,8268,1,0
168,120,8376,2,0,B|208:152|272:128,1,90
432,120,8808,6,0,B|336:88,1,90,2|0
256,64,9239,1,0
376,200,9455,1,0
232,312,9671,2,0,B|136:344|56:256,1,180,2|2
232,192,10534,6,0,B|256:240|312:248,2,90,2|0|0
176,120,11182,1,2
232,192,11398,1,0
184,272,11613,2,0,B|152:320|88:320,2,90,0|2|0
272,272,12261,1,2
360,272,12477,6,0,B|424:272,2,45
200,192,12908,1,0
152,192,13016,1,0
104,192,13124,1,0
264,112,13340,1,0
312,112,13448,1,0
360,112,13556,1,2
88,112,13772,1,2
168,160,13987,5,0
224,280,14419,1,0
344,224,14851,1,2
288,104,15282,1,0
120,48,15714,6,0,B|232:48,1,90
360,144,16146,2,0,B|232:144,1,90,2|2
120,240,16577,2,0,B|240:240,1,90
360,336,17009,2,0,B|248:336,1,90,2|0
184,312,17441,6,0,B|144:288|136:232,1,90
224,240,17872,2,0,B|272:240,2,45,2|2|2
40,240,18304,1,0
72,152,18520,2,0,B|120:184|176:152,1,90,0|2
120,80,18951,1,0
40,48,19167,5,8
208,104,19599,1,8
304,256,20031,2,0,B|224:176|328:72,1,180,8|8
306,95,20570,1,8
306,95,20678,1,8
306,95,20786,1,0
306,95,20894,5,0
384,136,21110,1,0
312,184,21326,2,0,B|312:272,1,90,2|8
136,280,21973,2,0,B|136:184,2,90,0|8|8
136,280,22621,5,0
80,160,22836,1,0
208,192,23052,2,0,B|264:208|312:176,1,90,2|0
184,112,23484,2,0,B|168:64|120:56,2,90,0|8|2
248,280,24131,5,8
280,312,24239,1,8
320,336,24347,2,0,B|368:360|416:336,1,90
368,72,24779,1,8
368,72,24995,1,8
320,248,25210,2,0,B|368:272|416:248,1,90,2|0
368,72,25642,1,8
368,72,25858,1,8
320,152,26074,6,0,B|368:176|416:152,1,90,8|0
192,152,26505,2,0,B|144:128|96:152,1,90,8|0
256,208,26937,2,0,B|208:264|304:288|248:344,1,135,8|4
208,96,28664,5,0
304,96,28880,1,0
256,16,29095,1,0
160,176,29311,1,0
360,176,29527,2,0,B|328:280|216:312,1,180,0|8
328,288,30174,2,0,B|376:344|432:336,1,90,0|0
256,232,30822,2,0,B|168:160|80:232,1,180,8|0
176,304,31469,5,0
176,304,31577,1,0
176,304,31685,1,8
176,184,31901,1,8
176,64,32117,1,0
176,184,32333,1,0
296,184,32549,2,0,B|424:184,1,90,8|0
344,104,32980,5,0
386,184,33196,1,0
376,272,33412,2,0,B|360:328|296:336,1,90,8|0
136,336,33844,2,0,B|256:336,1,90,8|0
226,336,34167,1,8
226,336,34275,1,8
448,336,34491,1,8
336,192,34707,6,0,B|272:96,1,90,2|0
144,192,35139,2,0,B|264:192,1,90,2|0
472,112,35570,2,0,B|360:112,1,90,2|0
256,240,36433,6,0,B|256:336,1,90,4|0
256,144,36865,2,0,B|256:48,2,90,8|0|0
80,104,37728,2,0,B|104:224|240:192,1,180,2|0
176,112,38376,5,0
176,112,38484,1,0
176,112,38592,1,8
112,232,38808,1,8
216,320,39023,2,0,B|328:376|376:264,1,180,2|2
256,200,39671,1,8
312,128,39887,6,0,B|408:128,1,90
360,208,40318,1,8
320,288,40534,1,0
232,288,40750,2,0,B|232:232|288:208,1,90,8|0
275,214,41074,1,8
275,214,41182,1,8
408,288,41398,1,8
192,216,41613,2,2,B|144:248|152:304,2,90
224,336,42692,5,0
312,320,42908,1,8
384,264,43124,1,8
408,176,43340,1,4
408,176,43556,1,0
328,136,43772,2,2,B|280:120,1,45
296,208,44095,2,2,B|224:208,1,45
176,160,44419,1,0
240,96,44635,2,0,B|184:48|104:72|88:144,1,180,2|0
152,248,45282,5,2
256,336,45498,1,2
360,248,45714,1,2
432,136,45930,6,0,B|384:112|328:144,1,90,8|0
176,160,46362,2,0,B|224:184|280:152,1,90,8|0
296,72,46793,1,2
296,72,46901,1,2
296,72,47009,1,2
384,72,47225,1,8
336,152,47441,2,0,B|280:176|232:128,2,90,8|2|2
392,224,48088,2,0,B|432:192|496:224,1,90,0|8
440,296,48520,5,2
296,344,48736,1,2
288,192,48951,1,0
160,112,49167,1,2
32,200,49383,5,2
184,232,49599,1,2
264,104,49815,1,0
408,48,50031,1,2
408,200,50246,6,0,B|384:312|256:312,1,180,4|0
216,248,50894,2,0,B|120:248,1,90,8|8
168,328,51326,1,2
160,152,51541,1,2
320,232,51757,1,2
240,192,51973,6,0,B|240:80|360:200|360:80,2,180,8|0|12
240,192,53268,1,12
192,264,53484,1,2
192,264,53592,1,2
192,264,53700,6,0,B|144:240|144:176,1,90,2|0
72,144,54131,2,8,B|104:96|168:112,1,90
72,144,54563,1,2
40,224,54779,1,0
72,312,54995,1,8
160,344,55210,1,2
160,256,55426,5,2
248,256,55642,1,0
296,256,55750,1,0
344,256,55858,1,2
312,168,56074,2,0,B|296:120|240:104,1,90,2|8
216,192,56505,2,0,B|168:232|104:200,2,90,2|0|2
392,64,57167,5,4
392,64,57598,1,8
392,240,58030,2,0,B|392:144,1,90
392,64,58461,1,8
392,152,58677,1,0
320,208,58893,6,0,B|288:248|240:256,1,90,2|0
152,256,59325,2,0,B|56:256,1,90,8|8
152,256,59756,5,2
320,296,59972,1,8
360,128,60188,1,8
360,128,60296,1,0
360,128,60404,1,8
192,88,60620,6,0,B|160:48|96:64,1,90,2|2
128,152,61051,1,8
192,88,61267,1,0
280,72,61483,1,2
248,160,61699,2,0,B|176:240,2,90,2|8|2
296,232,62346,5,2
80,72,62778,1,8
296,232,63210,2,0,B|344:264|400:224,1,90,0|8
381,235,63749,1,8
381,235,63857,1,8
336,160,64073,5,4
384,88,64289,2,0,B|480:88,2,90,0|8|0
256,136,64936,1,2
128,192,65152,2,0,B|32:192,2,90,0|8|0
256,248,65800,5,0
176,112,66015,1,2
336,112,66231,1,2
256,248,66447,1,8
256,88,66663,1,2
256,120,66771,1,2
256,152,66879,1,2
256,248,67095,1,8
96,240,67526,6,0,B|120:192|176:184,1,90,6|2
184,272,67958,1,8
112,328,68174,2,0,B|64:344,2,45,0|0|2
280,264,68605,1,2
280,264,68821,2,0,B|384:232,1,90,8|0
448,208,69253,5,8
328,64,69469,1,0
336,248,69684,1,8
440,96,69900,1,0
264,160,70116,2,0,B|224:192|168:168,1,90,8|8
48,40,70979,6,0,B|120:96,1,90,2|2
192,144,71411,1,0
192,144,71519,1,0
192,144,71627,1,0
128,208,71843,1,8
128,208,71951,2,0,B|216:264|280:176,1,135,8|8
320,136,72490,1,0
400,88,72706,6,0,B|400:192,1,90,2|0
400,88,73138,1,8
480,128,73354,1,0
400,176,73569,2,0,B|400:264,1,90,0|0
336,328,74001,1,8
256,288,74217,1,0
176,240,74433,6,0,B|256:168|336:240,1,180,2|8
176,240,75080,1,10
88,240,75296,2,0,B|48:216|56:160,2,90,0|0|10
256,184,76159,6,0,B|320:88,1,90
360,184,76591,1,8
256,40,76807,1,0
152,184,77023,2,0,B|104:208|64:184,1,90,0|8
65,185,77346,1,0
65,185,77454,1,8
104,104,77670,1,0
160,272,77886,6,0,B|200:304|272:288,1,90,2|0
328,256,78318,1,2
416,280,78533,1,0
480,344,78749,1,2
384,192,78965,5,0
480,40,79181,1,8
480,40,79289,1,8
480,40,79397,1,8
408,88,79613,6,0,B|352:104|312:64,1,90,2|0
296,160,80044,2,0,B|248:144|232:88,1,90,8|0
235,98,80476,1,0
160,144,80692,2,0,B|136:96|168:40,2,90,0|8|0
200,224,81339,6,0,B|280:280|376:224,1,180,2|8
369,227,81987,1,8
400,144,82202,1,2
336,312,82634,1,10
160,320,83066,6,0,B|128:272|168:216,1,90
160,56,83497,2,0,B|192:104|152:160,1,90,8|0
88,192,83929,1,0
224,192,84145,1,8
272,192,84253,1,0
320,192,84361,1,8
272,64,84577,1,0
256,192,84792,12,4,86524
336,136,95157,6,0,B|392:120|424:80|424:24,2,135,2|0|0
280,208,96020,1,2
280,208,96236,2,0,B|320:264|384:272,1,90,0|2
416,328,96667,1,8
376,200,96883,1,8
296,312,97099,1,0
176,272,97315,6,0,B|32:272,2,135,2|0|0
224,200,98178,1,2
224,200,98394,1,0
144,168,98610,1,2
168,80,98826,1,8
88,48,99041,2,0,B|48:32,2,45,8|0|0
256,112,99473,6,0,B|320:152|368:128|408:104,2,135,2|0|0
176,160,100336,2,0,B|64:112,1,90,2|0
216,248,100768,2,0,B|320:296,1,90,2|8
297,285,101092,1,8
297,285,101200,1,8
368,344,101416,1,0
384,256,101631,6,0,B|416:216|336:176|400:128,2,135,2|0|0
304,208,102495,2,0,B|208:208,1,90,2|0
160,280,102926,1,2
136,192,103142,2,0,B|112:144|48:144,2,90,8|8|0
272,312,103790,5,2
360,312,104006,2,0,B|360:256|296:224,1,90,8|8
224,240,104437,2,0,B|224:184|280:160,1,90,0|2
264,16,104869,1,0
344,64,105085,2,0,B|264:144|176:56,1,180,2|8
96,48,105732,5,0
96,48,105840,1,0
96,48,105948,1,2
56,128,106164,2,0,B|152:208,1,90,8|8
48,240,106595,1,0
136,280,106811,1,2
125,185,107027,1,0
192,120,107243,2,0,B|232:88|232:32,1,90,2|8
231,42,107567,1,0
231,42,107675,1,8
312,304,108106,6,0,B|352:328|400:320,1,90,2|8
200,304,108538,2,0,B|160:328|112:320,2,90,8|0|2
256,232,109185,1,0
328,184,109401,2,0,B|376:160|424:184,1,90,2|8
376,256,109833,1,8
280,104,110049,1,0
168,240,110265,6,0,B|168:184|216:160,2,90,2|8|8
160,104,110912,1,0
272,176,111128,1,2
224,304,111344,1,0
96,256,111559,2,0,B|0:256,1,90,2|8
64,136,111991,1,8
64,104,112099,1,0
64,72,112207,1,0
144,168,112423,6,0,B|192:272|312:232,1,180,6|8
291,237,113070,1,0
248,168,113286,2,0,B|248:112|312:88,1,90,2|0
344,168,113718,5,2
208,56,113934,1,8
344,168,114149,1,8
344,352,114365,1,0
288,280,114581,6,0,B|336:256|392:280,1,90,2|8
448,328,115013,1,8
375,273,115229,1,0
432,208,115444,1,2
456,120,115660,2,0,B|448:64|400:48,1,90,0|2
368,136,116092,1,8
368,136,116308,1,8
264,280,116739,6,0,B|192:352|80:304,1,180,2|8
264,280,117387,1,0
112,184,117603,2,0,B|128:240|192:256,1,90,2|0
120,96,118034,2,0,B|96:48|48:40,2,90,2|8|8
192,152,118682,1,0
256,216,118898,6,0,B|304:256|352:240,2,90,2|8|8
328,160,119545,1,2
328,160,119653,1,2
360,80,119869,1,2
360,80,119977,1,2
416,152,120193,1,2
376,232,120408,1,8
376,232,120624,2,0,B|360:288|312:304,1,90,8|0
256,192,121056,12,0,122350
120,120,122782,6,0,B|160:160|216:136,1,90,2|0
256,88,123430,1,0
288,152,123645,2,0,B|296:208|256:232,1,90,2|0
192,256,124293,2,0,B|216:312|280:296,1,90,2|0
262,299,124940,1,0
408,304,125372,5,2
408,304,125804,1,2
384,160,126235,2,0,B|352:120|288:136,1,90,0|2
168,176,127099,2,0,B|208:216|264:200,1,90,0|2
152,96,127962,5,2
72,136,128178,1,2
72,224,128394,1,2
152,264,128609,1,2
232,224,128825,2,0,B|144:176,1,90,2|2
152,180,129473,1,2
272,104,129689,6,0,B|320:80|376:104,1,90,2|0
328,240,130552,2,0,B|296:280|240:272,1,90,2|0
248,272,131199,1,2
104,264,131631,2,0,B|64:216,1,45
136,192,132063,1,0
80,152,132279,2,0,B|48:112|80:64,1,90,2|2
224,72,133142,5,0
256,224,133573,1,2
304,96,134005,1,0
328,176,134437,1,2
384,120,134868,2,0,B|400:120,16,11.25,2|0|0|0|0|0|0|0|2|0|0|0|0|0|0|0|2
296,136,135948,5,0
216,168,136163,2,0,B|168:184|112:152,1,90
296,224,136595,6,0,B|400:192,1,90,4|0
368,288,137027,2,0,B|320:336|240:328|208:256,2,180,8|0|8
328,208,138106,1,0
328,120,138322,6,0,B|344:64|392:48,1,90,0|0
248,168,138753,1,8
408,120,138969,1,8
232,80,139185,2,0,B|176:88|160:152,2,90,0|0|8
240,264,140048,5,0
240,264,140264,1,0
312,320,140480,2,0,B|352:352|408:328,1,90,8|0
424,248,140912,1,0
480,320,141127,1,0
480,320,141235,1,0
480,320,141343,1,8
352,192,141559,1,8
464,48,141775,5,2
288,96,141991,1,0
256,272,142207,1,2
88,216,142422,1,0
136,40,142638,5,10
104,120,142854,1,8
176,176,143070,1,8
168,264,143286,1,8
96,312,143502,6,0,B|152:368|240:360|256:256,1,180,4|8
248,208,144149,1,0
312,272,144365,1,0
216,120,144581,2,0,B|192:72|136:56,1,90,0|8
312,136,145012,2,0,B|360:168|408:144,1,90
397,148,145660,5,8
224,192,145876,2,0,B|96:192,1,90
296,272,146307,2,0,B|416:272,2,90,0|8|0
216,320,146955,6,0,B|160:352|120:312,1,90,2|0
168,240,147386,2,0,B|168:128,1,90,8|8
168,240,147818,1,2
128,80,148034,1,0
168,64,148142,1,0
208,80,148250,1,8
168,152,148466,1,8
256,192,148681,12,4,149976
256,144,150408,5,4
256,56,150840,1,8
256,328,151271,1,4
256,240,151703,1,8
192,176,151919,5,0
272,136,152135,2,0,B|336:128|368:168,1,90,2|0
408,312,152566,2,0,B|376:272|400:224,1,90,8|2
456,168,152998,1,2
408,104,153214,2,0,B|304:104,2,90,0|8|0
168,48,153861,6,0,B|288:48,1,90,2|0
96,120,154293,1,8
184,136,154509,2,0,B|224:176|208:224,1,90,2|2
120,208,154940,2,0,B|72:224,2,45,0|0|8
288,144,155372,1,8
368,304,155588,6,0,B|272:304,1,90,2|0
144,80,156020,2,0,B|240:80,1,90,2|0
256,192,156451,1,10
256,192,156667,1,8
200,264,156883,2,8,B|176:304|112:304,1,90
312,120,157314,6,0,B|336:80|400:80,2,90,6|0|8
392,160,157962,1,0
232,72,158178,1,0
232,256,158394,1,0
312,208,158609,1,8
232,160,158825,1,0
144,176,159041,6,2,B|64:232|96:344,1,180,2|0
144,176,159689,1,2
152,264,159904,2,0,B|80:272|32:208|56:144,1,180,2|2
120,88,160552,1,0
208,96,160768,6,0,B|336:96,2,90,0|0|8
248,16,161415,1,0
248,152,161631,1,0
184,216,161847,1,8
184,216,161955,1,8
184,216,162063,1,8
272,248,162279,1,8
312,224,162386,1,0
336,184,162494,2,0,B|352:128|416:88|480:96,1,180,2|2
304,56,163358,5,2
216,80,163573,1,2
128,104,163789,1,2
40,128,164005,1,2
104,192,164221,6,0,B|144:296|272:240,1,180,2|0
200,176,164868,1,2
264,344,165084,1,2
384,208,165300,1,0
296,176,165516,2,0,B|344:96,1,90,8|0
312,264,165948,6,0,B|384:328|488:280,2,180,2|2|2
320,176,167027,2,0,B|232:120,1,90,8|2
160,168,167458,1,8
160,256,167674,2,0,B|176:304|256:312,1,90,2|2
240,216,168106,5,8
56,216,168538,1,2
240,216,168969,1,8
240,216,169185,1,8
168,272,169401,6,0,B|128:320|72:312,1,90,2|0
240,120,169832,2,0,B|240:64|296:32,1,90,2|0
320,272,170264,2,2,B|368:296,1,45
152,176,170588,2,2,B|80:144,1,45
328,168,170912,1,0
328,168,171020,1,0
328,168,171127,1,6
192,192,177171,5,0
320,192,177386,1,0
192,192,177602,1,0
320,192,177818,1,0
256,280,178034,6,0,B|296:312|352:296,1,90,2|0
440,336,178466,1,8
424,232,178681,1,0
340,298,178897,1,0
340,298,179005,1,0
340,298,179113,1,0
288,200,179329,2,0,B|256:168|200:168,1,90,8|0
48,136,179761,6,0,B|96:40|232:64,1,180,2|0
198,59,180408,1,2
184,272,180624,2,0,B|264:336|360:288,1,180,2|0
272,216,181271,5,0
232,184,181379,1,0
184,168,181487,2,0,B|88:168,1,90,2|0
240,96,181919,2,0,B|344:96,2,90,2|0|2
80,64,182566,2,8,B|64:16,2,45
128,216,182998,1,8
184,368,183214,6,0,B|224:272,1,90,2|0
328,16,183645,2,0,B|288:112,1,90,2|0
256,192,184077,5,2
296,272,184293,1,2
376,232,184509,1,2
336,152,184725,1,2
232,112,184940,6,0,B|128:112|88:216,1,180,2|8
200,200,185588,2,0,B|224:240|272:248,1,90,2|2
112,104,186020,2,0,B|88:64|32:56,1,90,0|8
112,104,186451,1,0
88,208,186667,5,2
136,304,186883,1,0
232,256,187099,1,8
232,256,187314,1,8
336,264,187530,2,0,B|344:184|288:136|216:152,1,180,2|2
304,72,188178,5,0
344,72,188286,1,0
384,72,188394,2,0,B|432:72|472:112,1,90,2|0
368,152,188825,2,0,B|264:152,1,90,2|0
344,232,189257,1,2
280,152,189473,1,8
240,136,189581,1,8
200,128,189689,5,8
288,80,189904,1,8
96,176,190120,2,0,B|152:264|256:232,1,180,6|0
296,336,191199,5,2
352,240,191415,1,2
408,336,191631,1,2
456,240,191847,6,0,B|448:128|328:120,1,180,2|8
184,72,192494,2,0,B|208:120|264:128,1,90,0|2
296,24,192926,1,0
343,121,193142,1,8
288,216,193358,1,0
192,264,193573,6,8,B|88:312|24:224,1,180,2|0
128,184,194221,1,2
80,88,194437,2,0,B|40:72,2,45,8|8|8
288,152,194868,1,2
360,72,195084,5,0
312,48,195192,1,0
256,48,195300,2,0,B|208:56|184:104,1,90,2|0
288,152,195732,1,2
384,200,195948,2,0,B|432:224|488:184,1,90,0|2
328,272,196379,1,8
288,256,196487,1,8
256,232,196595,1,8
256,344,196811,1,8
176,144,197027,6,0,B|112:48,1,90,2|0
336,144,197458,2,0,B|400:48,1,90,2|0
256,88,197890,5,2
472,192,198106,1,2
256,296,198322,1,2
40,192,198538,1,2
256,88,198753,6,0,B|256:192,1,90,2|8
192,264,199401,1,0
296,304,199617,2,0,B|344:328|392:288,1,90
336,224,200048,1,8
336,224,200264,1,8
336,40,200480,6,0,B|336:224,1,180,2|8
232,248,201127,1,2
224,144,201343,2,0,B|192:104|128:112,1,90,2|0
144,216,201775,1,8
224,144,201991,1,0
328,104,202207,6,0,B|416:104,1,90,2|0
184,280,202638,2,0,B|96:280,1,90,2|0
256,192,203070,1,2
184,104,203286,2,0,B|120:104,2,45,8|8|8
328,280,203717,1,8
256,192,203933,12,4,205228
112,56,205660,5,2
112,128,205876,1,2
184,120,206091,2,2,B|272:160,1,90
216,208,206523,1,2
168,264,206739,1,2
200,280,206847,1,2
240,280,206955,1,2
288,224,207171,1,2
264,152,207386,6,0,B|344:88|440:144,1,180,2|0
432,139,208034,1,0
384,216,208250,1,2
456,272,208466,1,0
424,304,208573,1,0
392,328,208681,2,0,B|344:352|280:312,1,90
216,304,209113,6,0,B|216:200,1,90,2|0
296,128,209545,2,0,B|296:224,1,90
216,128,209976,2,0,B|216:32,1,90,2|2
120,240,210840,6,0,B|176:328,1,90,2|0
80,320,211271,1,0
120,240,211487,2,0,B|216:240,1,90,2|0
168,160,211919,1,0
120,80,212135,2,0,B|56:184,1,90,2|0
32,240,212566,1,2
192,320,212782,6,0,B|168:360,2,45,2|2|2
264,152,213214,1,2
296,120,213322,1,0
336,104,213430,1,2
344,192,213645,1,2
376,224,213753,1,0
416,240,213861,2,0,B|472:248,2,45,2|0|2
288,280,214293,6,0,B|240:296|192:272,1,90,2|0
128,224,214725,1,0
56,176,214940,1,0
136,136,215156,1,2
80,304,215372,2,0,B|56:344,2,45
208,176,215804,1,0
208,88,216020,6,0,B|200:40|152:16,1,90,2|0
304,88,216451,2,0,B|312:40|360:16,1,90
256,168,216883,2,0,B|160:208|360:248|248:312,1,180,2|2
96,224,217746,6,0,B|120:272|176:272,1,90,2|0
167,271,218178,1,0
176,184,218394,2,0,B|192:136|248:120,1,90,2|0
264,208,218825,1,0
96,152,219041,5,2
240,48,219257,1,0
408,104,219473,1,2
416,240,219689,5,2
392,280,219797,1,0
352,304,219904,1,2
216,320,220120,2,0,B|192:360,2,45,2|0|2
264,192,220552,1,2
288,152,220660,1,0
288,104,220768,2,0,B|288:56|240:32,1,90,2|2
368,88,221199,6,0,B|416:128|464:112,1,90,2|0
184,128,221631,2,0,B|136:160|80:144,1,90
184,128,222063,1,2
120,64,222279,2,0,B|120:16,2,45
112,248,222710,1,0
64,168,222926,6,0,B|112:144|160:176,1,90,2|0
448,216,223358,2,0,B|400:240|352:208,1,90
256,72,223789,1,2
256,312,224221,1,2
120,192,224653,6,0,B|160:224|224:208,1,90,2|0
288,176,225084,1,0
368,216,225300,2,0,B|336:256|288:256,1,90,2|0
368,304,225732,1,0
368,216,225948,1,2
440,168,226163,2,0,B|480:128|456:80,1,90,0|2
280,72,226595,6,0,B|336:32,2,45,2|0|2
120,152,227027,2,0,B|72:120,2,45,2|0|2
232,296,227458,2,0,B|232:352,2,45,2|0|2
232,208,227890,1,2
200,120,228106,6,0,B|136:48,1,90,2|0
296,136,228538,2,0,B|360:208,1,90,0|0
344,296,228969,1,2
424,248,229185,1,0
424,248,229293,1,0
424,248,229401,2,0,B|456:192|416:144,1,90
368,40,229832,5,2
312,168,230048,1,0
184,120,230264,1,0
96,224,230480,1,0
192,320,230696,2,0,B|240:344|288:320,2,90,2|0|2
192,320,231559,5,2
216,232,231775,1,0
160,160,231991,2,0,B|208:128|264:152,1,90,0|2
304,216,232422,1,0
304,216,232638,1,0
352,288,232854,1,2
352,288,233070,1,0
440,304,233286,1,2
416,216,233502,5,2
392,176,233609,1,0
352,152,233717,1,2
312,72,233933,1,2
264,80,234041,1,0
232,112,234149,1,2
144,120,234365,1,2
144,168,234473,1,0
168,208,234581,1,2
256,192,234797,1,0
256,192,235012,5,4
