osu file format v9

[General]
AudioFilename: Twilight Chronicle I Am Sisterht.mp3
AudioLeadIn: 2500
PreviewTime: 29527
Countdown: 0
SampleSet: Soft
StackLeniency: 0.7
Mode: 0
LetterboxInBreaks: 1

[Editor]
DistanceSpacing: 1.2
BeatDivisor: 4
GridSize: 8

[Metadata]
Title:Twilight Chronicle ~ I am Sister
Artist:Golden City Factory
Creator:Patchouli
Version:Holo
Source:Touhou
Tags:Frandle The Embodiment Of Scarlet Devil Mayuu U. N. Owen Was Her? Koumakyou Holoaz

[Difficulty]
HPDrainRate:5
CircleSize:4
OverallDifficulty:5
ApproachRate:6
SliderMultiplier:1.2
SliderTickRate:1

[Events]
//Background and Video events
0,0,"Holo-BG.jpg"
//Break Periods
2,43540,56117
2,86724,94107
2,112623,121732
2,164421,176121
//Storyboard Layer 0 (Background)
//Storyboard Layer 1 (Fail)
//Storyboard Layer 2 (Pass)
//Storyboard Layer 3 (Foreground)
//Storyboard Sound Samples
//Background Colour Transformations
3,100,163,162,255

[TimingPoints]
175,431.654676258993,4,2,1,70,1,0
28543,-100,4,2,1,46,0,0
28759,-100,4,2,1,52,0,0
28974,-100,4,2,1,58,0,0
29190,-100,4,2,1,64,0,0
29406,-100,4,2,1,70,0,0
29527,-100,4,2,1,70,0,1
41492,-200,4,2,1,70,0,0
42572,-100,4,2,1,70,0,1
43340,-100,4,2,1,70,0,0
43341,-100,4,2,1,70,0,1
43342,-100,4,2,1,70,0,0
57167,431.654676258993,4,2,1,70,1,0
72692,-100,4,2,1,70,0,1
86505,-100,4,2,1,70,0,0
86506,-100,4,2,1,70,0,1
86524,431.654676258993,5,2,1,70,1,0
121056,431.654676258993,4,2,1,70,1,0
122674,-200,4,2,1,70,0,0
135809,-100,4,2,1,70,0,0
136595,-100,4,2,1,70,0,1
149976,-100,4,2,1,70,0,0
150408,-100,4,2,1,70,0,1
164221,-100,4,2,1,70,0,0
164222,-100,4,2,1,70,0,1
164223,-100,4,2,1,70,0,0
177032,-100,4,2,1,46,0,0
177248,-100,4,2,1,52,0,0
177464,-100,4,2,1,58,0,0
177679,-100,4,2,1,64,0,0
177895,-100,4,2,1,70,0,0
178034,-100,4,2,1,70,0,1
191415,-100,4,2,1,70,0,0
191847,-100,4,2,1,70,0,1
205426,-100,4,2,1,70,0,0

[Colours]
Combo1 : 255,128,0
Combo2 : 53,255,104
Combo3 : 62,255,255
Combo4 : 255,255,45
Combo5 : 255,0,0

[HitObjects]
112,112,175,2,0,B|160:96|208:88|248:88,1,120,2|0
304,88,822,1,0
368,120,1038,2,0,B|408:176|416:232,1,120,2|0
296,312,1901,6,0,B|240:312|216:296,1,60,2|0
264,240,2333,2,0,B|224:216|216:200,1,60,2|0
280,168,2764,2,0,B|272:120|288:72|312:48,1,120,2|0
160,56,3628,6,0,B|112:80|80:112|64:144,1,120,2|0
120,184,4275,1,0
64,232,4491,2,0,B|88:280|128:312|168:320,1,120,2|0
296,304,5354,6,0,B|352:264,1,60,2|0
296,216,5786,2,0,B|240:176,1,60,2|0
296,128,6218,1,2
296,56,6433,2,0,B|296:16,4,30,0|0|2|0|2
368,40,7081,6,0,B|376:80|400:120|432:160,1,120,2|0
464,208,7728,1,0
424,272,7944,2,0,B|368:312|296:320,1,120,2|0
240,192,8808,5,2
192,136,9023,1,0
136,88,9239,2,0,B|104:64|64:56,1,60,2|0
80,136,9671,2,0,B|56:168|56:216|64:256,1,120,2|0
200,304,10534,6,0,B|232:288|272:288,1,60,2|0
328,288,10966,1,0
328,144,11398,2,0,B|296:160|256:160,1,60,2|0
200,160,11829,1,0
80,88,12261,5,2
144,56,12477,2,0,B|176:24,2,30,0|0|2
208,88,12908,2,0,B|232:112,2,30,0|0|2
272,56,13340,2,0,B|312:56,4,30,0|0|2|0|2
272,128,13987,5,4
376,232,14419,1,2
272,336,14851,1,0
168,232,15282,1,2
312,192,15714,6,0,B|360:144,1,60,0|0
232,192,16146,2,0,B|184:144,1,60,2|0
232,272,16577,2,0,B|184:320,1,60
312,272,17009,2,0,B|360:320,1,60,2|0
424,312,17441,6,0,B|456:272|464:216|464:184,1,120,0|2
400,72,18304,2,0,B|344:48|256:48,1,120,0|2
168,128,19167,2,0,B|128:152|112:176,1,60,0|0
112,240,19599,2,0,B|136:280|160:296,1,60,2|0
224,288,20031,2,0,B|256:288|344:280|360:272,1,120,0|2
408,152,20894,5,4
344,112,21110,2,0,B|312:88|272:88,1,60,0|2
152,120,21757,1,0
216,160,21973,2,0,B|248:184|288:184,1,60,0|2
392,264,22621,6,0,B|448:224,2,60,0|0|2
320,272,23268,1,0
248,280,23484,2,0,B|208:248|176:320|120:272,1,120,0|2
104,144,24347,5,0
128,72,24563,2,0,B|168:96|184:128,1,60,0|2
192,184,24995,1,0
256,216,25210,1,0
288,280,25426,2,0,B|328:248|336:216,1,60,0|2
328,160,25858,1,0
384,104,26074,2,0,B|360:80|304:80|288:88|256:112|264:120,2,120,0|2|2
88,296,28664,6,0,B|160:288,1,60,2|0
136,216,29095,2,0,B|192:192,1,60,2|0
152,128,29527,2,0,B|192:88|272:64,1,120,4|2
400,80,30390,2,0,B|360:120|280:144,1,120,8|2
256,280,31254,6,0,B|216:304|176:304,2,60,4|0|2
328,304,31901,1,0
400,296,32117,2,0,B|432:280|472:224|480:192,1,120,8|2
384,96,32980,6,0,B|312:56,1,60,4|0
304,136,33412,2,0,B|232:96,1,60,2|0
176,104,33844,1,8
104,104,34059,2,0,B|104:48,4,30,0|0|2|0|0
104,176,34707,6,0,B|160:216,1,60,4|0
104,264,35139,2,0,B|160:304,1,60,2|0
224,272,35570,2,0,B|256:272|344:272,1,120,8|2
224,192,36433,6,0,B|368:192,1,120,4|2
416,192,37081,1,0
416,120,37297,2,0,B|288:120,1,120,8|2
168,56,38160,6,0,B|136:80|120:112,1,60,4|0
192,136,38592,2,0,B|168:168|160:208,1,60,2|0
232,208,39023,2,0,B|224:248|232:304|264:336,1,120,8|2
336,208,39887,6,0,B|416:208,3,60,4|0|2|0
448,160,40750,1,8
400,104,40966,2,0,B|400:64,2,30,0|0|2
352,160,41398,1,0
304,104,41613,6,0,B|272:72|248:144|184:104,1,120,4|8
184,256,42908,1,2
328,256,43340,1,4
136,104,57167,5,4
184,160,57382,2,0,B|208:184|248:200,1,60,0|2
448,168,58030,1,0
408,232,58246,2,0,B|368:264|328:264,1,60,0|2
224,328,58893,6,0,B|176:312|152:296,1,60
208,248,59325,2,0,B|160:224|136:216,1,60,2|2
88,192,59756,1,0
40,136,59972,1,0
88,80,60188,1,2
232,80,60620,6,0,B|272:64|296:48,2,60,4|0|2
440,120,61483,1,0
416,192,61699,2,0,B|336:192,1,60,0|2
224,128,62346,6,0,B|224:64,1,60,2|0
160,192,62778,2,0,B|88:192,1,60,2|0
224,248,63210,2,0,B|224:320,1,60,2|0
224,192,63641,2,0,B|272:192,2,30,2|0|2
136,192,64073,6,0,B|96:208|64:224,1,60,4|0
32,272,64505,1,2
32,272,64720,1,0
80,328,64936,2,0,B|112:352|144:352,2,60,0|2|2
184,232,65800,5,2
256,248,66015,2,0,B|296:248|320:232,1,60,0|2
376,192,66447,1,0
424,136,66663,2,0,B|440:112|440:64,1,60,2|0
376,40,67095,2,0,B|344:24,2,30,2|0|2
328,96,67526,5,4
264,128,67742,2,0,B|192:128,2,60,0|2|0
264,200,68390,1,2
200,232,68605,2,0,B|128:232,2,60,0|2|0
256,272,69253,5,2
376,192,69684,1,2
256,112,70116,1,2
136,192,70548,1,2
224,304,70979,6,0,B|288:304,1,60,2|0
256,240,71411,2,0,B|256:192,2,30,2|0|2
328,240,71843,2,0,B|392:240,1,60,2|0
360,176,72274,2,0,B|360:144,2,30,2|0|2
432,176,72706,6,0,B|432:56,1,120,4|2
288,56,73569,2,0,B|232:16|224:80|160:48,1,120,0|2
128,192,74433,2,0,B|152:224|192:248,1,60,0|0
243,233,74864,2,0,B|307:233,1,60,2|0
376,240,75296,2,0,B|416:264|440:288|472:336,1,120,0|2
320,320,76159,6,0,B|280:296|248:296,1,60,4|0
192,297,76591,2,0,B|152:304|128:336,2,60,2|0|0
230,235,77238,2,0,B|230:187,4,30,0|0|2|0|0
160,240,77886,6,0,B|120:224|88:192,1,60,0|0
56,160,78318,2,0,B|104:128|128:120,1,60,2|0
176,104,78749,2,0,B|216:120|240:144,1,60
272,192,79181,2,0,B|328:192,2,30,2|0|2
272,264,79613,6,0,B|248:280|176:296|144:296,1,120,4|2
296,328,80476,2,0,B|320:312|392:296|424:296,1,120,0|2
448,160,81339,6,0,B|400:128|368:128,1,60,0|0
336,176,81771,1,2
272,136,81987,2,0,B|224:136|192:120,1,60
176,64,82418,1,0
128,120,82634,2,0,B|80:128,2,30,2|0|0
168,184,83066,6,0,B|200:216|232:224,1,60,4|0
176,280,83497,2,0,B|224:296|256:296,1,60,2|0
296,256,83929,2,0,B|352:240|384:216|400:184,1,120,0|2
256,144,84792,6,0,B|256:80,1,60,2|0
304,192,85224,2,0,B|368:192,1,60,2|0
256,240,85656,2,0,B|256:304,1,60,2|0
208,192,86087,2,0,B|144:192,1,60,2|0
256,192,86524,1,4
160,88,95157,6,0,B|144:128|104:176,2,90,4|2|2
232,64,96020,2,0,B|280:48|312:56,1,60,0|2
360,64,96452,2,0,B|408:64|464:56,2,90,4|2|2
328,128,97315,6,0,B|296:160|264:176,1,60,4|2
320,224,97747,2,0,B|272:240|240:240,1,60,0|2
192,240,98178,1,0
192,240,98394,1,2
120,256,98610,2,0,B|80:280|32:328,2,90,4|2|2
136,184,99473,5,4
184,128,99689,2,0,B|216:112|256:112,1,60,2|0
312,112,100121,1,0
272,176,100336,2,0,B|296:192|312:224,1,60,2|2
360,280,100768,2,0,B|400:304|464:312,2,90,4|2|2
336,208,101631,6,0,B|368:192|400:160,1,60,4|0
424,112,102063,1,2
352,112,102279,2,0,B|320:136|272:144,1,60,0|2
224,136,102711,1,2
152,136,102926,2,0,B|48:136,2,90,4|2|2
152,208,103790,1,4
256,312,104221,5,2
312,264,104437,2,0,B|352:240|384:168,1,120,2|2
312,144,105085,1,0
256,96,105300,2,0,B|184:80|112:80,1,120,2|2
144,152,105948,6,0,B|128:192|80:232,2,90,4|2|2
216,176,106811,1,0
264,232,107027,1,2
256,304,107243,2,0,B|304:336|376:336,1,120,2|2
440,336,107890,1,0
400,280,108106,6,0,B|368:256|344:224,1,60,4|2
312,184,108538,2,0,B|288:152|264:128,1,60,0|2
224,88,108970,1,0
224,232,109401,2,0,B|200:264|144:288,2,90,2|2|0
240,160,110265,1,4
128,72,110696,6,0,B|176:56|208:48,1,60,2|0
256,72,111128,2,0,B|296:72|328:56,1,60,2|0
384,56,111559,1,2
456,80,111775,1,2
400,128,111991,1,2
256,192,112423,5,4
128,112,122782,6,0,B|192:88|256:88,1,120,2|0
368,88,124077,1,2
416,120,124293,2,0,B|448:168|456:240|456:240,1,120,2|0
424,280,125372,2,0,B|392:280|360:272,1,60,2|0
256,216,126235,2,0,B|224:216|192:232,1,60,2|0
112,312,127099,2,0,B|88:288|80:256,1,60,2|0
64,144,127962,2,0,B|96:104|168:80,1,120,2|2
280,104,129257,1,2
400,80,129689,6,0,B|368:120|360:192,1,120,2|0
416,296,130984,2,0,B|384:272|360:272,1,60,2|0
320,320,131631,2,0,B|288:304|264:304,1,60,2|0
208,328,132279,2,0,B|144:320|88:280,1,120,2|2
48,176,133573,1,2
112,72,134005,1,2
176,176,134437,1,2
296,176,134868,6,0,B|320:176,8,15,2|0|0|0|2|0|0|0|2
184,264,136163,6,0,B|240:296|312:296,1,120,2|4
440,256,137027,2,0,B|384:224|312:224,1,120,2|8
400,104,137890,6,0,B|376:80|320:72,1,60,2|0
280,104,138322,1,4
216,144,138538,2,0,B|176:136|144:136,1,60,0|2
104,192,138969,2,0,B|56:192|24:184,2,60,0|8|0
176,208,139617,2,0,B|216:240|232:272,1,60,2|0
256,312,140048,6,0,B|320:288|392:288,1,120,4|2
440,256,140696,1,0
376,216,140912,1,8
304,200,141127,2,0,B|304:144,4,30,0|0|2|0|0
232,208,141775,2,0,B|192:224|160:248,1,60,4|0
128,288,142207,2,0,B|80:264|48:264,1,60,2|0
56,192,142638,2,0,B|112:168|168:104,1,120,8|2
384,96,143502,6,0,B|344:80|304:80,1,60,4|0
328,152,143933,2,0,B|320:184|320:240,1,60,2|0
384,248,144365,2,0,B|344:288|296:296|264:296,1,120,8|2
136,320,145228,2,0,B|104:296|104:256,1,60,4|0
168,232,145660,1,2
104,200,145876,2,0,B|56:200|32:208,2,60,0|8|0
160,160,146523,2,0,B|184:128|224:112,1,60,2|0
264,160,146955,6,0,B|272:208|296:248|336:272,1,120,4|2
392,280,147602,2,0,B|416:296|440:320,2,60,0|8|0
376,208,148250,1,2
256,192,148681,12,2,149976
104,304,150408,6,0,B|160:304|248:280,1,120,4|2
280,248,151056,1,0
320,192,151271,2,0,B|376:152|432:144,1,120,8|2
312,56,152135,2,0,B|264:72|240:72,1,60,4|0
192,32,152566,2,0,B|152:40|120:64,1,60,2|0
96,112,152998,2,0,B|128:176|128:240,1,120,8|2
344,272,153861,6,0,B|328:304|280:320,2,60,4|0|2
400,224,154509,1,0
424,152,154725,1,8
416,80,154940,2,0,B|448:48,4,30,0|0|2|0|0
360,120,155588,2,0,B|320:112|296:120,1,60,4|0
256,176,156020,2,0,B|224:168|176:168,1,60,2|0
200,240,156451,2,0,B|152:264|80:256,1,120,8|2
256,72,157314,6,0,B|304:112|392:120,1,120,4|2
440,240,158178,2,0,B|400:296|336:320,1,120,8|2
248,216,159041,2,0,B|184:192|112:184,2,120,4|2|8
352,120,160336,1,2
160,96,160768,6,0,B|200:128|216:160,1,60,4|0
240,200,161199,1,2
304,240,161415,2,0,B|344:256|376:256,1,60,0|8
432,240,161847,2,0,B|456:280,2,30,0|0|2
488,192,162279,1,0
256,192,162494,12,4,164221
296,112,177171,5,2
232,152,177386,1,2
296,192,177602,1,2
232,232,177818,1,2
296,272,178034,6,0,B|360:304|432:312,1,120,4|2
472,272,178681,1,0
408,232,178897,2,0,B|408:200|440:136|456:120,1,120,8|2
448,48,179545,1,0
392,88,179761,2,0,B|352:112|312:112,1,60,4|0
296,48,180192,2,0,B|256:72|224:72,1,60,2|0
224,144,180624,2,0,B|248:168|256:216,2,60,8|0|2
112,320,181487,6,0,B|152:288|232:280,1,120,4|2
280,240,182135,2,0,B|312:224|344:192,1,60,0|8
400,208,182566,2,0,B|424:248,4,30,0|0|2|0|0
448,152,183214,2,0,B|456:120|456:80,1,60,4|0
400,40,183645,2,0,B|352:24|320:24,1,60,2|0
336,96,184077,5,8
264,80,184293,1,0
208,128,184509,1,2
136,120,184725,1,0
160,192,184940,6,0,B|152:248|112:320,1,120,4|2
48,320,185588,1,0
48,248,185804,2,0,B|104:240|192:256,1,120,8|2
224,296,186451,1,0
288,336,186667,2,0,B|336:336|368:320,1,60,4|0
392,272,187099,2,0,B|400:224|392:192,1,60,2|0
360,152,187530,2,0,B|384:120|424:112,2,60,8|0|2
120,128,188394,6,0,B|160:112|232:112|256:112,1,120,4|2
304,88,189041,1,0
368,128,189257,1,8
440,112,189473,2,0,B|424:64,4,30,0|0|2|0|0
256,192,190120,12,2,191415
384,256,191847,6,0,B|352:280|312:280,1,60,4|0
264,248,192279,1,2
200,280,192494,1,0
136,256,192710,2,0,B|104:240|56:240,2,60,8|0|2
248,168,193573,2,0,B|296:144|336:88,1,120,4|2
392,40,194221,1,0
408,112,194437,2,0,B|424:168|440:192,1,60,8|0
432,240,194868,2,0,B|384:240,2,30,2|0|0
416,312,195300,6,0,B|376:336|280:344,1,120,4|2
304,272,195948,1,0
240,304,196163,2,0,B|200:280|184:248,1,60,8|0
248,216,196595,2,0,B|216:168|224:144,1,60,2|0
296,160,197027,2,0,B|328:152|400:120|424:96,1,120,4|2
448,56,197674,1,0
480,120,197890,5,8
464,192,198106,1,0
464,264,198322,1,2
408,304,198538,1,0
344,272,198753,6,0,B|288:248|208:232,1,120,4|2
176,280,199401,1,0
112,312,199617,2,0,B|80:280|64:208|64:184,1,120,8|2
112,144,200264,1,0
176,168,200480,2,0,B|208:184|240:184,1,60,4|0
264,120,200912,2,0,B|304:104|328:72,1,60,2|0
384,104,201343,2,0,B|416:144|448:144,2,60,8|0|2
272,192,202207,6,0,B|232:224|192:224,1,60,4|0
160,184,202638,1,2
152,256,202854,2,0,B|160:296|200:328,1,60,0|8
248,304,203286,2,0,B|272:328,2,30,0|0|2
312,264,203717,1,0
256,192,203933,12,2,205228
152,104,205660,5,2
216,72,205876,1,2
288,64,206091,1,2
344,112,206307,2,0,B|376:144|416:160,1,60,2|0
440,200,206739,2,0,B|480:192,2,30,2|0|2
400,264,207171,1,2
328,272,207386,6,0,B|280:256|200:256,1,120,2|0
136,272,208034,1,0
72,240,208250,2,0,B|96:200|96:168,1,60,2|0
72,112,208681,2,0,B|96:72|120:56,1,60,0|0
144,128,209113,2,0,B|192:152|272:152,1,120,2|0
328,120,209761,1,0
376,176,209976,2,0,B|400:216|400:248,2,60,2|0|0
168,256,210840,6,0,B|208:232|240:232,1,60,2|0
256,296,211271,2,0,B|296:280|328:280,1,60,0|0
384,272,211703,1,2
456,288,211919,2,0,B|480:240|480:160,1,120
440,112,212566,1,2
368,88,212782,1,0
368,88,212890,1,0
368,88,212998,1,2
304,120,213214,2,0,B|280:152,2,30,0|0|2
232,104,213645,2,0,B|176:104,4,30,0|0|2|0|2
192,168,214293,5,2
176,240,214509,2,0,B|136:272|96:272,2,60
248,216,215156,1,2
312,256,215372,2,0,B|344:280|376:288|440:288,1,120
472,232,216020,1,2
408,192,216235,2,0,B|408:144|424:120,1,60
448,64,216667,1,0
376,72,216883,2,0,B|328:56|248:64,1,120,2|0
200,272,217746,6,0,B|248:256|272:256,1,60,2|0
328,280,218178,2,0,B|368:272|400:256,1,60
408,192,218609,1,2
360,136,218825,2,0,B|384:96,2,30
288,144,219257,2,0,B|248:160|208:160,1,60,0|2
160,152,219689,2,0,B|120:136,2,30,0|0|2
152,224,220120,1,0
152,224,220228,1,0
152,224,220336,1,2
104,280,220552,2,0,B|72:328,4,30,0|0|2|0|2
168,320,221199,6,0,B|240:304|296:304,1,120,2|0
360,288,221847,1,0
424,320,222063,1,2
416,248,222279,2,0,B|456:208|472:144,1,120
416,96,222926,1,2
360,144,223142,1,0
328,80,223358,2,0,B|272:64|208:64,2,120
80,224,224653,6,0,B|48:256|40:296,2,60,2|0|0
144,256,225300,1,0
216,248,225516,1,2
272,288,225732,2,0,B|304:304|336:312|392:304,1,120
440,248,226379,1,2
448,176,226595,1,0
448,176,226703,1,0
448,176,226811,1,2
376,160,227027,1,0
376,160,227135,1,0
376,160,227243,1,2
320,120,227458,2,0,B|296:80,4,30,0|0|2|0|2
304,192,228106,6,0,B|264:232|208:248|176:248,1,120,2|0
136,208,228753,1,0
72,248,228969,2,0,B|32:224|24:200,1,60,2|0
48,136,229401,2,0,B|64:112|64:64,1,60
120,32,229832,1,2
168,88,230048,2,0,B|208:128|288:136,1,120
344,160,230696,2,0,B|384:192|392:224,2,60,2|0|0
120,264,231559,6,0,B|168:288|200:288|256:280,1,120,2|0
304,256,232207,1,0
368,288,232422,2,0,B|392:256|400:168,1,120,2|0
360,112,233070,2,0,B|320:120|288:112,1,60,0|2
232,136,233502,1,0
232,136,233609,1,0
232,136,233717,1,2
200,208,233933,1,0
200,208,234041,1,0
200,208,234149,1,2
256,280,234365,1,0
256,280,234473,1,0
256,280,234581,1,2
256,280,234689,1,0
256,280,234797,1,2
272,192,235012,5,0
