osu file format v9

[General]
AudioFilename: Twilight Chronicle I Am Sisterht.mp3
AudioLeadIn: 2500
PreviewTime: 29527
Countdown: 0
SampleSet: Soft
StackLeniency: 0.7
Mode: 0
LetterboxInBreaks: 1

[Editor]
Bookmarks: 13987,57153,64059
DistanceSpacing: 1
BeatDivisor: 4
GridSize: 8

[Metadata]
Title:Twilight Chronicle ~ I am Sister
Artist:Golden City Factory
Creator:Patchouli
Version:Easy
Source:Touhou
Tags:Frandle The Embodiment Of Scarlet Devil Mayuu U. N. Owen Was Her? Koumakyou Holoaz

[Difficulty]
HPDrainRate:3
CircleSize:3
OverallDifficulty:3
ApproachRate:3
SliderMultiplier:0.999999999999999
SliderTickRate:1

[Events]
//Background and Video events
0,0,"Normal-BG.jpg"
//Break Periods
2,86724,93696
2,162694,175710
//Storyboard Layer 0 (Background)
//Storyboard Layer 1 (Fail)
//Storyboard Layer 2 (Pass)
//Storyboard Layer 3 (Foreground)
//Storyboard Sound Samples
//Background Colour Transformations
3,100,163,162,255

[TimingPoints]
175,431.654676258993,4,2,0,40,1,0
13987,-100,4,2,0,50,0,0
29527,-100,4,1,0,50,0,1
43340,-100,4,2,0,50,0,0
57167,431.654676258993,4,2,0,50,1,0
72706,-100,4,1,0,50,0,1
84671,-100,4,1,0,30,0,1
85103,-100,4,1,0,35,0,1
85534,-100,4,1,0,40,0,1
85966,-100,4,1,0,45,0,1
86524,431.654676258993,5,1,0,50,1,0
95049,-100,5,1,0,40,0,0
120948,-100,5,2,0,30,0,0
121056,431.654676258993,4,2,0,30,1,0
122675,-100,4,2,0,40,0,0
136629,-100,4,1,0,50,0,1
164255,-100,4,1,0,70,0,0
177063,-100,4,2,0,70,0,0
178068,-100,4,1,0,50,0,1
205552,-100,4,2,0,50,0,1
207421,-100,4,2,0,50,0,0
234939,-100,4,1,0,10,0,0

[Colours]
Combo1 : 255,128,0
Combo2 : 53,255,104
Combo3 : 62,255,255
Combo4 : 255,255,45
Combo5 : 255,0,0

[HitObjects]
80,168,175,2,0,B|112:112|176:104,1,99.9999999999999,2|0
248,152,1038,1,2
336,104,1469,1,0
376,200,1901,2,0,B|336:312|208:288,1,200,2|2
128,336,3196,1,2
136,232,3628,6,0,B|136:120,2,99.9999999999999,2|0|2
232,192,4923,1,0
328,152,5354,1,2
336,200,5570,2,0,B|328:256|280:280,3,99.9999999999999,2|2|2|2
240,312,7081,6,0,B|208:208|72:224,1,200,2|2
80,120,8376,1,0
168,168,8808,2,0,B|264:104,1,99.9999999999999,2|0
304,192,9671,1,2
304,192,10103,1,0
216,256,10534,6,0,B|296:344|416:288,1,200,2|2
344,208,11829,1,0
344,104,12261,1,2
304,136,12477,2,0,B|224:208|104:128,1,200,0|2
64,280,13987,5,2
64,280,14419,1,0
136,200,14851,1,2
136,200,15282,1,0
192,280,15714,2,0,B|232:336|296:320,1,99.9999999999999,2|0
280,224,16577,2,0,B|304:176|368:168,1,99.9999999999999,2|2
376,264,17441,5,2
464,312,17872,1,0
464,208,18304,2,0,B|432:160|376:160,1,99.9999999999999,2|0
376,264,19167,2,0,B|272:264,1,99.9999999999999,2|0
216,344,20031,2,0,B|104:320|120:184,1,200
200,136,21326,6,0,B|256:32,1,99.9999999999999,0|2
304,128,22189,1,0
304,128,22621,1,2
384,192,23052,2,0,B|432:232|488:208,2,99.9999999999999,0|2|2
312,264,24347,6,0,B|248:352|120:304,1,200,2|2
80,224,25642,1,0
184,224,26074,5,2
256,152,26505,1,0
328,224,26937,1,2
256,120,28664,6,0,B|312:80,4,50,0|0|0|0|4
168,168,29959,1,8
88,224,30390,2,0,B|128:272|192:264,1,99.9999999999999,2|8
264,224,31254,2,0,B|320:304|376:160|440:240,1,200,2|2
496,160,32549,1,8
392,152,32980,6,0,B|352:112|296:120,1,99.9999999999999,2|8
216,168,33844,1,2
216,168,34275,1,8
128,216,34707,2,0,B|168:272|216:264,2,99.9999999999999,2|8|2
280,88,36433,6,0,B|184:88|208:184|96:184,1,200,4|2
176,264,37728,1,8
272,280,38160,2,0,B|336:272|368:224,1,99.9999999999999,2|8
288,168,39023,2,0,B|328:128|392:136,1,99.9999999999999,2|8
312,64,39887,6,0,B|192:72|144:176,1,200,2|2
208,240,41182,1,8
112,264,41613,2,0,B|48:264|24:200,2,99.9999999999999,2|2|2
192,328,42908,1,8
280,288,43340,6,0,B|384:328|448:264|456:224,1,200,4|0
424,136,44635,1,0
352,208,45067,2,0,B|280:168|280:88|328:32,1,200,2|0
376,120,46362,1,0
304,192,46793,6,0,B|224:264,1,99.9999999999999,2|0
160,192,47657,2,0,B|64:224,1,99.9999999999999,2|0
80,128,48520,2,0,B|184:56|288:128,1,200,2|2
296,208,49815,1,8
336,296,50246,6,0,B|384:336|440:320,2,99.9999999999999,2|0|0
264,224,51541,1,8
240,320,51973,2,0,B|136:288,1,99.9999999999999,2|0
80,208,52836,1,8
112,112,53268,1,8
184,184,53700,6,0,B|280:248|280:112|384:176,1,200,2|2
320,256,54995,1,8
392,328,55426,2,0,B|432:288|416:232,1,99.9999999999999,2|0
352,160,56290,2,0,B|320:104|368:48,1,99.9999999999999,0|0
448,104,57167,1,4
448,200,57598,6,0,B|400:304,1,99.9999999999999,0|2
312,320,58461,1,0
328,224,58893,2,0,B|232:152|144:232,1,200,2|2
160,328,60188,1,2
224,248,60620,6,0,B|184:144,1,99.9999999999999,2|0
288,160,61483,2,0,B|352:64,1,99.9999999999999,2|0
400,160,62346,2,0,B|368:208|408:272,2,99.9999999999999,2|0|2
208,104,64073,6,0,B|96:88,1,99.9999999999999,4|0
144,184,64936,1,2
208,104,65368,1,0
312,104,65800,2,0,B|376:120|392:176,1,99.9999999999999,2|0
296,208,66663,2,0,B|224:288,1,99.9999999999999,2|2
328,296,67526,5,0
416,336,67958,1,2
328,296,68390,1,0
320,200,68821,1,2
272,112,69253,5,0
136,104,69684,1,2
192,232,70116,1,0
56,232,70548,1,0
152,336,70979,2,0,B|208:352,1,50,4|4
320,96,72059,6,0,B|320:168,3,50,0|2|2|4
408,192,73138,1,8
320,240,73569,1,2
408,288,74001,2,0,B|384:336|320:336,1,99.9999999999999,8|2
232,304,74864,2,0,B|120:304,2,99.9999999999999,8|2|8
168,224,76159,5,2
88,168,76591,1,8
176,120,77023,2,0,B|224:104|248:32,1,99.9999999999999,2|8
288,136,77886,1,2
248,224,78318,1,0
312,304,78749,2,0,B|360:344|408:320,1,99.9999999999999,2|4
376,224,79613,6,0,B|456:128|360:32,1,200,2|2
320,128,80908,1,8
264,208,81339,2,0,B|272:264|232:304,1,99.9999999999999,2|8
264,208,82202,2,0,B|208:224|168:200,1,99.9999999999999,2|8
200,104,83066,6,0,B|288:32|392:104,1,200,2|2
432,192,84361,2,0,B|376:224,1,50,8|0
344,242,84792,5,4
232,320,85224,1,4
120,240,85656,1,4
168,112,86087,1,4
304,112,86524,1,4
64,168,95157,6,0,B|112:128|184:192|264:144,1,200,0|8
352,112,96452,2,0,B|408:80,2,50,0|0|8
400,200,97315,6,0,B|376:312|240:304,1,200,0|8
160,264,98610,2,0,B|112:272,2,50,2|0|2
104,184,99473,5,0
56,96,99905,1,0
152,96,100336,1,8
200,184,100768,2,0,B|248:184,2,50
248,80,101631,6,0,B|312:56|384:128|448:80,1,200,0|8
448,184,102926,2,0,B|496:216,2,50,2|0|2
352,192,103790,6,0,B|224:168|200:304,1,200,4|8
304,280,105085,1,2
304,280,105516,1,2
400,296,105948,6,0,B|328:240|408:176|328:120,1,200,0|8
248,56,107243,2,0,B|176:56,2,50,2|0|2
192,136,108106,6,0,B|80:152|64:272,1,200,0|4
160,304,109401,1,2
160,304,109833,1,2
232,240,110265,6,0,B|320:160|424:240,1,200,0|8
320,272,111559,2,0,B|320:328,2,50,2|0|2
328,176,112423,6,0,B|408:128,4,74.9999999999999,4|0|0|8|2
232,184,114149,1,2
136,160,114581,6,0,B|56:200,4,74.9999999999999,0|0|0|8|2
192,80,116308,1,2
288,96,116739,6,0,B|416:112|400:240,1,200,0|8
320,280,118034,1,2
280,306,118250,1,0
232,330,118466,1,2
216,240,118898,6,0,B|168:136|40:160,1,200,0|8
120,232,120193,1,2
216,240,120624,1,2
240,144,121056,6,0,B|304:40,1,99.9999999999999,0|2
344,144,121919,2,0,B|336:208|288:224,1,99.9999999999999,0|2
208,168,122782,6,0,B|208:224|256:248|304:216|328:208|360:280,1,200,2|0
208,304,124293,1,2
88,328,125372,5,0
88,328,125804,1,2
56,232,126236,2,0,B|160:200,1,99.9999999999999,0|2
240,256,127099,1,0
320,192,127531,1,2
328,88,127962,2,0,B|328:32,4,50,0|0|0|2|2
416,136,129257,2,0,B|416:208,2,50,2|2|0
136,304,130552,6,0,B|216:288|240:200,1,150,0|2
48,40,132279,6,0,B|48:144,1,99.9999999999999,0|2
136,88,133142,1,0
136,88,133574,1,2
232,104,134006,1,0
312,168,134437,1,2
408,200,134869,2,0,B|392:256|328:264,1,99.9999999999999,0|2
248,304,135732,6,0,B|272:352,4,50,0|0|0|0|0
152,296,137027,1,8
72,232,137459,2,0,B|120:184|184:208,1,99.9999999999999,2|8
256,160,138322,2,0,B|288:88|400:144|432:48,1,200,2|2
328,56,139617,1,8
232,88,140049,6,0,B|200:48|128:64,1,99.9999999999999,2|8
168,160,140912,1,2
256,216,141344,2,0,B|256:272,1,50,8|0
256,320,141775,2,0,B|216:360|144:336,2,99.9999999999999,2|8|2
336,264,143070,1,12
376,176,143502,6,0,B|488:176,1,99.9999999999999,2|8
432,88,144365,2,0,B|320:88,1,99.9999999999999,2|8
280,176,145229,1,2
176,176,145660,2,0,B|120:176,2,50,8|0|2
176,176,146523,1,8
232,264,146955,6,0,B|320:336|432:288,1,200,2|2
360,208,148250,1,8
440,144,148682,2,0,B|368:56|248:104,1,200,2|4
64,72,150408,6,0,B|64:184|64:184|136:232,1,200,2|2
216,168,151703,1,8
216,272,152135,2,0,B|312:336|312:336|312:248,1,200,2|2
302,153,153430,1,8
392,112,153862,6,0,B|392:56,4,50,2|0|8|0|2
392,216,155157,1,8
392,312,155588,2,0,B|392:376,4,50,2|0|8|0|4
192,304,157315,6,0,B|56:144,1,200,2|2
120,72,158610,1,8
184,144,159041,2,0,B|264:224|384:152,1,200,2|2
288,96,160336,1,8
288,96,160768,5,2
208,160,161200,2,0,B|208:264,1,99.9999999999999,8|2
304,296,162063,2,0,B|304:192,1,99.9999999999999,8|4
64,120,177171,5,0
64,120,177387,1,0
64,120,177603,2,0,B|64:64,2,50,0|0|4
88,216,178466,1,8
152,288,178898,2,0,B|200:328|256:296,2,99.9999999999999,2|8|2
152,88,180624,1,2
152,88,181056,1,8
184,184,181488,6,0,B|232:168|272:240|336:208,1,150,2|0
304,168,182351,2,0,B|346:132|298:68|370:36,1,150,2|0
386,82,183214,1,2
432,168,183646,1,8
440,264,184077,2,0,B|488:312,4,50,2|0|8|0|4
344,240,185372,5,8
344,240,185804,1,2
352,144,186236,1,8
248,120,186667,1,2
152,152,187099,2,0,B|96:184,2,50,8|0|2
248,120,187962,1,8
224,216,188394,6,0,B|288:264|376:224,1,150,2|0
400,192,189257,1,2
304,152,189689,1,8
240,80,190121,2,0,B|152:0|56:80,1,200,2|4
168,248,191847,6,0,B|224:336,1,99.9999999999999,2|8
288,256,192711,2,0,B|400:288,2,99.9999999999999,2|8|2
208,192,194006,1,8
208,192,194221,1,0
208,192,194437,1,2
256,104,194869,1,8
344,144,195300,6,0,B|304:192|400:248|336:304,1,150,2|0
312,320,196164,2,0,B|257:370|233:274|169:338,1,150,2|0
128,312,197027,1,2
152,216,197459,1,8
88,136,197890,2,0,B|48:88,4,50,2|0|8|0|2
176,88,199185,6,0,B|272:24|368:96,1,200,8|8
376,192,200480,1,2
280,152,200912,1,8
256,248,201344,2,0,B|240:296|280:344,1,99.9999999999999,2|8
184,312,202207,6,0,B|96:248,1,99.9999999999999,2|8
120,152,203070,1,2
120,152,203502,1,8
184,72,203934,2,0,B|272:0|376:80,1,200,2|4
424,264,205660,5,2
344,328,206092,1,2
256,272,206524,2,0,B|216:232|152:240,1,99.9999999999999,2|2
224,160,207387,6,0,B|304:80|416:104,1,200,2|0
408,200,208682,1,2
344,280,209113,2,0,B|240:328|144:256,1,200,2|0
96,184,210408,1,2
152,104,210840,5,2
248,64,211272,1,0
232,160,211703,2,0,B|240:224|312:240,1,99.9999999999999,2|0
344,144,212567,2,0,B|456:184|456:272|424:312,1,200,2|0
336,312,213862,1,2
256,256,214293,6,0,B|152:256,1,99.9999999999999,2|0
104,168,215157,2,0,B|216:168,1,99.9999999999999,2|0
280,96,216020,1,2
416,240,216883,1,0
344,168,217315,1,2
296,256,217747,6,0,B|272:304|216:320,1,99.9999999999999,2|0
144,256,218610,2,0,B|96:272|48:240,1,99.9999999999999,2|0
104,160,219473,1,0
176,96,219905,1,2
176,96,220121,1,0
176,96,220336,1,2
272,88,220768,2,0,B|336:80|384:128,1,99.9999999999999,2|0
352,208,221631,6,0,B|384:256|448:256,2,99.9999999999999,0|2|0
248,208,222926,2,0,B|152:168|56:232,1,200,2|0
136,296,224221,1,2
224,344,224653,6,0,B|224:224,1,99.9999999999999,2|0
312,296,225516,2,0,B|312:184,1,99.9999999999999,2|0
224,152,226380,1,0
304,96,226811,2,0,B|304:48,2,50,2|0|2
392,152,227675,1,2
352,248,228106,6,0,B|304:304|208:304|160:248,1,200,0|2
96,328,229401,1,0
72,232,229833,2,0,B|48:168|104:128,1,99.9999999999999,2|0
184,168,230696,2,0,B|176:112|224:80,1,99.9999999999999,2|0
296,152,231559,6,0,B|392:128|392:224|480:200,1,200,2|0
408,272,232854,1,2
312,296,233286,1,0
216,264,233718,2,0,B|184:312,2,50,2|0|2
256,176,234581,1,0
256,176,235013,5,4
