osu file format v6

[General]
AudioFilename: Mooned Insect.mp3
AudioLeadIn: 0
PreviewTime: 25298
Countdown: 0
SampleSet: Soft
StackLeniency: 0.6
Mode: 0
LetterboxInBreaks: 1

[Editor]
DistanceSpacing: 1.39999997615814
BeatDivisor: 4
GridSize: 8

[Metadata]
Title:Stirring an Autumn Moon
Artist:Golden City Factory
Creator:Tonoko
Version:Remix
Source:Last Celebration
Tags:Tsukamaete Kiyoma Mooned Insect Wriggle Nightbug touhou

[Difficulty]
HPDrainRate:7
CircleSize:5
OverallDifficulty:8
SliderMultiplier:1.5
SliderTickRate:2

[Events]
//Background and Video events
0,0,"5493629.jpg"
//Break Periods
//Storyboard Layer 0 (Background)
//Storyboard Layer 1 (Fail)
//Storyboard Layer 2 (Pass)
//Storyboard Layer 3 (Foreground)
//Storyboard Sound Samples
//Background Colour Transformations
3,100,163,162,255

[TimingPoints]
142,397.350993377483,4,2,0,61,1,0
6300,-100,4,1,0,50,0,0
12658,-100,4,1,0,70,0,0
25473,-100,4,2,0,80,0,0
28651,-100,4,2,0,60,0,0
29049,-100,4,2,0,80,0,0
29446,-100,4,2,0,60,0,0
29843,-100,4,2,0,80,0,0
30837,-100,4,2,0,60,0,0
31880,-100,4,2,0,69,0,0
32625,-100,4,2,0,60,0,0
33420,-100,4,2,0,81,0,0
34214,-100,4,2,0,80,0,0
35009,-100,4,2,0,81,0,0
47724,-100,4,1,0,50,0,0
48022,-100,4,2,0,79,0,0
48122,-100,4,1,0,50,0,0
48420,-100,4,2,0,79,0,0
48519,-100,4,1,0,50,0,0
48817,-100,4,2,0,79,0,0
48916,-100,4,1,0,50,0,0
49214,-100,4,2,0,79,0,0
49363,-100,4,2,0,25,0,0
50108,-200,4,1,0,21,0,0
50406,-100,4,1,0,49,0,0
50605,-100,4,1,0,75,0,0
50804,-100,4,1,0,100,0,0
50903,-100,4,1,0,0,0,0
50953,-100,4,2,0,61,0,0
51201,-100,4,1,0,60,0,0
62824,-100,4,1,0,61,0,0
63122,-100,4,1,0,45,0,0
63320,-100,4,1,0,31,0,0
63519,-100,4,1,0,15,0,0
63618,-100,4,1,0,45,0,0
68387,-100,4,2,0,65,0,0
69976,-100,4,1,0,60,0,0
71565,-100,4,2,0,65,0,0
73155,-100,4,1,0,60,0,0
74744,-100,4,2,0,65,0,0
76334,-100,4,2,0,90,0,0
91433,-100,4,1,0,70,0,0
92228,-100,4,2,0,80,0,0
93022,-100,4,1,0,70,0,0
93817,-100,4,2,0,80,0,0
94214,-100,4,2,0,70,0,0
95406,-100,4,2,0,90,0,0
108171,-100,4,2,0,91,0,0
112890,-100,4,2,0,49,0,0
113089,-100,4,2,0,50,0,0
113287,-100,4,2,0,70,0,0
113486,-100,4,2,0,92,0,0
113685,-100,4,2,0,100,0,0
114132,-100,4,2,0,100,0,0
114231,-100,4,2,0,100,0,0

[Colours]
Combo1 : 128,128,255
Combo2 : 128,255,128
Combo3 : 0,255,255
Combo4 : 255,255,128

[HitObjects]
112,48,6499,2,0,B|48:112|112:200,1,150
400,336,7294,2,0,B|464:272|400:184,1,150
176,232,8089,6,0,C|272:232,1,75,0|0
144,232,8486,1,0
336,152,8883,2,0,C|240:152,1,75,0|0
368,152,9281,1,0
73,238,9678,6,0,B|88:312|184:328,1,150
437,145,10473,2,0,B|416:64|328:56,1,150
312,312,11267,5,0
416,344,11466,1,0
392,240,11665,1,0
200,72,12062,5,0
96,40,12261,1,0
120,144,12459,1,8
504,224,12857,6,0,B|443:209|379:233|355:225,1,150,0|8
256,192,13453,1,0
152,160,13651,2,0,B|99:174|59:158|3:158,1,150,0|8
328,64,14446,6,0,B|411:112,1,75,0|0
392,101,14843,1,8
184,320,15241,2,0,B|101:272,1,75,0|0
119,282,15638,1,8
416,88,16036,6,0,B|496:144|456:240,1,150,0|8
256,192,16632,1,0
93,294,16830,2,0,B|16:240|48:165,1,150,0|8
136,216,17426,5,0
192,304,17625,2,0,B|232:272|288:256,1,75,0|0
288,168,18022,1,8
376,232,18221,2,0,B|384:184|360:128,1,75,0|0
376,264,18618,1,0
370,157,18817,1,8
432,72,19016,1,8
472,168,19214,2,0,B|448:224|488:272|463:347,1,150,0|8
62,275,20009,5,0
160,320,20208,1,0
256,368,20406,1,8
448,120,20804,5,0
395,29,21002,1,0
304,81,21201,1,8
357,173,21400,1,0
375,103,21598,1,0
285,156,21797,1,0
337,247,21996,1,8
80,192,22393,5,0
256,16,22791,1,8
432,192,23188,1,0
256,368,23585,1,8
432,192,23983,1,0
80,192,24380,5,8
488,192,24777,1,0
24,192,25175,1,8
24,192,25373,1,0
112,136,25572,6,2,L|160:176,1,37.5
184,192,25771,2,0,L|264:248,2,75
112,264,26367,1,4
448,256,27161,6,0,L|368:280,1,75,2|0
272,272,27559,2,0,L|320:184,1,75,0|2
368,120,27956,2,0,L|312:64,1,75,4|2
208,64,28353,2,0,L|120:104,1,75,2|2
192,192,28751,5,0
192,192,28949,1,2
287,143,29148,1,0
287,143,29347,1,2
338,231,29545,1,0
338,231,29744,1,2
249,282,29943,1,0
249,282,30141,1,2
327,302,30340,5,2
368,148,30539,1,0
214,106,30738,1,2
172,261,30936,1,2
256,208,31135,12,4,31930
256,64,32327,5,8
232,168,32526,1,2
136,128,32724,2,0,L|152:224,1,75
40,208,33122,2,0,L|56:304,1,75,8|0
152,304,33519,6,0,L|328:272,1,150,4|10
256,184,34115,1,2
360,168,34314,2,0,L|384:88,1,75
472,152,34711,2,0,L|496:72,1,75,8|0
352,40,35108,5,2
256,72,35307,1,0
288,176,35506,1,0
392,176,35704,1,0
384,72,35903,2,2,L|296:56,1,75
216,112,36300,2,0,L|264:184,1,75
152,192,36698,5,2
256,184,36896,1,0
280,288,37095,1,0
176,320,37294,1,0
176,216,37492,2,0,L|288:192|256:232,2,150,2|4|2
96,72,38685,5,10
96,72,38784,1,0
96,72,38883,1,2
96,72,39082,1,0
104,176,39281,2,0,L|112:272,2,75,0|8|0
176,96,39877,6,2,C|240:64|320:80,1,150,4|8
256,192,40473,1,2
336,288,40671,2,2,C|272:320|192:304,1,150,0|8
96,272,41267,1,0
48,176,41466,5,2
136,120,41665,1,2
208,200,41863,1,8
136,272,42062,2,0,C|48:240,1,75,0|2
56,144,42459,2,0,B|112:80,1,75,0|8
200,144,42857,1,0
304,176,43055,6,2,C|240:112,1,75
304,32,43453,2,2,C|336:112,1,75,8|2
376,200,43850,2,0,B|432:136|392:48,1,150,0|8
90,288,44645,5,4
136,192,44843,1,2
147,203,44943,1,2
158,214,45042,1,8
256,176,45241,1,0
376,192,45440,1,2
365,203,45539,1,2
354,214,45638,1,2
422,288,45837,1,8
408,288,45936,1,0
392,288,46036,1,0
376,288,46135,1,0
360,288,46234,6,0,B|304:264|304:264|272:288|272:288|200:288,1,150,4|8
120,288,46830,1,2
120,272,46930,1,2
120,256,47029,1,2
24,224,47228,1,0
120,160,47426,1,8
120,175,47526,1,2
120,191,47625,1,2
176,280,47824,6,0,B|272:312,1,75,0|2
321,228,48221,6,0,B|249:204,1,75,0|2
325,130,48618,6,0,B|421:162,1,75,0|2
470,80,49016,6,0,B|398:56,1,75,0|2
256,48,49413,5,2
256,72,49612,5,2
256,96,49810,5,2
256,120,50009,5,2
256,144,50208,6,0,B|256:288,1,131.25,0|0
256,275,51002,5,4
208,72,51400,1,0
208,72,51598,1,0
120,120,51797,2,0,B|64:192|136:280,1,150,0|0
392,264,52393,5,0
392,264,52492,1,0
392,264,52592,2,0,B|448:192|376:104,1,150,0|0
304,192,53188,1,0
200,192,53387,2,0,B|160:200|120:192,1,75,2|0
125,192,53784,2,2,C|88:184|32:192,1,75
416,192,54181,5,0
325,140,54380,1,0
273,230,54579,1,0
364,282,54777,1,0
308,194,54976,5,2
217,246,55175,1,2
165,156,55373,1,0
256,104,55572,1,0
204,194,55771,5,0
152,104,55969,1,0
61,156,56168,1,0
113,246,56367,1,0
208,304,56565,5,0
224,288,56665,1,0
240,304,56764,1,0
256,288,56863,1,0
272,304,56963,1,0
288,288,57062,1,0
304,304,57161,1,0
408,304,57360,6,0,B|472:248|424:152,1,150,0|8
336,232,57956,1,0
264,304,58155,2,0,B|201:249|242:168,1,150,0|8
320,96,58751,5,0
320,96,58850,1,0
320,96,58949,2,0,B|360:168|288:200,1,112.5,0|0
256,224,59347,2,0,B|312:288,2,75,8|0|0
192,144,59943,2,0,B|136:80,2,75,0|8|0
256,64,60539,5,0
256,79,60638,1,0
256,95,60738,1,8
384,192,60936,1,0
368,192,61036,1,0
352,192,61135,1,8
256,320,61334,1,0
256,304,61433,1,0
256,288,61532,1,8
128,192,61731,1,8
143,192,61830,1,0
159,192,61930,1,8
184,264,62128,5,2
328,120,62327,1,2
328,264,62526,1,2
184,120,62724,1,2
88,80,62923,1,10
88,80,63022,1,0
88,80,63122,1,0
88,80,63221,1,0
88,80,63320,1,0
88,80,63420,1,0
88,80,63519,1,0
88,80,63718,6,0,C|176:80,1,75,0|0
216,168,64115,2,0,C|141:168,1,75,0|0
192,256,64512,2,0,C|272:256,1,75,0|0
304,288,64810,1,0
267,256,64910,2,0,B|266:176,1,75
256,80,65307,6,0,C|168:80,1,75,0|0
256,152,65704,2,0,C|331:152,1,75,0|0
312,256,66102,2,0,C|255:312,1,75,0|0
256,360,66400,1,0
258,309,66499,2,0,B|203:251,1,75
216,152,66896,6,0,B|215:226,1,75
312,256,67294,2,0,C|312:168,1,75,0|0
408,224,67691,2,0,C|408:136,1,75,0|0
408,96,67989,1,0
408,152,68089,2,0,B|312:152,1,75
232,184,68486,5,2
128,160,68685,1,0
152,56,68883,1,2
256,48,69082,1,0
264,152,69281,1,4
264,152,69380,1,0
264,152,69479,2,0,L|344:144|344:144|328:176|384:208,1,150
264,232,70075,6,0,B|312:304,1,75,0|0
384,232,70473,2,0,B|416:136,1,75
336,88,70870,2,0,B|240:56,1,75,0|0
168,104,71267,2,0,B|136:200,1,75
200,272,71665,5,2
112,328,71863,1,0
56,240,72062,1,2
144,184,72261,1,0
168,320,72459,5,2
66,297,72658,1,2
88,195,72857,1,2
190,218,73055,1,0
168,320,73254,6,0,B|229:276,1,75,0|0
248,176,73651,2,0,B|203:116,1,75
96,96,74049,2,0,B|34:139,1,75,0|0
48,232,74446,2,0,B|91:293,1,75
176,232,74843,5,2
248,160,75042,1,0
248,160,75141,1,0
248,160,75241,2,6,B|264:264,1,75,6|2
224,336,75638,2,0,B|320:328,1,75,2|0
352,240,76036,2,10,B|328:152,1,75,6|2
240,40,76433,5,0
240,40,76532,2,0,B|168:48|128:104,1,112.5,0|8
232,144,77029,1,0
232,144,77128,1,0
232,144,77228,1,2
128,160,77426,2,0,B|208:224,1,75,0|8
128,160,77824,1,2
136,312,78022,5,0
136,312,78122,2,0,B|200:320|248:248,1,112.5,0|8
136,312,78618,1,2
232,264,78817,1,0
232,264,78916,1,0
232,264,79016,2,0,C|328:264,1,75,0|10
248,176,79413,1,2
392,136,79612,5,0
392,136,79711,2,0,B|432:192|408:280,1,112.5,0|8
344,176,80208,2,0,C|264:144,1,75,2|0
264,256,80605,2,0,C|352:256,2,75,0|8|0
88,336,81201,5,2
88,336,81300,2,0,C|72:280|96:216,1,112.5,0|8
90,229,81797,1,2
192,200,81996,2,2,C|128:120,1,75,2|10
40,120,82393,2,0,B|96:192,1,75,4|8
312,168,82791,5,4
312,168,82890,2,0,B|296:104|312:48,1,112.5,0|8
392,128,83387,2,0,B|461:155,2,75,0|2|0
360,232,83983,2,0,B|264:280,1,75,8|0
160,328,84380,5,0
160,328,84479,2,0,B|176:264|160:208,1,112.5,0|8
64,248,84976,1,2
64,248,85175,1,0
160,208,85373,2,0,B|240:168,2,75,2|8|0
296,40,85969,5,2
296,40,86069,2,0,B|240:8|160:56,1,112.5,0|8
208,144,86565,2,0,B|280:104,1,75,0|2
320,200,86963,2,0,B|232:200,1,75,2|8
245,200,87360,1,0
440,216,87559,5,4
440,216,87658,2,0,B|488:256|480:320,1,112.5,0|8
392,360,88155,1,0
392,360,88254,1,0
392,360,88353,1,2
392,360,88552,1,10
344,264,88751,1,4
344,264,88949,1,8
256,208,89148,12,2,89943
256,192,90142,5,0
256,192,90241,1,0
256,192,90340,2,0,B|256:88,1,75,4|0
112,80,90738,2,2,B|208:128,1,75,10|2
400,80,91135,2,2,B|304:128,1,75,2|2
112,304,91532,2,0,B|208:256,1,75,0|0
400,304,91930,2,0,B|304:256,1,75
336,120,92327,6,0,B|336:32,1,75,10|2
176,120,92724,2,0,B|176:32,1,75,2|2
336,264,93122,2,0,B|336:352,1,75,0|0
176,264,93519,2,0,B|176:352,1,75
256,144,93916,5,8
256,248,94115,1,2
200,192,94314,1,0
312,192,94512,1,0
440,156,94711,2,0,B|470:194|440:224,1,75,8|2
72,224,95108,2,2,B|41:194|73:154,1,75,10|6
72,32,95506,5,4
72,32,95605,1,2
72,32,95704,2,0,B|120:56|128:120,1,75,2|8
32,152,96102,1,0
136,168,96300,2,0,B|152:216|216:216,1,75
232,120,96698,2,2,B|264:72|320:96,1,75,8|2
440,24,97095,5,2
440,24,97194,1,2
440,24,97294,2,0,B|392:48|384:112,1,75,0|8
480,144,97691,1,0
376,160,97890,2,2,B|360:208|296:208,1,75
280,112,98287,2,2,B|248:64|192:88,1,75,8|0
64,280,98685,6,2,B|8:304,2,37.5
144,352,99082,2,0,B|176:304|144:256,1,75,8|0
144,176,99479,2,0,B|96:216|112:256,1,75,2|2
208,264,99877,2,0,B|288:256,1,75,8|0
448,280,100274,6,2,B|504:304,2,37.5
368,352,100671,2,0,B|336:304|368:256,1,75,8|0
368,176,101069,2,0,B|416:216|400:256,1,75,2|2
304,264,101466,2,0,B|224:256,1,75,8|0
88,288,101863,6,2,L|136:256,1,37.5
160,240,102062,2,0,L|240:184,2,75
88,160,102658,1,4
88,160,102857,1,4
88,56,103055,1,4
88,56,103155,1,0
88,56,103254,1,0
168,128,103453,6,2,L|196:152,1,37.5
232,185,103651,2,0,L|290:233,2,75
176,280,104247,2,0,B|96:256,1,75,4|4
72,160,104645,2,0,B|16:136,2,37.5,4|0|0
112,64,105042,5,2
222,166,105241,1,0
182,20,105440,1,2
129,158,105638,1,2
256,72,105837,5,2
371,168,106036,1,0
223,165,106234,1,2
338,72,106433,1,2
302,219,106632,5,2
258,364,106830,1,2
219,217,107029,1,2
335,310,107228,1,2
182,301,107426,5,6
182,301,107526,1,0
182,301,107625,1,2
182,301,107724,1,0
143,264,107824,1,2
96,280,107923,1,0
96,280,108022,1,2
96,280,108122,1,0
96,280,108221,6,0,B|16:224|56:128,1,150,4|8
256,192,108817,1,2
418,89,109016,2,0,B|496:144|464:219,1,150,0|8
352,168,109612,1,2
296,80,109810,6,0,B|256:112|200:128,1,75,2|0
200,216,110208,1,10
112,152,110406,2,0,B|104:200|128:256,1,75,2|2
112,120,110804,1,2
117,226,111002,2,8,B|136:272|128:320,1,75,8|2
280,320,111400,6,0,C|200:344,1,75
384,168,111797,6,0,C|408:248,1,75,8|0
232,64,112194,6,0,C|312:40,1,75,2|0
128,216,112592,6,0,C|104:136,1,75,8|8
256,192,112989,5,2
256,192,113188,5,2
256,192,113387,5,2
256,192,113585,5,2
256,192,113784,5,2
256,192,114181,5,4
