osu file format v6

[General]
AudioFilename: Mooned Insect.mp3
AudioLeadIn: 0
PreviewTime: 25298
Countdown: 0
SampleSet: Normal
StackLeniency: 0.6
Mode: 0
LetterboxInBreaks: 1

[Editor]
DistanceSpacing: 1
BeatDivisor: 2
GridSize: 8

[Metadata]
Title:Stirring an Autumn Moon
Artist:Golden City Factory
Creator:Tonoko
Version:Normal
Source:Last Celebration
Tags:Kiyoma Tsukamaete Mooned Insect Wriggle Nightbug touhou

[Difficulty]
HPDrainRate:3
CircleSize:4
OverallDifficulty:4
SliderMultiplier:1
SliderTickRate:1

[Events]
//Background and Video events
0,0,"4752530.jpg"
//Break Periods
2,63122,67166
2,82990,87828
//Storyboard Layer 0 (Background)
//Storyboard Layer 1 (Fail)
//Storyboard Layer 2 (Pass)
//Storyboard Layer 3 (Foreground)
//Storyboard Sound Samples
//Background Colour Transformations
3,100,163,162,255

[TimingPoints]
142,397.350993377483,4,1,0,60,1,0
25373,-100,4,2,0,100,0,0
69877,-100,4,1,0,60,0,0
101665,-100,4,2,0,100,0,0

[Colours]
Combo1 : 232,176,255
Combo2 : 5,228,5
Combo3 : 179,179,253
Combo4 : 254,255,238
Combo5 : 255,200,200

[HitObjects]
64,192,12857,1,0
160,192,13254,1,0
256,192,13651,1,4
456,192,14446,5,0
360,192,14843,1,0
256,192,15241,1,4
72,120,16036,5,2
168,120,16433,2,0,B|224:120,4,50
168,224,17625,5,4
368,224,18420,1,4
168,224,19214,5,4
368,224,20009,1,4
168,224,20804,6,0,B|160:280|232:288,1,100,0|2
224,184,21598,2,0,B|224:120|288:120,1,100,0|2
384,120,22393,1,0
448,192,22791,1,2
384,264,23188,1,0
312,192,23585,1,2
240,264,23983,6,0,B|192:264|192:184,1,100,0|2
192,88,24777,2,0,B|120:88|120:144,1,100,0|2
120,240,25572,5,4
216,240,25969,2,0,L|216:176,2,50,0|0|8
416,240,27161,5,4
312,240,27559,2,0,L|312:184,2,50,0|0|8
112,240,28751,6,0,B|112:176,6,50,0|0|0|0|0|0|2
208,240,30340,2,0,B|208:184,4,50,0|0|2|2|6
400,192,31930,5,4
400,96,32327,1,0
304,96,32724,2,2,B|272:48|208:48,1,100,0|2
120,48,33519,5,4
120,144,33916,1,0
224,144,34314,2,2,B|288:144|288:208,1,100,0|2
216,280,35108,6,0,B|184:272|152:288,6,50,0|0|0|0|2|2|2
320,280,36698,2,0,B|352:296|376:272,4,50,0|0|2|2|6
320,80,38287,5,4
216,80,38685,2,0,L|216:136,2,50,0|0|2
416,80,39877,5,4
320,80,40274,2,0,L|320:144,2,50,0|0|2
320,280,41466,6,0,B|208:240|144:336|24:264,1,300,2|2
32,168,43055,2,2,B|48:144|64:184|80:160,4,50,2|2|2|2|4
232,168,44645,5,0
232,168,45042,1,0
296,88,45440,2,0,L|336:88|408:88,1,100,0|2
456,168,46234,5,0
456,168,46632,1,0
392,240,47029,2,2,L|287:240,1,100,2|2
192,240,47824,2,0,B|192:136|80:136|96:256,3,200,0|0|0|4
96,40,51002,5,0
200,40,51400,1,0
296,40,51797,2,0,B|336:40|360:96|400:96,1,100,0|2
312,160,52592,5,0
216,160,52989,1,0
112,160,53387,2,0,B|88:160|68:108|28:108,1,100,0|2
32,208,54181,6,0,B|32:368|128:352,1,200,0|2
168,264,55373,1,2
216,352,55771,2,0,B|309:367|309:207,1,200,0|2
112,192,57360,6,0,B|112:80|192:80|192:200,1,200,2|2
256,272,58552,1,2
320,192,58949,6,0,B|319:79|399:79|399:191,1,200,2|2
464,272,60141,1,2
360,272,60539,6,0,B|296:248|248:280,1,100,0|8
160,272,61334,2,0,B|96:296|56:272,1,100,0|8
64,176,62128,2,0,B|88:168|96:184|128:168,4,50,0|0|0|0|4
256,192,68486,6,0,B|192:168|144:200,2,100,0|0|0
360,192,69678,1,8
456,192,70075,5,0
456,296,70473,1,8
360,296,70870,1,0
264,296,71267,1,8
160,296,71665,6,0,B|104:272|48:304,2,100,0|8|0
160,192,72857,1,8
256,208,73254,12,4,75638
352,64,76433,6,0,B|288:40|248:64,1,100,0|8
152,64,77228,2,2,B|88:64,2,50,0|0|0
152,160,78022,6,0,B|208:184|272:160,1,100,0|8
352,168,78817,2,2,B|416:168,2,50,0|0|0
352,272,79612,6,0,B|288:288|232:264,1,100,0|8
152,272,80406,2,2,L|96:272,4,50,0|0|0|0|4
224,200,81598,1,0
288,272,81996,2,2,B|344:272,4,50,0|0|0|0|4
32,192,89148,5,4
128,192,89545,2,0,B|184:192|184:104,2,100,0|0|8
128,296,90738,5,4
232,296,91135,2,0,B|296:296|296:208,2,100,0|0|8
176,208,92327,6,2,B|176:144,6,50,0|0|0|0|0|0|0
80,208,93916,1,2
80,104,94314,1,8
160,40,94711,1,2
256,40,95108,1,8
256,144,95506,6,0,B|289:164|353:140,1,100,0|8
456,144,96300,2,2,B|456:72,2,50,0|0|8
456,240,97095,6,0,B|414:257|358:233,1,100,0|8
256,232,97890,2,2,B|200:232,2,50,0|0|8
256,336,98685,6,0,B|192:352|136:328,1,100,0|8
152,232,99479,2,2,L|96:232,2,50,0|0|8
208,152,100274,6,0,B|248:168|272:144|312:160,1,100,0|8
352,72,101069,2,2,B|408:72,2,50,0|0|8
352,168,101863,5,4
456,168,102261,1,0
456,264,102658,2,0,B|344:264,1,100,2|8
256,264,103453,5,4
160,264,103850,1,0
160,168,104247,2,0,B|272:168,1,100,2|8
360,168,105042,6,0,B|400:128,6,50,2|2|0|2|2|0|10
296,96,106632,1,2
200,96,107029,1,2
104,96,107426,1,4
104,296,108221,5,4
208,296,108618,1,0
264,216,109016,2,0,B|152:216,1,100,2|10
224,136,109810,5,4
320,136,110208,1,0
280,48,110605,2,0,B|392:48,1,100,2|8
256,208,111400,12,4,114579
