osu file format v14

[General]
AudioFilename: ho.mp3
AudioLeadIn: 0
PreviewTime: 128974
Countdown: 0
SampleSet: Normal
StackLeniency: 0.3
Mode: 0
LetterboxInBreaks: 1
WidescreenStoryboard: 0

[Editor]
Bookmarks: 41971,115667
DistanceSpacing: 1.4
BeatDivisor: 4
GridSize: 4
TimelineZoom: 2.3

[Metadata]
Title:Oato ga Yoroshikutte... yo!
TitleUnicode:お後がよろしくって...よ!
Artist:Goku Rakujokai
ArtistUnicode:Goku Rakujokai
Creator:Anxient
Version:Rakugo
Source:Joshiraku
Tags:rakugo -July- full size anime
BeatmapID:646096
BeatmapSetID:286147

[Difficulty]
HPDrainRate:7
CircleSize:4
OverallDifficulty:8
ApproachRate:9.3
SliderMultiplier:1.8
SliderTickRate:1

[Events]
//Background and Video events
0,0,"Joshiraku%20-%20OP%20-%20Large%2002.jpg",0,0
//Break Periods
2,91444,100532
2,170174,177039
//Storyboard Layer 0 (Background)
//Storyboard Layer 1 (Fail)
//Storyboard Layer 2 (Pass)
//Storyboard Layer 3 (Foreground)
//Storyboard Sound Samples

[TimingPoints]
1086,317.460317460317,4,1,0,50,1,0
17572,-117.647058823529,4,1,0,100,0,0
19794,-100,4,1,0,100,0,0
20112,-117.647058823529,4,1,0,100,0,0
22324,-100,4,1,0,100,0,0
22651,-117.647058823529,4,1,0,100,0,0
27413,-100,4,1,0,100,0,0
27731,-105.263157894737,4,1,0,100,0,0
29953,-90.9090909090909,4,1,0,100,0,0
30270,-100,4,1,0,100,0,0
32493,-100,4,1,0,100,0,0
37889,-133.333333333333,4,1,0,100,0,0
45508,-133.333333333333,4,1,0,100,0,0
48048,-117.647058823529,4,1,0,100,0,0
55689,-83.3333333333333,4,1,0,100,0,1
57889,-66.6666666666667,4,1,0,100,0,1
58048,-83.3333333333333,4,1,0,100,0,1
62969,-66.6666666666667,4,1,0,100,0,1
63048,-66.6666666666667,4,1,0,100,0,1
63148,-83.3333333333333,4,1,0,100,0,1
65873,-83.3333333333333,4,1,0,100,0,1
68048,-66.6666666666667,4,1,0,100,0,1
68207,-83.3333333333333,4,1,0,100,0,1
73127,-66.6666666666667,4,1,0,100,0,1
73445,-100,4,1,0,100,0,1
81085,-100,4,1,0,100,0,0
101434,-100,4,1,0,100,0,0
111562,-117.647058823529,4,1,0,100,0,0
119159,-105.263157894737,4,1,0,100,0,0
129339,-80,4,1,0,100,0,1
131562,-66.6666666666667,4,1,0,100,0,1
131738,-80,4,1,0,100,0,1
136641,-66.6666666666667,4,1,0,100,0,1
136817,-80,4,1,0,100,0,1
141699,-66.6666666666667,4,1,0,100,0,1
141858,-80,4,1,0,100,0,1
146822,-66.6666666666667,4,1,0,100,0,1
146981,-80,4,1,0,100,0,1
149657,-100,4,1,0,100,0,0
177616,-117.647058823529,4,1,0,100,0,0
180768,-100,4,1,0,100,0,0
181108,-117.647058823529,4,1,0,100,0,0
186482,-90.9090909090909,4,1,0,100,0,0
186800,-66.6666666666667,4,1,0,100,0,0
186981,-90.9090909090909,4,1,0,100,0,0
187752,-83.3333333333333,4,1,0,100,0,0
188092,-62.5,4,1,0,100,0,0
188409,-83.3333333333333,4,1,0,100,0,0
189048,-80,4,1,0,100,0,1
191244,-60.6060606060606,4,1,0,100,0,1
191425,-80,4,1,0,100,0,1
193466,-68.9655172413793,4,1,0,100,0,1
193973,-80,4,1,0,100,0,1
196324,-60.6060606060606,4,1,0,100,0,1
196505,-80,4,1,0,100,0,1
201403,-60.6060606060606,4,1,0,100,0,1
201589,-80,4,1,0,100,0,1
203656,-68.9655172413793,4,1,0,100,0,1
206513,-60.6060606060606,4,1,0,100,0,1
206672,-80,4,1,0,100,0,1
214291,-86.9565217391304,4,1,0,100,0,1
219498,-100,4,1,0,100,0,0

[Colours]
Combo1 : 190,121,27
Combo2 : 239,1,1
Combo3 : 253,231,74
Combo4 : 21,134,91
Combo5 : 74,102,149

[HitObjects]
231,85,1086,6,0,P|178:105|152:132,1,90
224,188,1403,2,0,P|187:233|177:293,1,90
260,300,1720,1,0,0:0:0:0:
340,344,1879,1,0,0:0:0:0:
408,284,2038,2,0,P|448:228|436:172,1,90
412,128,2355,1,0,0:0:0:0:
336,76,2514,1,0,0:0:0:0:
260,140,2673,2,0,P|204:124|136:136,1,90
100,192,2990,1,0,0:0:0:0:
96,327,3308,5,0,0:0:0:0:
104,142,3625,6,0,P|124:93|168:80,1,90
104,142,3943,2,0,P|149:167|160:212,1,90
168,248,4260,2,0,P|188:301|230:315,1,90
321,331,4578,1,0,0:0:0:0:
317,228,4736,2,0,P|292:183|161:151,1,180
46,237,5212,1,0,0:0:0:0:
196,344,5371,1,0,0:0:0:0:
256,160,5530,1,0,0:0:0:0:
141,204,5689,5,0,0:0:0:0:
152,240,5768,1,0,0:0:0:0:
180,264,5847,1,0,0:0:0:0:
212,276,5927,1,0,0:0:0:0:
248,276,6006,1,0,0:0:0:0:
284,284,6086,1,0,0:0:0:0:
312,308,6165,6,0,P|382:340|435:246,1,180
368,184,6641,1,0,0:0:0:0:
395,77,6800,2,0,P|456:101|472:140,1,90
415,302,7117,1,0,0:0:0:0:
456,196,7276,1,0,0:0:0:0:
415,302,7435,2,0,P|366:339|231:310,1,180
104,298,7911,1,0,0:0:0:0:
108,200,8070,6,0,L|174:200|216:200,1,90
141,114,8387,2,0,L|252:116,1,90
264,134,8625,1,0,0:0:0:0:
288,159,8705,6,0,P|321:204|252:296,1,180
124,347,9181,1,0,0:0:0:0:
149,204,9339,2,0,P|67:183|44:156,1,90
124,112,9657,2,0,P|202:124|224:148,1,90
374,187,9974,2,0,P|383:245|368:296,1,90
216,236,10292,2,0,P|208:189|216:136,1,90
346,93,10609,2,0,P|354:151|340:200,1,90
186,142,10927,2,0,P|179:96|192:48,1,90
210,23,11165,1,0,0:0:0:0:
240,0,11244,5,0,0:0:0:0:
272,323,11562,6,0,P|194:315|149:216,1,180
156,144,12038,1,0,0:0:0:0:
76,100,12197,2,0,P|47:166|49:215,1,90
56,272,12514,2,0,P|76:326|181:275,1,180
132,228,12990,2,0,P|176:180|256:244,1,180
264,310,13466,1,0,0:0:0:0:
415,142,13625,1,0,0:0:0:0:
411,237,13784,6,0,P|342:200|333:93,1,180
415,142,14260,1,0,0:0:0:0:
182,167,14419,1,0,0:0:0:0:
329,101,14578,1,0,0:0:0:0:
178,274,14736,1,0,0:0:0:0:
256,114,14895,2,0,L|256:16,1,90
256,192,15133,12,0,16006,0:0:0:0:
26,142,16324,5,0,0:0:0:0:
104,220,16482,1,0,0:0:0:0:
184,292,16641,1,0,0:0:0:0:
184,292,16720,1,0,0:0:0:0:
184,292,16800,1,0,0:0:0:0:
236,164,16959,5,0,0:0:0:0:
236,164,17038,1,0,0:0:0:0:
236,164,17117,1,0,0:0:0:0:
288,56,17276,1,0,0:0:0:0:
392,144,17435,1,0,0:0:0:0:
392,144,17514,1,0,0:0:0:0:
392,144,17593,5,0,0:0:0:0:
342,298,17752,1,0,0:0:0:0:
132,323,17911,2,0,P|91:315|59:282,1,76.5000014591217
116,228,18228,2,0,P|91:204|137:101,1,153.000002918243
196,160,18705,2,0,P|212:209|311:230,1,153.000002918243
272,163,19181,1,0,0:0:0:0:
340,72,19339,1,0,0:0:0:0:
428,144,19498,2,0,P|440:201|428:242,1,76.5000014591217
374,302,19816,6,0,L|163:302,1,180
104,233,20292,5,0,0:0:0:0:
104,233,20451,2,0,P|67:183|59:142,1,76.5000014591217
104,233,20768,2,0,P|157:196|260:224,1,153.000002918243
182,274,21244,2,0,P|227:298|321:253,1,153.000002918243
383,192,21720,1,0,0:0:0:0:
374,97,21879,1,0,0:0:0:0:
288,44,22038,2,0,P|247:48|202:77,1,76.5000014591217
202,175,22355,6,0,P|256:216|256:340,1,180
182,274,22832,1,0,0:0:0:0:
182,274,22990,2,0,P|153:327|120:343,1,76.5000014591217
182,274,23308,2,0,P|223:315|329:290,1,153.000002918243
264,224,23784,1,0,0:0:0:0:
264,224,23943,6,0,L|362:183,1,76.5000014591217
444,347,24260,1,0,0:0:0:0:
485,237,24419,1,0,0:0:0:0:
452,126,24578,2,0,P|387:89|301:122,1,153.000002918243
374,175,25054,1,0,0:0:0:0:
328,257,25212,6,0,P|287:290|237:280,1,76.5000014591217
180,252,25530,2,0,P|151:196|213:123,1,153.000002918243
272,184,26006,1,0,0:0:0:0:
196,128,26165,2,0,P|159:115|94:119,1,76.5000014591217
75,200,26482,1,0,0:0:0:0:
71,306,26641,1,0,0:0:0:0:
161,315,26800,2,0,P|215:335|301:274,1,153.000002918243
374,327,27276,1,0,0:0:0:0:
436,249,27435,6,0,P|448:200|436:151,2,90
374,327,27911,1,0,0:0:0:0:
329,241,28070,2,0,P|305:192|256:167,1,85.4999977169037
235,249,28387,2,0,P|186:233|67:274,1,170.999995433807
75,266,28863,2,0,B|90:292|90:292|127:124,1,170.999995433807
243,52,29339,2,0,P|260:114|243:159,1,85.4999977169037
132,192,29657,2,0,P|108:134|112:97,1,85.4999977169037
108,112,29974,6,0,P|174:117|215:236,1,198.000006042481
132,290,30451,1,0,0:0:0:0:
227,315,30609,2,0,P|288:339|329:323,1,90
399,286,30927,2,0,P|419:241|362:114,1,180
297,60,31403,2,0,P|264:97|288:241,1,180
354,310,31879,1,0,0:0:0:0:
370,151,32038,1,0,0:0:0:0:
223,265,32197,1,0,0:0:0:0:
128,138,32355,1,0,0:0:0:0:
128,138,32514,6,0,P|67:159|88:280,1,180
161,343,32990,1,0,0:0:0:0:
276,290,33149,2,0,P|333:274|374:233,1,90
276,290,33466,2,0,P|297:224|231:134,1,180
192,208,33943,2,0,P|245:220|328:104,1,180
268,44,34419,1,0,0:0:0:0:
145,77,34578,1,0,0:0:0:0:
50,163,34736,2,0,P|38:233|124:331,1,180
220,332,35212,1,0,0:0:0:0:
344,340,35371,5,0,0:0:0:0:
424,60,35530,1,0,0:0:0:0:
448,265,35847,5,0,0:0:0:0:
67,118,36006,1,0,0:0:0:0:
256,155,36324,5,0,0:0:0:0:
256,192,36403,12,0,37276,0:0:0:0:
128,257,37593,5,0,0:0:0:0:
223,315,37911,2,0,P|280:323|354:269,1,135.000005149842
392,196,38387,1,0,0:0:0:0:
309,151,38546,2,0,P|264:142|178:200,2,135.000005149842
366,228,39339,1,0,0:0:0:0:
297,298,39498,2,0,P|239:331|228:336,1,67.5000025749208
206,253,39816,6,0,P|157:249|96:168,1,135.000005149842
178,126,40451,2,0,P|235:151|305:118,1,135.000005149842
374,60,40927,1,0,0:0:0:0:
432,152,41086,1,0,0:0:0:0:
352,236,41244,1,0,0:0:0:0:
448,265,41562,1,0,0:0:0:0:
448,265,41720,6,0,P|395:237|338:237,1,101.250003862381
354,234,42038,2,0,P|303:265|237:261,1,101.250003862381
262,267,42355,2,0,P|213:237|127:237,1,135.000005149842
96,253,42752,1,0,0:0:0:0:
59,253,42832,1,0,0:0:0:0:
34,224,42911,1,0,0:0:0:0:
30,187,42990,6,0,P|59:138|141:109,1,135.000005149842
301,101,43466,1,0,0:0:0:0:
206,77,43625,2,0,P|210:134|288:192,1,135.000005149842
403,257,44101,1,0,0:0:0:0:
321,327,44260,1,0,0:0:0:0:
190,327,44419,1,0,0:0:0:0:
256,216,44736,5,0,0:0:0:0:
356,176,44895,2,0,P|368:123|286:74,1,135.000005149842
272,56,45292,1,0,0:0:0:0:
224,60,45371,1,0,0:0:0:0:
180,80,45451,1,0,0:0:0:0:
148,112,45530,6,0,P|112:156|108:192,1,67.5000025749208
91,253,45847,2,0,P|137:245|161:233,1,67.5000025749208
301,151,46165,2,0,P|239:171|223:192,1,67.5000025749208
215,204,46403,1,0,0:0:0:0:
231,241,46482,2,0,P|288:269|321:265,1,67.5000025749208
395,257,46800,5,0,0:0:0:0:
456,142,46959,1,0,0:0:0:0:
424,302,47117,1,0,0:0:0:0:
485,187,47276,1,0,0:0:0:0:
452,347,47435,2,0,P|407:380|317:339,1,135.000005149842
206,339,47911,1,0,0:0:0:0:
100,302,48070,6,0,B|42:306|9:237|9:237|46:208,1,153.000002918243
128,183,48546,1,0,0:0:0:0:
219,167,48705,2,0,B|264:134|260:60|260:60|215:56,1,153.000002918243
132,93,49181,1,0,0:0:0:0:
226,57,49339,2,0,P|271:53|382:110,1,153.000002918243
428,196,49816,1,0,0:0:0:0:
366,274,49974,2,0,P|329:306|215:310,1,153.000002918243
136,256,50451,6,0,P|88:200|80:168,1,76.5000014591217
260,80,50768,1,0,0:0:0:0:
136,256,50927,1,0,0:0:0:0:
179,109,51086,1,0,0:0:0:0:
216,322,51244,1,0,0:0:0:0:
145,172,51403,1,0,0:0:0:0:
302,319,51562,1,0,0:0:0:0:
161,252,51720,1,0,0:0:0:0:
377,253,51879,5,0,0:0:0:0:
295,322,52038,1,0,0:0:0:0:
366,172,52197,1,0,0:0:0:0:
209,319,52355,1,0,0:0:0:0:
350,252,52514,1,0,0:0:0:0:
134,253,52673,1,0,0:0:0:0:
344,308,52832,6,0,P|402:312|436:264,1,114.750002188683
436,216,53149,1,0,0:0:0:0:
395,192,53228,1,0,0:0:0:0:
350,196,53308,1,0,0:0:0:0:
305,208,53387,1,0,0:0:0:0:
260,200,53466,1,0,0:0:0:0:
227,167,53546,1,0,0:0:0:0:
210,122,53625,1,0,0:0:0:0:
235,81,53705,5,0,0:0:0:0:
276,60,53784,1,0,0:0:0:0:
321,77,53863,1,0,0:0:0:0:
366,93,53943,1,0,0:0:0:0:
407,73,54022,1,0,0:0:0:0:
452,73,54101,1,0,0:0:0:0:
489,101,54181,1,0,0:0:0:0:
506,146,54260,1,0,0:0:0:0:
497,192,54339,1,0,0:0:0:0:
473,233,54419,5,0,0:0:0:0:
227,343,54578,1,0,0:0:0:0:
383,323,55054,5,0,0:0:0:0:
67,85,55212,1,0,0:0:0:0:
395,171,55371,1,0,0:0:0:0:
240,200,55689,6,0,L|96:232,1,107.999996704102
30,163,56006,2,0,L|136:140,1,107.999996704102
152,56,56324,2,0,P|208:72|256:120,1,107.999996704102
329,56,56641,1,0,0:0:0:0:
305,159,56800,2,0,P|313:216|461:241,1,215.999993408203
399,167,57276,1,0,0:0:0:0:
247,347,57435,1,0,0:0:0:0:
206,220,57593,2,0,P|120:196|87:155,1,107.999996704102
116,200,57911,6,0,L|145:15,1,135.000005149842
232,40,58228,5,0,0:0:0:0:
308,100,58387,1,0,0:0:0:0:
208,136,58546,2,0,P|160:180|112:168,1,107.999996704102
68,308,58863,2,0,P|116:264|164:276,1,107.999996704102
224,328,59181,2,0,P|288:288|304:216,1,107.999996704102
338,126,59498,1,0,0:0:0:0:
132,269,59657,1,0,0:0:0:0:
379,323,59816,1,0,0:0:0:0:
424,48,59974,1,0,0:0:0:0:
362,179,60133,6,0,L|332:36,1,107.999996704102
264,233,60451,6,0,L|239:101,1,107.999996704102
182,257,60768,6,0,P|141:196|75:208,1,107.999996704102
16,216,61086,2,0,P|57:277|123:265,1,107.999996704102
182,257,61403,1,0,0:0:0:0:
248,340,61562,1,0,0:0:0:0:
324,264,61720,1,0,0:0:0:0:
180,256,61879,2,0,P|182:196|313:159,1,215.999993408203
264,233,62355,1,0,0:0:0:0:
424,224,62514,1,0,0:0:0:0:
329,101,62673,2,0,P|264:93|202:109,1,107.999996704102
239,68,62990,6,0,L|128:212,1,135.000005149842
50,196,63308,6,0,P|71:253|116:290,1,107.999996704102
174,347,63625,2,0,P|231:331|288:269,1,107.999996704102
190,249,63943,2,0,P|206:175|174:134,1,107.999996704102
100,68,64260,1,0,0:0:0:0:
192,152,64419,2,0,P|266:172|364:73,1,215.999993408203
251,64,64895,1,0,0:0:0:0:
362,278,65054,1,0,0:0:0:0:
461,134,65212,1,0,0:0:0:0:
288,175,65371,5,0,0:0:0:0:
325,163,65451,1,0,0:0:0:0:
354,134,65530,2,0,L|360:80,1,53.9999983520508
383,167,65689,1,0,0:0:0:0:
411,196,65768,1,0,0:0:0:0:
436,233,65847,6,0,P|444:298|416:356,1,107.999996704102
332,296,66165,2,0,P|272:328|208:320,1,107.999996704102
132,268,66482,1,0,0:0:0:0:
52,204,66641,1,0,0:0:0:0:
156,172,66800,1,0,0:0:0:0:
132,268,66959,2,0,P|197:263|238:116,1,215.999993408203
172,56,67435,2,0,P|112:44|40:68,1,107.999996704102
16,132,67752,2,0,P|76:144|148:120,1,107.999996704102
104,152,68070,6,0,L|208:24,1,135.000005149842
272,294,68387,6,0,P|342:265|366:233,1,107.999996704102
379,85,68705,2,0,P|317:118|284:151,1,107.999996704102
216,184,69022,2,0,P|138:208|76:184,1,107.999996704102
42,101,69339,2,0,P|120:77|182:101,1,107.999996704102
243,109,69657,1,0,0:0:0:0:
407,228,69816,1,0,0:0:0:0:
329,142,69974,1,0,0:0:0:0:
333,339,70133,1,0,0:0:0:0:
428,257,70292,6,0,L|461:122,1,107.999996704102
370,142,70609,6,0,L|313:44,1,107.999996704102
272,144,70927,6,0,P|301:210|372:244,1,107.999996704102
180,236,71244,2,0,P|152:292|104:316,1,107.999996704102
100,132,71562,1,0,0:0:0:0:
236,80,71720,1,0,0:0:0:0:
100,132,71879,1,0,0:0:0:0:
43,231,72038,2,0,P|23:289|146:375,1,215.999993408203
223,331,72514,2,0,P|301:339|358:331,1,107.999996704102
301,249,72832,2,0,P|383:233|424:208,1,107.999996704102
419,249,73149,6,0,L|428:89,1,135.000005149842
329,77,73466,5,0,0:0:0:0:
67,163,73625,1,0,0:0:0:0:
128,261,73784,2,0,P|169:298|210:310,1,90
210,167,74101,1,0,0:0:0:0:
379,347,74260,1,0,0:0:0:0:
338,187,74419,1,0,0:0:0:0:
280,274,74578,6,0,P|215:282|132:192,1,180
210,167,75054,2,0,P|174:114|112:100,1,90
42,167,75371,1,0,0:0:0:0:
83,331,75530,1,0,0:0:0:0:
116,351,75609,1,0,0:0:0:0:
153,347,75689,1,0,0:0:0:0:
190,319,75768,1,0,0:0:0:0:
202,274,75847,6,0,P|219:224|350:237,1,180
331,213,76324,2,0,P|392:221|437:201,1,90
370,122,76641,1,0,0:0:0:0:
354,306,76800,1,0,0:0:0:0:
370,122,76959,1,0,0:0:0:0:
354,306,77117,6,0,P|288:298|247:192,1,180
411,216,77593,1,0,0:0:0:0:
244,204,77752,1,0,0:0:0:0:
411,216,77911,2,0,P|452:167|444:48,1,180
240,100,78387,6,0,P|187:116|121:231,1,180
168,312,78863,2,0,P|197:278|207:235,1,90
34,237,79181,2,0,P|50:290|83:319,1,90
116,339,79419,1,0,0:0:0:0:
161,347,79498,1,0,0:0:0:0:
206,339,79578,1,0,0:0:0:0:
243,315,79657,1,0,0:0:0:0:
272,278,79736,1,0,0:0:0:0:
313,261,79816,6,0,P|370:241|424:249,1,90
362,122,80133,1,0,0:0:0:0:
227,126,80292,1,0,0:0:0:0:
227,126,80371,1,0,0:0:0:0:
227,126,80451,1,0,0:0:0:0:
87,159,80609,1,0,0:0:0:0:
141,48,80768,1,0,0:0:0:0:
338,339,81086,6,0,P|387:306|391:183,1,180
297,130,81562,1,0,0:0:0:0:
256,216,81720,2,0,P|227:278|174:290,1,90
108,237,82038,1,0,0:0:0:0:
268,343,82197,1,0,0:0:0:0:
108,237,82355,2,0,P|141:183|141:126,1,90
67,73,82673,6,0,L|30:179,1,90
79,274,82990,2,0,L|109:185,1,90
210,122,83308,2,0,L|174:228,1,90
186,257,83546,1,0,0:0:0:0:
219,290,83625,6,0,P|272:306|387:228,1,180
280,204,84101,1,0,0:0:0:0:
329,77,84260,1,0,0:0:0:0:
280,204,84419,1,0,0:0:0:0:
329,77,84578,2,0,P|387:114|411:163,1,90
362,265,84895,1,0,0:0:0:0:
481,200,85054,1,0,0:0:0:0:
440,327,85212,6,0,L|329:347,1,90
280,290,85530,2,0,L|169:310,1,90
137,245,85847,2,0,L|26:265,1,90
215,163,86165,5,0,0:0:0:0:
96,89,86324,1,0,0:0:0:0:
206,52,86482,2,0,P|276:44|368:128,1,180
309,192,86959,1,0,0:0:0:0:
399,233,87117,2,0,P|448:216|469:167,1,90
399,233,87435,2,0,P|383:294|256:304,1,180
317,241,87911,2,0,B|247:228|206:241|194:249|141:245|120:196,1,180
182,142,88387,1,0,0:0:0:0:
71,302,88546,1,0,0:0:0:0:
140,224,88705,6,0,P|99:187|140:68,1,180
220,44,89181,1,0,0:0:0:0:
352,108,89339,2,0,P|418:137|434:165,1,90
344,232,89657,1,0,0:0:0:0:
232,184,89816,2,0,P|248:143|284:116,1,90
256,192,90054,12,0,90927,0:0:0:0:
256,269,91244,5,0,0:0:0:0:
80,104,101086,6,0,L|208:208,1,135
184,188,101403,6,0,P|200:244|244:272,1,90
366,245,101720,2,0,P|415:204|415:151,1,90
366,73,102038,2,0,B|313:56|264:64|239:85|194:60|153:36,1,180
188,55,102514,2,0,P|119:62|58:169,1,180
192,252,102990,1,0,0:0:0:0:
104,128,103149,1,0,0:0:0:0:
71,327,103308,1,0,0:0:0:0:
143,221,103466,1,0,0:0:0:0:
174,319,103625,6,0,P|247:335|292:315,1,90
343,335,103943,2,0,P|332:292|303:259,1,90
240,184,104260,5,0,0:0:0:0:
333,146,104419,1,0,0:0:0:0:
370,257,104578,2,0,P|428:269|469:241,1,90
465,118,104895,1,0,0:0:0:0:
350,44,105054,1,0,0:0:0:0:
465,118,105212,2,0,P|419:155|368:160,1,90
264,120,105530,5,0,0:0:0:0:
186,60,105689,1,0,0:0:0:0:
108,175,105847,1,0,0:0:0:0:
91,36,106006,1,0,0:0:0:0:
178,142,106165,6,0,P|231:208|227:241,1,90
210,347,106482,2,0,P|165:310|153:265,1,90
232,208,106800,6,0,P|281:237|326:241,1,90
321,134,107117,1,0,0:0:0:0:
399,56,107276,2,0,P|461:27|506:40,1,90
473,142,107593,1,0,0:0:0:0:
473,142,107752,6,0,P|428:175|448:298,1,180
497,224,108228,1,0,0:0:0:0:
436,288,108387,2,0,P|395:321|276:259,1,180
366,233,108863,1,0,0:0:0:0:
264,159,109022,5,0,0:0:0:0:
30,253,109181,1,0,0:0:0:0:
350,306,109498,5,0,0:0:0:0:
161,85,109657,1,0,0:0:0:0:
256,323,109974,5,0,0:0:0:0:
256,192,110054,12,0,110927,0:0:0:0:
96,192,111244,5,0,0:0:0:0:
161,105,111403,1,0,0:0:0:0:
272,105,111562,2,0,P|321:126|329:239,1,153.000002918243
227,224,112038,1,0,0:0:0:0:
161,290,112197,2,0,P|223:323|296:284,2,153.000002918243
91,224,112990,1,0,0:0:0:0:
204,68,113308,5,0,0:0:0:0:
204,68,113466,2,0,P|258:118|348:101,1,153.000002918243
428,60,113943,1,0,0:0:0:0:
332,112,114101,2,0,B|353:162|341:178|328:207|376:280,1,153.000002918243
452,312,114578,1,0,0:0:0:0:
364,260,114736,2,0,P|315:268|268:248,1,76.5000014591217
176,256,115054,1,0,0:0:0:0:
120,159,115212,1,0,0:0:0:0:
200,52,115371,6,0,P|236:84|244:124,1,76.5000014591217
164,216,115689,2,0,P|128:184|120:140,1,76.5000014591217
268,72,116006,2,0,P|304:104|312:144,1,76.5000014591217
232,236,116324,2,0,P|196:204|188:164,1,76.5000014591217
320,152,116641,6,0,P|356:184|364:224,1,76.5000014591217
256,324,116959,1,0,0:0:0:0:
120,236,117117,1,0,0:0:0:0:
145,146,117276,2,0,P|174:85|284:64,1,153.000002918243
320,152,117752,1,0,0:0:0:0:
320,152,117832,1,0,0:0:0:0:
320,152,117911,6,0,P|349:197|283:275,1,153.000002918243
198,282,118387,1,0,0:0:0:0:
106,318,118546,2,0,P|64:285|64:192,1,153.000002918243
148,176,119022,1,0,0:0:0:0:
83,114,119181,6,0,P|153:77|192:68,1,85.4999977169037
297,77,119498,2,0,P|251:114|206:138,1,85.4999977169037
149,233,119816,2,0,P|215:216|251:200,1,85.4999977169037
387,220,120133,2,0,P|342:249|288:274,1,85.4999977169037
235,306,120451,2,0,P|276:339|325:339,1,85.4999977169037
288,192,120768,2,0,P|231:228|219:274,1,85.4999977169037
112,339,121086,1,0,0:0:0:0:
18,245,121244,1,0,0:0:0:0:
79,130,121403,2,0,P|124:85|161:77,1,85.4999977169037
165,167,121720,6,0,P|182:216|210:241,1,85.4999977169037
256,130,122038,2,0,P|317:122|350:101,1,85.4999977169037
280,44,122355,2,0,P|338:27|395:44,1,85.4999977169037
362,187,122673,2,0,P|318:189|277:174,1,85.4999977169037
195,101,122990,2,0,P|133:122|129:245,1,170.999995433807
191,189,123466,1,0,0:0:0:0:
234,255,123625,2,0,P|231:305|114:307,1,170.999995433807
67,237,124101,1,0,0:0:0:0:
83,151,124260,6,0,P|104:81|145:48,1,85.4999977169037
194,101,124578,2,0,P|243:73|292:73,1,85.4999977169037
309,151,124895,2,0,P|383:155|419:175,1,85.4999977169037
366,245,125212,2,0,P|403:282|407:323,1,85.4999977169037
325,339,125530,5,0,0:0:0:0:
132,310,125689,1,0,0:0:0:0:
75,142,125847,1,0,0:0:0:0:
223,237,126006,1,0,0:0:0:0:
180,140,126165,2,0,L|282:90,1,85.4999977169037
256,102,126482,1,0,0:0:0:0:
424,48,126641,5,0,0:0:0:0:
469,216,126800,1,0,0:0:0:0:
305,282,126959,1,0,0:0:0:0:
243,97,127117,1,0,0:0:0:0:
415,130,127276,1,0,0:0:0:0:
366,298,127435,1,0,0:0:0:0:
194,269,127593,1,0,0:0:0:0:
22,343,127752,1,0,0:0:0:0:
59,171,127911,1,0,0:0:0:0:
227,228,128070,5,0,0:0:0:0:
268,339,128149,1,0,0:0:0:0:
309,347,128228,1,0,0:0:0:0:
354,339,128308,1,0,0:0:0:0:
387,310,128387,1,0,0:0:0:0:
411,274,128466,1,0,0:0:0:0:
415,228,128546,1,0,0:0:0:0:
356,176,128705,1,0,0:0:0:0:
264,92,128863,1,0,0:0:0:0:
403,56,129022,6,0,L|256:188,1,170.999995433807
124,146,129498,1,0,0:0:0:0:
148,196,129657,2,0,L|280:196,1,112.5
120,240,129974,2,0,L|-12:240,1,112.5
204,312,130292,1,0,0:0:0:0:
313,306,130451,6,0,B|387:298|444:269|477:208|452:138,1,225
358,109,130927,2,0,P|297:101|243:130,1,112.5
313,192,131244,2,0,P|260:224|243:278,1,112.5
280,274,131562,6,0,L|172:148,1,135.000005149842
149,77,131879,6,0,P|87:85|42:130,1,112.5
144,178,132197,2,0,P|125:236|156:290,1,112.5
253,310,132514,1,0,0:0:0:0:
200,141,132673,1,0,0:0:0:0:
182,323,132832,1,0,0:0:0:0:
262,171,132990,1,0,0:0:0:0:
91,257,133149,2,0,P|26:249|-2:200,1,112.5
81,178,133466,2,0,P|61:113|81:59,1,112.5
210,170,133784,6,0,L|198:56,1,112.5
305,237,134101,6,0,L|291:122,1,112.5
338,322,134419,6,0,P|404:315|439:277,1,112.5
376,215,134736,2,0,P|430:178|432:107,1,112.5
410,39,135054,2,0,P|362:66|342:118,1,112.5
376,216,135371,1,0,0:0:0:0:
342,118,135530,2,0,P|280:81|206:89,1,112.5
132,114,135847,1,0,0:0:0:0:
243,167,136006,2,0,L|243:286,1,112.5
153,286,136324,2,0,P|87:237|71:183,1,112.5
63,249,136641,6,0,L|63:73,1,135.000005149842
227,93,136959,2,0,P|288:52|354:56,1,112.5
227,93,137276,2,0,P|284:118|313:175,1,112.5
301,253,137593,2,0,P|370:237|395:159,1,112.5
395,36,137911,1,0,0:0:0:0:
391,118,138070,6,0,P|469:163|428:282,1,225
346,331,138546,2,0,P|288:347|231:339,1,112.5
144,300,138863,2,0,P|84:288|40:220,1,112.5
40,144,139181,6,0,L|40:80,1,56.25
64,168,139339,1,0,0:0:0:0:
112,180,139419,1,0,0:0:0:0:
149,175,139498,6,0,P|202:134|280:130,1,112.5
352,100,139816,2,0,P|278:108|237:133,1,112.5
245,126,140133,2,0,P|265:193|314:225,1,112.5
440,265,140451,1,0,0:0:0:0:
358,224,140609,2,0,P|346:290|477:355,1,225
440,265,141086,2,0,P|477:212|481:159,1,112.5
481,165,141403,2,0,P|424:157|383:107,1,112.5
395,134,141720,6,0,L|473:3,1,135.000005149842
329,77,142038,6,0,P|264:118|219:101,1,112.5
329,77,142355,2,0,P|329:155|288:196,1,112.5
354,261,142673,2,0,P|280:298|210:274,1,112.5
159,327,142990,2,0,P|106:311|76:266,1,112.5
164,216,143308,1,0,0:0:0:0:
220,56,143466,1,0,0:0:0:0:
380,112,143625,1,0,0:0:0:0:
264,188,143784,1,0,0:0:0:0:
272,290,143943,6,0,L|400:208,1,112.5
383,319,144260,6,0,L|510:233,1,112.5
419,130,144578,6,0,P|383:77|313:73,1,112.5
336,156,144895,2,0,P|263:160|205:197,1,112.5
248,264,145212,2,0,P|175:260|117:223,1,112.5
75,175,145530,1,0,0:0:0:0:
67,85,145689,2,0,P|128:101|120:257,1,225
196,316,146165,2,0,P|274:283|311:234,1,112.5
260,180,146482,2,0,P|309:131|321:74,1,112.5
300,104,146800,6,0,L|428:28,1,112.5
436,310,147117,5,0,0:0:0:0:
120,269,147276,1,0,0:0:0:0:
206,253,147435,2,0,P|169:187|112:175,1,112.5
145,73,147752,1,0,0:0:0:0:
268,347,147911,1,0,0:0:0:0:
333,237,148070,1,0,0:0:0:0:
424,216,148228,6,0,P|391:163|239:224,1,225
251,189,148705,2,0,P|204:145|196:88,1,112.5
284,108,149022,2,0,P|307:40|377:23,1,112.5
436,138,149339,1,0,0:0:0:0:
104,160,149657,6,0,P|100:212|196:312,1,180
288,316,150133,1,0,0:0:0:0:
384,248,150292,2,0,P|376:200|332:160,1,90
288,92,150609,2,0,P|236:92|180:116,1,90
104,188,150927,5,0,0:0:0:0:
184,296,151086,1,0,0:0:0:0:
248,184,151244,1,0,0:0:0:0:
136,220,151403,1,0,0:0:0:0:
212,336,151562,1,0,0:0:0:0:
276,212,151720,1,0,0:0:0:0:
136,180,151879,2,0,P|84:152|88:92,1,120
156,56,152276,6,0,B|172:48|172:48|176:60|176:60|184:48|184:48|188:60|188:60|196:48|196:48|200:60|200:60|208:48|208:48|212:60|212:60|220:48|220:48|224:60|224:60|232:56|232:56|236:60|236:60|236:60|236:60,1,150
348,100,152673,1,0,0:0:0:0:
348,100,152832,2,0,P|400:92|436:104,1,90
400,172,153149,2,0,P|432:224|432:264,1,90
336,260,153466,2,0,P|312:308|260:324,1,90
256,200,153784,2,0,P|196:212|152:196,1,90
192,112,154101,5,0,0:0:0:0:
60,168,154260,1,0,0:0:0:0:
180,248,154419,1,0,0:0:0:0:
72,340,154578,1,0,0:0:0:0:
208,336,154736,2,0,P|268:320|292:292,1,90
348,232,155054,1,0,0:0:0:0:
364,96,155212,1,0,0:0:0:0:
272,56,155371,6,0,P|212:48|128:124,1,180
52,164,155847,1,0,0:0:0:0:
176,220,156006,2,0,P|220:216|276:228,1,90
176,220,156324,2,0,P|208:288|204:312,1,90
348,320,156641,5,0,0:0:0:0:
440,208,156800,1,0,0:0:0:0:
376,264,156959,1,0,0:0:0:0:
380,120,157117,1,0,0:0:0:0:
404,212,157276,1,0,0:0:0:0:
280,132,157435,6,0,L|180:132,1,90
100,216,157752,2,0,L|208:216,1,90
288,248,158070,1,0,0:0:0:0:
208,308,158308,2,0,P|152:336|120:332,1,90
20,236,158546,1,0,0:0:0:0:
92,112,158705,5,0,0:0:0:0:
236,136,158863,1,0,0:0:0:0:
104,196,159022,5,0,0:0:0:0:
244,220,159181,1,0,0:0:0:0:
116,284,159339,5,0,0:0:0:0:
260,304,159498,1,0,0:0:0:0:
400,268,159657,1,0,0:0:0:0:
408,136,159816,6,0,P|392:84|352:52,1,90
260,40,160133,1,0,0:0:0:0:
320,140,160292,6,0,P|268:121|219:134,1,90
144,144,160609,1,0,0:0:0:0:
120,244,160768,6,0,P|100:292|112:344,1,90
212,348,161086,1,0,0:0:0:0:
308,248,161244,6,0,P|312:180|336:144,1,90
392,80,161562,1,0,0:0:0:0:
152,100,161720,6,0,P|124:160|128:196,1,90
192,264,162038,1,0,0:0:0:0:
288,312,162197,1,0,0:0:0:0:
396,296,162355,1,0,0:0:0:0:
420,248,162435,2,0,L|440:188,1,60
316,144,162673,1,0,0:0:0:0:
392,80,162832,1,0,0:0:0:0:
484,136,162990,5,0,0:0:0:0:
488,180,163070,1,0,0:0:0:0:
468,220,163149,1,0,0:0:0:0:
428,240,163228,1,0,0:0:0:0:
384,244,163308,2,0,B|328:248|292:236|268:208|232:188|212:184,1,180
136,144,163784,6,0,P|76:129|27:145,1,90
8,216,164101,2,0,P|72:224|108:216,1,90
184,204,164419,1,0,0:0:0:0:
244,136,164578,1,0,0:0:0:0:
320,184,164736,1,0,0:0:0:0:
272,260,164895,6,0,P|228:296|180:292,1,90
120,248,165212,2,0,P|76:200|72:164,1,90
144,124,165530,2,0,P|176:72|224:56,1,90
244,136,165847,1,0,0:0:0:0:
268,220,166006,2,0,B|308:268|336:240|364:168|444:176,1,180
440,264,166482,6,0,P|464:320|440:352,1,90
344,328,166800,1,0,0:0:0:0:
236,316,166959,1,0,0:0:0:0:
156,240,167117,1,0,0:0:0:0:
244,176,167276,1,0,0:0:0:0:
160,108,167435,6,0,P|112:68|64:76,1,90
160,108,167752,2,0,P|216:52|248:48,1,90
223,49,168070,2,0,P|279:85|327:81,1,90
420,148,168387,1,0,0:0:0:0:
328,308,168546,1,0,0:0:0:0:
224,192,168705,1,0,0:0:0:0:
256,192,168784,12,0,169974,0:0:0:0:
124,176,177593,6,0,L|164:248,1,76.5000014591217
224,164,177911,2,0,L|284:104,1,76.5000014591217
336,192,178228,2,0,L|392:256,1,76.5000014591217
440,164,178546,1,0,0:0:0:0:
392,76,178705,1,0,0:0:0:0:
296,52,178863,6,0,P|248:44|200:76,1,76.5000014591217
72,120,179181,2,0,P|120:128|168:96,1,76.5000014591217
232,64,179498,1,0,0:0:0:0:
284,208,179657,1,0,0:0:0:0:
288,112,179816,1,0,0:0:0:0:
220,248,179974,1,0,0:0:0:0:
136,288,180133,6,0,P|176:328|288:316,1,153.000002918243
344,280,180609,1,0,0:0:0:0:
444,228,180768,2,0,B|408:200|408:200|372:184|352:156|340:128|352:80|384:56,1,180
432,120,181244,1,0,0:0:0:0:
432,120,181403,2,0,P|376:160|284:112,1,153.000002918243
208,84,181879,1,0,0:0:0:0:
104,100,182038,2,0,P|56:136|80:236,1,153.000002918243
128,308,182514,6,0,P|176:328|208:332,1,76.5000014591217
268,248,182832,1,0,0:0:0:0:
332,124,182990,1,0,0:0:0:0:
396,248,183149,1,0,0:0:0:0:
235,232,183308,1,0,0:0:0:0:
365,103,183466,1,0,0:0:0:0:
395,284,183625,1,0,0:0:0:0:
212,192,183784,5,0,0:0:0:0:
64,232,183943,1,0,0:0:0:0:
24,84,184101,1,0,0:0:0:0:
172,44,184260,1,0,0:0:0:0:
176,209,184419,1,0,0:0:0:0:
46,196,184578,1,0,0:0:0:0:
59,66,184736,1,0,0:0:0:0:
189,79,184895,1,0,0:0:0:0:
320,160,185054,5,0,0:0:0:0:
356,188,185133,1,0,0:0:0:0:
400,204,185212,1,0,0:0:0:0:
444,188,185292,1,0,0:0:0:0:
468,148,185371,1,0,0:0:0:0:
476,104,185451,1,0,0:0:0:0:
460,60,185530,1,0,0:0:0:0:
420,40,185609,1,0,0:0:0:0:
376,32,185689,5,0,0:0:0:0:
336,52,185768,1,0,0:0:0:0:
296,72,185847,1,0,0:0:0:0:
260,100,185927,1,0,0:0:0:0:
232,136,186006,1,0,0:0:0:0:
216,180,186086,1,0,0:0:0:0:
212,224,186165,1,0,0:0:0:0:
216,272,186244,5,0,0:0:0:0:
192,312,186324,1,0,0:0:0:0:
148,328,186403,1,0,0:0:0:0:
92,312,186482,6,0,L|44:188,1,99.0000030212403
72,48,186800,2,0,L|128:192,1,135.000005149842
184,120,187117,6,0,L|296:172,1,99.0000030212403
468,112,187435,1,0,0:0:0:0:
408,248,187752,6,0,L|280:304,1,107.999996704102
156,248,188070,2,0,L|328:180,1,144
308,164,188308,1,0,0:0:0:0:
296,140,188387,2,0,L|196:52,1,107.999996704102
88,88,188705,6,0,P|56:148|128:312,1,215.999993408203
196,328,189181,1,0,0:0:0:0:
296,280,189339,2,0,P|372:248|404:196,1,112.5
308,164,189657,2,0,P|336:100|328:52,1,112.5
224,76,189974,1,0,0:0:0:0:
308,164,190133,2,0,P|376:204|348:340,1,225
268,268,190609,2,0,P|208:236|196:196,1,112.5
268,268,190927,2,0,P|212:288|156:272,1,112.5
276,284,191244,2,0,L|180:124,1,148.500001416206
276,72,191562,5,0,0:0:0:0:
404,164,191720,1,0,0:0:0:0:
248,152,191879,1,0,0:0:0:0:
136,264,192038,1,0,0:0:0:0:
292,296,192197,2,0,P|368:300|396:272,1,112.5
328,216,192514,2,0,P|260:216|208:260,1,112.5
84,312,192832,5,0,0:0:0:0:
56,156,192990,1,0,0:0:0:0:
180,56,193149,1,0,0:0:0:0:
136,208,193308,1,0,0:0:0:0:
228,248,193466,6,0,L|272:92,1,130.500003982544
320,220,193784,6,0,L|364:64,1,130.500003982544
416,212,194101,6,0,P|420:272|384:316,1,112.5
416,212,194419,2,0,P|476:248|480:308,1,112.5
390,312,194736,2,0,P|334:308|286:260,1,112.5
168,160,195054,1,0,0:0:0:0:
92,208,195212,2,0,P|148:244|252:140,1,225
244,44,195689,2,0,P|308:64|332:104,1,112.5
252,156,196006,2,0,P|280:212|268:272,1,112.5
268,240,196324,6,0,L|436:100,1,148.500001416206
448,60,196641,6,0,P|488:104|484:160,1,112.5
384,144,196959,2,0,P|340:192|276:180,1,112.5
272,88,197276,2,0,P|216:76|128:124,1,112.5
132,288,197593,1,0,0:0:0:0:
52,244,197752,2,0,P|100:200|224:276,1,225
222,266,198228,2,0,P|288:256|320:184,1,112.5
328,100,198546,2,0,P|264:116|232:156,1,112.5
232,196,198784,5,0,0:0:0:0:
256,232,198863,1,0,0:0:0:0:
292,256,198943,1,0,0:0:0:0:
300,300,199022,1,0,0:0:0:0:
272,336,199101,1,0,0:0:0:0:
228,336,199181,6,0,P|140:320|112:268,1,112.5
148,216,199498,2,0,P|84:172|84:96,1,112.5
148,88,199816,2,0,P|200:60|272:64,1,112.5
400,156,200133,1,0,0:0:0:0:
312,176,200292,2,0,P|264:224|136:160,1,225
224,136,200768,2,0,P|224:204|256:248,1,112.5
224,136,201086,2,0,P|160:164|120:224,1,112.5
168,208,201403,6,0,L|68:88,1,148.500001416206
48,200,201720,6,0,P|24:272|28:332,1,112.5
108,272,202038,2,0,P|164:322|221:341,1,112.5
188,236,202355,2,0,P|261:215|308:178,1,112.5
364,268,202673,1,0,0:0:0:0:
392,172,202832,1,0,0:0:0:0:
312,108,202990,1,0,0:0:0:0:
460,56,203149,1,0,0:0:0:0:
308,28,203308,1,0,0:0:0:0:
436,164,203466,1,0,0:0:0:0:
296,296,203625,6,0,L|379:196,1,130.500003982544
164,312,203943,6,0,L|247:212,1,130.500003982544
144,176,204260,6,0,P|80:152|56:72,1,130.500003982544
184,108,204578,2,0,P|252:57|320:80,1,130.500003982544
268,152,204895,2,0,P|316:204|380:204,1,130.500003982544
348,120,205212,1,0,0:0:0:0:
372,208,205371,2,0,P|396:268|256:348,1,261.000007965088
124,264,205847,1,0,0:0:0:0:
308,268,206006,1,0,0:0:0:0:
204,276,206165,2,0,P|180:204|108:188,1,130.500003982544
144,208,206482,6,0,L|188:48,1,148.500001416206
344,100,206800,6,0,P|412:140|440:180,1,112.5
284,156,207117,2,0,P|232:208|184:208,1,112.5
264,80,207435,2,0,P|200:80|140:40,1,112.5
56,104,207752,1,0,0:0:0:0:
56,104,207911,6,0,P|28:160|132:292,1,225
180,340,208387,2,0,P|248:320|288:272,1,112.5
196,252,208705,2,0,P|172:200|192:136,1,112.5
212,112,208943,1,0,0:0:0:0:
248,88,209022,1,0,0:0:0:0:
292,84,209101,1,0,0:0:0:0:
336,92,209181,6,0,P|388:132|340:264,1,225
324,180,209657,2,0,L|448:160,1,112.5
324,180,209974,2,0,L|436:272,1,112.5
312,316,210292,1,0,0:0:0:0:
312,316,210451,6,0,B|232:320|180:288|132:244|48:276,1,225
88,92,210927,1,0,0:0:0:0:
224,208,211086,1,0,0:0:0:0:
44,200,211244,1,0,0:0:0:0:
196,104,211403,1,0,0:0:0:0:
124,268,211562,1,0,0:0:0:0:
88,92,211720,6,0,P|136:40|292:60,1,225
328,136,212197,2,0,P|324:208|344:256,1,112.5
416,156,212514,2,0,P|456:212|500:228,1,112.5
492,272,212752,1,0,0:0:0:0:
456,300,212832,1,0,0:0:0:0:
404,312,212911,1,0,0:0:0:0:
360,308,212990,6,0,P|296:296|248:144,1,225
340,136,213466,1,0,0:0:0:0:
248,40,213625,1,0,0:0:0:0:
156,140,213784,1,0,0:0:0:0:
72,244,213943,1,0,0:0:0:0:
164,340,214101,1,0,0:0:0:0:
260,260,214260,6,0,P|260:196|392:124,1,207.000003948212
408,208,214736,2,0,P|460:228|488:284,1,103.500001974106
396,292,215054,2,0,P|345:339|277:342,1,103.500001974106
225,341,215371,1,0,0:0:0:0:
314,347,215530,2,0,B|294:262|224:256|224:256|230:159,1,207.000003948212
272,104,216006,2,0,P|352:76|392:96,1,103.500001974106
328,164,216324,2,0,P|268:188|208:180,1,103.500001974106
88,184,216641,1,0,0:0:0:0:
88,84,216800,6,0,P|152:100|172:240,1,207.000003948212
84,288,217276,1,0,0:0:0:0:
216,328,217435,1,0,0:0:0:0:
324,268,217593,1,0,0:0:0:0:
208,220,217752,1,0,0:0:0:0:
224,176,217832,5,0,0:0:0:0:
252,136,217911,1,0,0:0:0:0:
288,108,217990,1,0,0:0:0:0:
336,96,218070,2,0,L|448:104,1,103.500001974106
456,204,218387,1,0,0:0:0:0:
376,224,218466,2,0,L|264:268,1,103.500001974106
240,268,218784,1,0,0:0:0:0:
200,256,218863,2,0,L|80:188,1,103.500001974106
280,40,219181,1,0,0:0:0:0:
268,296,219498,6,0,P|224:328|116:268,1,180
44,180,219974,1,0,0:0:0:0:
140,100,220133,2,0,P|212:88|256:112,1,90
280,198,220451,2,0,P|235:204|192:196,1,90
348,140,220768,6,0,P|388:188|392:244,1,90
348,292,221086,2,0,P|296:320|240:304,1,90
348,292,221403,2,0,P|300:264|288:224,1,90
348,292,221720,2,0,P|364:236|416:216,1,90
432,208,221959,1,0,0:0:0:0:
480,192,222038,6,0,P|456:136|320:84,1,180
256,100,222514,1,0,0:0:0:0:
144,132,222673,2,0,P|180:192|220:212,1,90
308,172,222990,2,0,P|272:112|232:92,1,90
124,192,223308,2,0,P|160:252|200:272,1,90
288,232,223625,6,0,P|252:172|212:152,1,90
236,161,223943,2,0,P|236:92|280:60,1,90
236,161,224260,2,0,P|304:148|352:168,1,90
368,176,224498,1,0,0:0:0:0:
388,220,224578,1,0,0:0:0:0:
220,320,224895,6,0,B|168:300|144:236|180:204|140:128,1,180
72,80,225371,1,0,0:0:0:0:
188,60,225530,2,0,P|248:52|288:68,1,90
188,60,225847,2,0,P|200:132|328:144,1,180
292,164,226324,2,0,P|344:168|368:296,1,180
272,304,226800,1,0,0:0:0:0:
168,248,226959,1,0,0:0:0:0:
88,140,227117,6,0,P|48:204|72:336,1,180
184,340,227593,1,0,0:0:0:0:
260,228,227752,2,0,P|312:224|336:184,1,90
376,84,228070,2,0,P|320:88|284:116,1,90
356,168,228387,6,0,P|412:168|460:40,1,180
256,188,228863,1,0,0:0:0:0:
156,64,229022,1,0,0:0:0:0:
356,64,229181,1,0,0:0:0:0:
256,116,229339,1,0,0:0:0:0:
256,276,229498,1,0,0:0:0:0:
256,284,229578,1,0,0:0:0:0:
256,292,229657,1,0,0:0:0:0:
256,188,229974,5,0,0:0:0:0:
256,192,230054,12,0,232276,0:0:0:0:
