osu file format v14

[General]
AudioFilename: ho.mp3
AudioLeadIn: 0
PreviewTime: 128974
Countdown: 0
SampleSet: Normal
StackLeniency: 0.3
Mode: 0
LetterboxInBreaks: 1
WidescreenStoryboard: 1

[Editor]
Bookmarks: 41971,115667
DistanceSpacing: 1.1
BeatDivisor: 4
GridSize: 4
TimelineZoom: 1.6

[Metadata]
Title:Oato ga Yoroshikutte... yo!
TitleUnicode:お後がよろしくって...よ!
Artist:Goku Rakujokai
ArtistUnicode:Goku Rakujokai
Creator:Anxient
Version:Hard
Source:Joshiraku
Tags:rakugo -July- full size anime
BeatmapID:646094
BeatmapSetID:286147

[Difficulty]
HPDrainRate:5
CircleSize:4
OverallDifficulty:5
ApproachRate:7
SliderMultiplier:1.5
SliderTickRate:1

[Events]
//Background and Video events
0,0,"Joshiraku%20-%20OP%20-%20Large%2002.jpg",0,0
//Break Periods
2,91470,100185
2,152423,158916
2,170200,176693
//Storyboard Layer 0 (Background)
//Storyboard Layer 1 (Fail)
//Storyboard Layer 2 (Pass)
//Storyboard Layer 3 (Foreground)
//Storyboard Sound Samples

[TimingPoints]
1086,317.460317460317,4,1,0,50,1,0
17572,-117.647058823529,4,1,0,100,0,0
19794,-100,4,1,0,100,0,0
20112,-117.647058823529,4,1,0,100,0,0
22324,-100,4,1,0,100,0,0
22651,-117.647058823529,4,1,0,100,0,0
27413,-100,4,1,0,100,0,0
27731,-105.263157894737,4,1,0,100,0,0
29953,-90.9090909090909,4,1,0,100,0,0
30270,-100,4,1,0,100,0,0
32493,-100,4,1,0,100,0,0
37889,-133.333333333333,4,1,0,100,0,0
45508,-133.333333333333,4,1,0,100,0,0
48048,-117.647058823529,4,1,0,100,0,0
55689,-83.3333333333333,4,1,0,100,0,1
57889,-66.6666666666667,4,1,0,100,0,1
58048,-83.3333333333333,4,1,0,100,0,1
62969,-66.6666666666667,4,1,0,100,0,1
63048,-66.6666666666667,4,1,0,100,0,1
63148,-83.3333333333333,4,1,0,100,0,1
65847,-83.3333333333333,4,1,0,50,0,1
68048,-66.6666666666667,4,1,0,100,0,1
68207,-83.3333333333333,4,1,0,100,0,1
73127,-66.6666666666667,4,1,0,100,0,1
73445,-100,4,1,0,100,0,1
81085,-100,4,1,0,100,0,0
101434,-100,4,1,0,100,0,0
111579,-117.647058823529,4,1,0,100,0,0
119159,-105.263157894737,4,1,0,100,0,0
129339,-80,4,1,0,100,0,1
131578,-66.6666666666667,4,1,0,100,0,1
131738,-80,4,1,0,100,0,1
136658,-66.6666666666667,4,1,0,100,0,1
136817,-80,4,1,0,100,0,1
141699,-66.6666666666667,4,1,0,100,0,1
141858,-80,4,1,0,100,0,1
146822,-66.6666666666667,4,1,0,100,0,1
146981,-80,4,1,0,100,0,1
149683,-100,4,1,0,100,0,0
177593,-117.647058823529,4,1,0,100,0,0
180768,-100,4,1,0,100,0,0
181108,-117.647058823529,4,1,0,100,0,0
186505,-90.9090909090909,4,1,0,100,0,0
186822,-66.6666666666667,4,1,0,100,0,0
186981,-90.9090909090909,4,1,0,100,0,0
187752,-83.3333333333333,4,1,0,100,0,0
188092,-62.5,4,1,0,100,0,0
188387,-83.3333333333333,4,1,0,100,0,0
189022,-90.9090909090909,4,1,0,100,0,1
191267,-60.6060606060606,4,1,0,100,0,1
191425,-90.9090909090909,4,1,0,100,0,1
193466,-83.3333333333333,4,1,0,100,0,1
193973,-90.9090909090909,4,1,0,100,0,1
196346,-60.6060606060606,4,1,0,100,0,1
196505,-90.9090909090909,4,1,0,100,0,1
201428,-60.6060606060606,4,1,0,100,0,1
201589,-80,4,1,0,100,0,1
203656,-90.9090909090909,4,1,0,100,0,1
206513,-60.6060606060606,4,1,0,100,0,1
206672,-90.9090909090909,4,1,0,100,0,1
214260,-86.9565217391304,4,1,0,100,0,1
219498,-100,4,1,0,100,0,0

[Colours]
Combo1 : 190,121,27
Combo2 : 239,1,1
Combo3 : 253,231,74
Combo4 : 21,134,91
Combo5 : 74,102,149

[HitObjects]
72,208,1086,5,0,0:0:0:0:
144,160,1244,1,0,0:0:0:0:
208,208,1403,2,0,P|256:216|312:200,1,75
328,136,1720,2,0,P|294:127|248:136,1,75
192,80,2038,6,0,P|232:48|352:48,1,150
444,136,2673,1,0,0:0:0:0:
376,184,2832,1,0,0:0:0:0:
444,232,2990,1,0,0:0:0:0:
376,288,3149,2,0,L|412:344,2,37.5
208,320,3625,6,0,P|144:304|128:280,1,75
192,232,3943,2,0,P|128:216|112:192,1,75
88,144,4260,2,0,P|128:112|168:112,2,75
24,208,4736,2,0,P|24:264|103:309,1,150
108,228,5212,1,0,0:0:0:0:
180,268,5371,1,0,0:0:0:0:
244,216,5530,1,0,0:0:0:0:
296,284,5689,2,0,L|336:252,6,37.5
408,144,6482,5,0,0:0:0:0:
256,72,6800,1,0,0:0:0:0:
256,72,6959,1,0,0:0:0:0:
256,72,7117,2,0,P|192:72|104:128,1,150
232,240,7752,2,0,P|280:280|312:280,1,75
396,248,8070,2,0,P|356:208|332:200,1,75
268,148,8387,2,0,P|211:163|180:188,1,75
96,200,8705,1,0,0:0:0:0:
208,324,9022,5,0,0:0:0:0:
320,180,9339,1,0,0:0:0:0:
320,180,9498,1,0,0:0:0:0:
320,180,9657,2,0,P|368:136|360:36,1,150
288,48,10133,1,0,0:0:0:0:
196,76,10292,2,0,P|140:100|124:136,1,75
124,216,10609,2,0,P|180:192|196:156,1,75
256,132,10927,2,0,P|308:136|336:160,1,75
368,212,11244,1,0,0:0:0:0:
252,320,11562,6,0,P|200:332|180:320,1,75
116,268,11879,2,0,P|160:240|204:240,1,75
264,208,12197,1,0,0:0:0:0:
344,252,12355,1,0,0:0:0:0:
408,200,12514,2,0,P|440:160|424:68,1,150
364,124,12990,2,0,P|328:108|216:160,1,150
188,212,13466,1,0,0:0:0:0:
112,176,13625,1,0,0:0:0:0:
156,104,13784,5,0,0:0:0:0:
156,104,14101,1,0,0:0:0:0:
156,104,14260,1,0,0:0:0:0:
156,104,14419,2,0,P|204:76|248:80,1,75
304,72,14736,2,0,P|340:78|370:101,1,75
256,192,15054,12,0,16324,0:0:0:0:
252,224,16641,6,0,P|312:208|332:184,1,75
324,88,16959,2,0,P|260:72|232:72,1,75
180,108,17276,2,0,L|128:136,2,37.5
156,36,17593,1,0,0:0:0:0:
80,220,17911,5,0,0:0:0:0:
80,220,18070,1,0,0:0:0:0:
80,220,18228,2,0,P|88:256|172:300,1,127.50000243187
168,216,18705,2,0,P|208:200|292:244,1,127.50000243187
328,308,19181,1,0,0:0:0:0:
396,252,19339,1,0,0:0:0:0:
348,176,19498,1,0,0:0:0:0:
412,116,19657,1,0,0:0:0:0:
412,116,19816,6,0,P|372:60|272:68,1,150
72,192,20451,5,0,0:0:0:0:
72,192,20609,1,0,0:0:0:0:
72,192,20768,2,0,P|84:232|164:256,1,127.50000243187
236,288,21244,2,0,P|276:264|296:176,1,127.50000243187
328,116,21720,2,0,P|360:72|388:56,1,63.7500012159348
412,144,22038,2,0,P|448:168|460:192,1,63.7500012159348
448,276,22355,6,0,P|407:306|297:268,1,150
256,332,22990,5,0,0:0:0:0:
256,332,23149,1,0,0:0:0:0:
256,332,23308,2,0,P|188:328|144:264,1,127.50000243187
232,244,23784,1,0,0:0:0:0:
232,244,23943,2,0,L|172:192,1,63.7500012159348
164,120,24260,1,0,0:0:0:0:
340,144,24578,2,0,P|380:108|368:32,1,127.50000243187
204,100,25212,6,0,L|136:156,1,63.7500012159348
80,188,25530,1,0,0:0:0:0:
80,188,25689,2,0,L|148:244,1,63.7500012159348
176,304,26006,1,0,0:0:0:0:
176,304,26165,1,0,0:0:0:0:
176,304,26324,2,0,P|224:288|272:208,1,127.50000243187
268,140,26800,1,0,0:0:0:0:
268,48,27117,1,0,0:0:0:0:
398,79,27435,5,0,0:0:0:0:
432,180,27752,1,0,0:0:0:0:
220,208,28070,5,0,0:0:0:0:
256,300,28228,1,0,0:0:0:0:
344,336,28387,2,0,P|404:344|448:272,1,142.49999619484
364,244,28863,2,0,P|344:208|372:108,1,142.49999619484
316,36,29339,1,0,0:0:0:0:
228,72,29498,1,0,0:0:0:0:
148,116,29657,1,0,0:0:0:0:
228,172,29816,1,0,0:0:0:0:
148,232,29974,6,0,P|196:281|244:277,1,82.5000025177003
324,260,30292,2,0,P|280:212|244:212,1,75
164,172,30609,5,0,0:0:0:0:
64,208,30768,1,0,0:0:0:0:
144,276,30927,2,0,P|200:312|292:284,1,150
252,208,31403,2,0,P|304:176|412:216,1,150
464,240,31879,1,0,0:0:0:0:
500,140,32038,1,0,0:0:0:0:
396,116,32197,2,0,P|336:112|296:88,1,75
224,68,32514,6,0,P|168:48|124:56,1,75
60,96,32832,2,0,P|104:128|140:128,1,75
200,176,33149,5,0,0:0:0:0:
260,244,33308,1,0,0:0:0:0:
184,304,33466,2,0,P|136:328|48:276,1,150
128,236,33943,2,0,P|112:184|160:92,1,150
220,44,34419,1,0,0:0:0:0:
384,120,34736,2,0,P|376:168|288:232,1,150
212,216,35212,6,0,P|160:208|128:176,1,75
140,112,35530,1,0,0:0:0:0:
224,120,35847,2,0,P|276:128|312:160,1,75
256,192,36324,12,0,37911,0:0:0:0:
124,192,38228,5,0,0:0:0:0:
200,80,38546,2,0,P|240:72|328:80,2,112.500004291535
164,92,39339,1,0,0:0:0:0:
88,156,39657,1,0,0:0:0:0:
88,156,39816,2,0,P|112:196|188:228,1,112.500004291535
248,268,40292,1,0,0:0:0:0:
320,216,40451,6,0,P|356:192|368:160,1,56.2500021457673
432,124,40768,2,0,P|408:80|388:64,1,56.2500021457673
316,92,41085,2,0,P|280:116|268:148,1,56.2500021457673
220,196,41403,1,0,0:0:0:0:
140,240,41562,1,0,0:0:0:0:
48,268,41720,2,0,P|32:316|72:368,3,112.500004291535
148,316,42832,1,0,0:0:0:0:
248,284,42990,6,0,L|372:240,1,112.500004291535
372,160,43466,1,0,0:0:0:0:
372,160,43625,2,0,L|248:176,1,112.500004291535
192,116,44101,1,0,0:0:0:0:
108,144,44260,2,0,P|72:172|64:196,1,56.2500021457673
168,272,44736,1,0,0:0:0:0:
168,272,44895,2,0,P|192:240|284:224,1,112.500004291535
336,268,45371,1,0,0:0:0:0:
404,208,45530,6,0,L|432:160,1,56.2500021457673
376,64,45847,2,0,L|348:112,1,56.2500021457673
260,136,46165,2,0,L|200:96,1,56.2500021457673
124,124,46482,2,0,L|60:164,1,56.2500021457673
116,236,46800,2,0,L|164:296,3,56.2500021457673
240,304,47435,2,0,L|304:256,1,56.2500021457673
296,180,47752,2,0,L|364:220,1,56.2500021457673
380,292,48070,6,0,P|420:264|424:164,1,127.50000243187
372,128,48546,1,0,0:0:0:0:
313,197,48705,2,0,P|291:255|236:284,1,127.50000243187
172,220,49181,1,0,0:0:0:0:
204,136,49339,2,0,P|220:84|304:56,1,127.50000243187
372,56,49816,1,0,0:0:0:0:
404,132,49974,2,0,P|362:166|276:144,1,127.50000243187
224,116,50451,1,0,0:0:0:0:
144,144,50609,6,0,L|72:184,1,63.7500012159348
80,264,50927,2,0,L|152:228,1,63.7500012159348
264,196,51244,2,0,L|213:260,1,63.7500012159348
252,332,51562,2,0,L|304:270,1,63.7500012159348
372,199,51879,6,0,L|373:281,1,63.7500012159348
448,312,52197,2,0,L|450:231,1,63.7500012159348
444,160,52514,1,0,0:0:0:0:
444,160,52673,1,0,0:0:0:0:
256,132,52990,1,0,0:0:0:0:
256,192,53070,12,0,54578,0:0:0:0:
256,192,55054,5,0,0:0:0:0:
256,108,55212,1,0,0:0:0:0:
256,24,55371,1,0,0:0:0:0:
88,184,55689,6,0,L|152:268,1,89.9999972534181
180,164,56006,2,0,L|116:84,1,89.9999972534181
224,84,56324,2,0,L|288:176,1,89.9999972534181
296,248,56641,1,0,0:0:0:0:
296,248,56800,2,0,B|360:228|372:184|368:88,1,179.999994506836
424,32,57276,1,0,0:0:0:0:
460,120,57435,2,0,P|420:164|380:168,1,89.9999972534181
468,228,57752,2,0,P|428:272|388:276,1,89.9999972534181
224,268,58228,6,0,P|168:208|168:176,1,89.9999972534181
200,112,58546,2,0,P|256:172|256:204,1,89.9999972534181
292,260,58863,1,0,0:0:0:0:
372,220,59022,1,0,0:0:0:0:
308,160,59181,1,0,0:0:0:0:
360,88,59339,1,0,0:0:0:0:
276,52,59498,2,0,L|160:52,1,89.9999972534181
96,128,59816,2,0,L|208:128,1,89.9999972534181
276,128,60133,5,0,0:0:0:0:
276,252,60451,1,0,0:0:0:0:
148,252,60768,6,0,P|144:304|140:360,1,89.9999972534181
64,296,61085,2,0,P|64:228|80:188,1,89.9999972534181
144,156,61403,2,0,P|204:124|232:132,2,89.9999972534181
144,156,61879,2,0,P|176:204|324:196,1,179.999994506836
288,128,62355,2,0,P|368:160|384:196,1,89.9999972534181
408,240,62673,2,0,P|454:192|452:147,1,89.9999972534181
420,64,62990,1,0,0:0:0:0:
420,64,63308,6,0,L|328:136,1,89.9999972534181
368,208,63625,2,0,L|272:288,1,89.9999972534181
228,208,63943,2,0,P|176:192|160:160,2,89.9999972534181
316,232,64419,2,0,P|344:280|256:332,1,179.999994506836
172,308,64895,1,0,0:0:0:0:
88,272,65054,1,0,0:0:0:0:
56,192,65212,2,0,P|32:132|32:104,1,75
100,40,65530,2,0,P|124:100|124:128,1,75
164,196,65847,6,0,P|195:227|238:237,1,89.9999972534181
304,304,66165,1,0,0:0:0:0:
376,248,66324,1,0,0:0:0:0:
392,336,66482,2,0,P|452:312|464:272,1,89.9999972534181
460,204,66800,1,0,0:0:0:0:
400,136,66959,2,0,B|364:108|324:96|280:164|224:128|216:100,1,179.999994506836
160,60,67435,2,0,P|104:92|76:132,1,89.9999972534181
40,188,67752,2,0,P|40:240|64:276,2,89.9999972534181
132,300,68387,6,0,P|192:292|216:272,1,89.9999972534181
264,188,68705,2,0,P|208:184|164:212,1,89.9999972534181
120,132,69022,2,0,P|168:112|196:60,1,89.9999972534181
256,32,69339,1,0,0:0:0:0:
308,104,69498,1,0,0:0:0:0:
360,180,69657,2,0,P|392:216|432:224,3,89.9999972534181
431,224,70292,5,0,0:0:0:0:
412,256,70609,1,0,0:0:0:0:
388,292,70927,6,0,L|284:252,1,89.9999972534181
276,164,71244,2,0,L|396:204,1,89.9999972534181
448,144,71562,1,0,0:0:0:0:
380,72,71720,1,0,0:0:0:0:
284,48,71879,1,0,0:0:0:0:
184,56,72038,2,0,P|104:80|68:188,1,179.999994506836
64,244,72514,1,0,0:0:0:0:
124,316,72673,1,0,0:0:0:0:
212,320,72832,2,0,P|280:272|280:176,2,179.999994506836
212,320,73625,5,0,0:0:0:0:
256,100,74101,1,0,0:0:0:0:
256,100,74260,1,0,0:0:0:0:
229,181,74578,6,0,P|230:268|296:320,1,150
324,248,75054,2,0,P|392:240|404:224,1,75
420,160,75371,1,0,0:0:0:0:
280,72,75689,5,0,0:0:0:0:
280,72,75847,2,0,B|400:72|400:72|384:128,1,150
328,156,76324,2,0,P|324:224|304:260,1,75
288,304,76641,1,0,0:0:0:0:
220,200,76959,5,0,0:0:0:0:
220,200,77117,2,0,B|130:280|130:280|105:227,1,150
128,169,77593,2,0,P|85:115|76:75,1,75
58,32,77911,1,0,0:0:0:0:
256,68,78228,5,0,0:0:0:0:
256,68,78387,2,0,P|296:100|296:212,1,150
228,164,78863,2,0,P|220:228|232:256,1,75
276,344,79181,2,0,P|292:300|288:260,1,75
308,192,79498,2,0,P|340:140|444:160,1,150
422,138,79974,5,0,0:0:0:0:
456,212,80133,1,0,0:0:0:0:
404,272,80292,1,0,0:0:0:0:
324,296,80451,2,0,P|280:316|248:312,1,75
200,252,80768,1,0,0:0:0:0:
256,96,81085,5,0,0:0:0:0:
256,192,81165,12,0,83625,0:0:0:0:
144,152,83943,6,0,P|176:112|288:92,1,150
368,232,84578,2,0,P|336:272|224:292,1,150
256,192,85212,2,0,P|308:148|400:148,2,150
196,240,86006,1,0,0:0:0:0:
132,200,86165,1,0,0:0:0:0:
280,188,86482,6,0,P|324:168|444:196,1,150
452,252,86959,1,0,0:0:0:0:
396,304,87117,2,0,P|348:344|308:340,1,75
324,272,87435,2,0,P|264:272|184:192,1,150
280,188,87911,2,0,P|316:128|284:44,1,150
240,116,88387,2,0,L|344:124,1,75
396,128,88705,6,0,P|432:160|420:276,1,150
368,308,89181,2,0,P|336:336|284:344,1,75
204,284,89498,2,0,P|256:288|296:272,1,75
320,180,89816,2,0,P|280:208|236:208,1,75
256,192,90054,12,0,91244,0:0:0:0:
256,192,101085,5,0,0:0:0:0:
256,192,101403,1,0,0:0:0:0:
384,112,101720,2,0,P|360:68|308:56,1,75
284,108,102038,2,0,P|228:88|120:140,1,150
84,160,102514,2,0,P|52:200|76:308,1,150
120,340,102990,2,0,P|144:280|136:248,1,75
212,244,103308,2,0,P|200:200|200:144,1,75
240,108,103625,5,0,0:0:0:0:
320,252,103943,1,0,0:0:0:0:
472,348,104260,6,0,P|456:304|472:260,1,75
476,204,104578,2,0,P|448:156|340:132,1,150
372,200,105054,2,0,P|312:184|288:92,1,150
356,84,105530,2,0,P|368:28|340:0,1,75
288,32,105847,2,0,P|224:12|196:28,1,75
168,68,106165,6,0,P|136:116|44:152,1,150
160,240,106800,5,0,0:0:0:0:
160,240,106959,1,0,0:0:0:0:
160,240,107117,2,0,P|208:280|304:256,1,150
236,208,107593,2,0,P|196:156|96:176,1,150
48,204,108070,1,0,0:0:0:0:
212,280,108387,2,0,P|164:240|192:144,1,150
236,92,108863,1,0,0:0:0:0:
324,68,109022,6,0,L|400:144,1,75
340,296,109498,2,0,L|300:212,1,75
256,192,109974,12,0,111562,0:0:0:0:
76,100,111879,5,0,0:0:0:0:
184,60,112197,2,0,P|224:48|316:96,1,127.50000243187
348,136,112673,1,0,0:0:0:0:
292,188,112832,2,0,L|228:256,1,63.7500012159348
100,196,113308,1,0,0:0:0:0:
100,196,113466,2,0,P|108:240|200:288,1,127.50000243187
184,204,113943,1,0,0:0:0:0:
256,244,114101,5,0,0:0:0:0:
388,140,114419,1,0,0:0:0:0:
324,76,114578,1,0,0:0:0:0:
412,60,114736,2,0,P|448:80|472:124,1,63.7500012159348
344,232,115212,1,0,0:0:0:0:
296,308,115371,2,0,P|356:328|420:292,2,127.50000243187
208,256,116324,1,0,0:0:0:0:
124,312,116641,6,0,P|72:320|28:252,1,127.50000243187
104,236,117276,2,0,P|136:180|128:104,1,127.50000243187
76,60,117752,1,0,0:0:0:0:
160,28,117911,2,0,P|216:20|288:68,1,127.50000243187
324,128,118387,1,0,0:0:0:0:
240,160,118546,2,0,P|184:168|164:192,1,63.7500012159348
236,240,118863,2,0,L|316:224,1,63.7500012159348
376,160,119181,5,0,0:0:0:0:
444,232,119339,1,0,0:0:0:0:
380,300,119498,2,0,P|360:336|312:356,1,71.2499980974198
232,328,119816,2,0,P|256:292|300:284,1,71.2499980974198
360,236,120133,1,0,0:0:0:0:
432,176,120292,1,0,0:0:0:0:
364,116,120451,5,0,0:0:0:0:
436,56,120609,1,0,0:0:0:0:
352,16,120768,1,0,0:0:0:0:
276,68,120927,1,0,0:0:0:0:
112,288,121403,5,0,0:0:0:0:
112,288,121720,2,0,P|94:243|112:198,1,71.2499980974198
111,114,122038,2,0,P|146:141|167:193,1,71.2499980974198
252,228,122355,2,0,P|234:183|252:138,1,71.2499980974198
243,54,122673,2,0,P|278:81|299:133,1,71.2499980974198
324,184,122990,2,0,B|352:228|316:272|284:288|272:312|284:340|336:352|384:352|424:344|448:312,2,284.999992389679
256,192,124339,12,0,125847,0:0:0:0:
256,192,126165,6,0,L|256:120,1,71.2499980974198
256,48,126641,1,0,0:0:0:0:
256,192,126720,12,0,128070,0:0:0:0:
76,212,128705,6,0,L|132:140,1,71.2499980974198
172,88,129022,1,0,0:0:0:0:
356,52,129339,6,0,P|400:88|408:128,1,93.75
368,208,129657,2,0,L|504:208,1,93.75
412,288,129974,2,0,L|300:288,1,93.75
228,260,130292,1,0,0:0:0:0:
148,212,130451,2,0,P|104:152|184:92,1,187.5
264,144,130927,2,0,P|308:128|340:76,1,93.75
252,52,131244,2,0,P|200:16|144:20,1,93.75
80,36,131562,1,0,0:0:0:0:
76,240,131879,6,0,L|160:340,1,93.75
168,212,132197,2,0,L|236:140,1,93.75
244,248,132514,2,0,L|304:332,2,93.75
324,184,132990,1,0,0:0:0:0:
268,108,133149,2,0,P|216:72|168:72,3,93.75
92,72,133784,5,0,0:0:0:0:
36,276,134101,1,0,0:0:0:0:
220,236,134419,6,0,P|272:212|288:164,1,93.75
268,92,134736,2,0,P|212:108|184:144,1,93.75
288,180,135054,2,0,P|352:216|392:204,1,93.75
424,140,135371,1,0,0:0:0:0:
424,140,135530,2,0,P|452:184|396:304,1,187.5
320,336,136006,2,0,P|256:360|216:344,1,93.75
160,296,136324,1,0,0:0:0:0:
184,264,136641,5,0,0:0:0:0:
208,232,136959,6,0,P|208:180|184:128,1,93.75
72,124,137276,2,0,P|72:172|100:216,1,93.75
160,296,137593,2,0,P|208:328|248:316,1,93.75
300,248,137911,1,0,0:0:0:0:
356,176,138070,2,0,P|408:156|516:248,1,187.5
428,236,138546,2,0,P|388:296|332:300,1,93.75
300,248,138863,2,0,P|244:244|208:116,1,187.5
68,56,139498,6,0,P|24:80|4:124,1,93.75
88,136,139816,2,0,P|124:180|128:224,1,93.75
44,212,140133,2,0,P|20:256|20:312,2,93.75
88,136,140609,2,0,P|136:104|260:132,1,187.5
200,192,141085,2,0,P|264:240|312:232,1,93.75
320,168,141403,2,0,P|384:188|396:244,2,93.75
156,132,142038,6,0,P|112:160|92:296,1,187.5
128,356,142514,1,0,0:0:0:0:
172,272,142673,2,0,P|220:204|216:168,1,93.75
156,132,142990,2,0,P|200:112|264:120,1,93.75
320,172,143308,2,0,L|376:264,3,93.75
448,224,143943,6,0,P|452:276|328:324,1,187.5
208,240,144578,6,0,L|96:240,1,93.75
52,312,144895,2,0,L|164:312,1,93.75
240,308,145212,2,0,P|280:264|264:196,1,93.75
252,144,145530,1,0,0:0:0:0:
176,196,145689,2,0,P|212:228|340:176,1,187.5
344,100,146165,2,0,P|376:56|428:52,1,93.75
448,136,146482,2,0,P|476:184|472:236,2,93.75
268,192,147117,6,0,L|156:252,1,93.75
148,148,147435,2,0,P|84:104|36:116,1,93.75
20,184,147752,1,0,0:0:0:0:
72,260,147911,1,0,0:0:0:0:
16,336,148070,1,0,0:0:0:0:
108,328,148228,2,0,P|148:280|88:184,1,187.5
92,184,148705,2,0,P|116:144|248:192,1,187.5
352,312,149339,6,0,P|376:256|340:120,1,187.5
256,192,149736,12,0,152197,0:0:0:0:
116,136,159816,6,0,P|152:108|204:112,2,75
184,180,160292,2,0,P|160:216|160:260,2,75
236,240,160768,2,0,P|232:284|252:328,2,75
308,268,161244,1,0,0:0:0:0:
368,212,161403,1,0,0:0:0:0:
304,160,161562,1,0,0:0:0:0:
364,104,161720,2,0,P|408:76|436:72,2,75
304,160,162197,1,0,0:0:0:0:
232,120,162355,5,0,0:0:0:0:
140,120,162514,2,0,L|100:136,2,37.5
208,48,162832,1,0,0:0:0:0:
312,44,162990,2,0,L|352:44,3,37.5
349,44,163308,2,0,P|400:60|436:168,1,150
344,132,163784,1,0,0:0:0:0:
284,196,163943,1,0,0:0:0:0:
352,256,164101,1,0,0:0:0:0:
292,312,164260,5,0,0:0:0:0:
212,272,164419,1,0,0:0:0:0:
148,220,164578,2,0,P|112:180|112:140,1,75
180,120,164895,6,0,L|240:48,1,75
324,68,165212,2,0,L|272:136,1,75
200,188,165530,2,0,P|152:204|100:188,2,75
200,188,166006,2,0,P|248:220|216:320,1,150
172,340,166482,1,0,0:0:0:0:
104,304,166641,1,0,0:0:0:0:
56,236,166800,5,0,0:0:0:0:
72,200,167117,1,0,0:0:0:0:
88,160,167435,2,0,P|84:108|56:68,1,75
172,92,167752,2,0,P|208:60|256:56,1,75
252,152,168070,2,0,P|288:192|292:236,3,75
256,304,168705,1,0,0:0:0:0:
256,192,168784,12,0,169974,0:0:0:0:
124,192,177593,6,0,P|144:160|244:156,1,127.50000243187
388,192,178228,2,0,P|368:224|268:228,1,127.50000243187
272,68,178863,2,0,P|317:109|316:171,1,127.50000243187
240,316,179498,2,0,P|194:274|195:212,1,127.50000243187
316,171,180133,2,0,P|364:184|408:268,1,127.50000243187
195,212,180768,2,0,P|148:200|104:112,1,150
256,68,181403,2,0,P|288:108|256:300,2,255.000004863739
256,192,182752,12,0,184578,0:0:0:0:
256,192,185054,12,0,186482,0:0:0:0:
144,168,186800,5,0,0:0:0:0:
288,88,187117,6,0,P|344:92|376:112,1,82.5000025177003
424,164,187435,1,0,0:0:0:0:
244,184,187752,6,0,P|208:216|152:224,1,89.9999972534181
72,220,188070,1,0,0:0:0:0:
220,288,188387,6,0,P|276:320|324:320,1,89.9999972534181
368,276,188705,1,0,0:0:0:0:
276,136,189022,6,0,P|232:104|192:104,1,82.5000025177003
160,180,189339,2,0,P|116:216|80:224,1,82.5000025177003
60,152,189657,2,0,P|40:104|48:56,2,82.5000025177003
92,224,190133,2,0,P|112:276|236:288,1,165.000005035401
272,232,190609,2,0,P|284:176|264:144,2,82.5000025177003
208,304,191085,1,0,0:0:0:0:
112,332,191244,1,0,0:0:0:0:
104,148,191562,6,0,P|88:88|60:64,1,82.5000025177003
156,48,191879,2,0,P|204:28|256:32,1,82.5000025177003
216,104,192197,2,0,P|236:152|272:172,1,82.5000025177003
312,92,192514,1,0,0:0:0:0:
312,92,192752,1,0,0:0:0:0:
332,172,192990,2,0,P|400:208|432:200,2,82.5000025177003
332,172,193466,2,0,P|204:216|176:272,1,179.999994506836
312,304,194101,6,0,P|364:312|420:288,1,82.5000025177003
452,244,194419,2,0,P|408:208|356:208,1,82.5000025177003
300,196,194736,2,0,P|328:136|364:120,2,82.5000025177003
260,268,195212,2,0,B|216:312|128:244|80:244|56:272|56:320|96:324,1,247.500007553101
168,176,196006,1,0,0:0:0:0:
256,88,196324,1,0,0:0:0:0:
148,44,196641,6,0,P|92:40|56:64,1,82.5000025177003
44,132,196959,2,0,P|16:184|20:232,1,82.5000025177003
96,196,197276,2,0,P|136:216|196:196,1,82.5000025177003
236,160,197593,1,0,0:0:0:0:
300,108,197752,2,0,B|360:92|392:104|408:144|368:184|348:192|344:200|356:216|384:224|384:240|372:288,1,247.500007553101
300,324,198387,2,0,P|252:348|212:332,1,82.5000025177003
156,264,198863,5,0,0:0:0:0:
80,180,199181,6,0,P|60:120|76:84,1,82.5000025177003
148,28,199498,2,0,P|164:76|152:120,1,82.5000025177003
176,188,199816,2,0,P|232:204|272:192,2,82.5000025177003
176,188,200292,2,0,P|164:240|320:304,1,247.500007553101
252,240,200927,2,0,P|300:200|304:168,3,82.5000025177003
452,128,201720,6,0,P|436:80|396:68,1,93.75
304,64,202038,1,0,0:0:0:0:
220,108,202197,1,0,0:0:0:0:
136,64,202355,2,0,P|88:36|48:36,1,93.75
68,128,202673,2,0,P|44:184|48:228,1,93.75
92,296,202990,2,0,P|48:344|8:348,2,93.75
148,220,203466,1,0,0:0:0:0:
232,176,203625,5,0,0:0:0:0:
268,152,203943,1,0,0:0:0:0:
304,128,204260,6,0,P|352:80|352:48,1,82.5000025177003
272,52,204578,2,0,P|208:52|180:72,1,82.5000025177003
144,128,204895,2,0,P|88:164|44:156,1,82.5000025177003
0,116,205212,1,0,0:0:0:0:
76,80,205371,2,0,P|120:48|220:100,1,165.000005035401
260,156,205847,2,0,P|288:220|280:256,1,82.5000025177003
248,304,206165,5,0,0:0:0:0:
208,328,206482,1,0,0:0:0:0:
160,332,206800,6,0,L|72:304,1,82.5000025177003
36,240,207117,2,0,P|80:200|128:200,1,82.5000025177003
180,171,207435,2,0,P|183:212|164:248,2,82.5000025177003
120,116,207911,2,0,P|156:84|288:96,1,165.000005035401
300,160,208387,2,0,P|332:196|376:200,2,82.5000025177003
188,280,209022,5,0,0:0:0:0:
188,280,209181,2,0,P|224:316|336:296,1,165.000005035401
384,244,209657,2,0,P|428:224|488:240,2,82.5000025177003
280,116,210292,1,0,0:0:0:0:
280,116,210451,6,0,B|260:76|272:52|436:48,1,165.000005035401
404,132,210927,2,0,P|380:168|332:184,2,82.5000025177003
200,188,211562,1,0,0:0:0:0:
200,188,211720,6,0,P|140:212|56:132,1,165.000005035401
68,76,212197,2,0,P|112:48|156:48,2,82.5000025177003
80,268,212832,1,0,0:0:0:0:
80,268,212990,6,0,P|108:304|224:288,1,165.000005035401
276,240,213466,2,0,P|316:220|368:232,2,82.5000025177003
216,120,214101,1,0,0:0:0:0:
168,192,214260,6,0,P|152:236|232:328,1,172.500003290176
240,240,214736,2,0,P|268:204|276:144,1,86.2500016450882
260,80,215054,1,0,0:0:0:0:
324,24,215212,1,0,0:0:0:0:
404,52,215371,1,0,0:0:0:0:
452,124,215530,6,0,P|456:172|360:252,1,172.500003290176
296,212,216006,1,0,0:0:0:0:
220,172,216165,1,0,0:0:0:0:
136,196,216324,2,0,P|64:224|52:248,1,86.2500016450882
12,300,216641,1,0,0:0:0:0:
88,340,216800,6,0,P|136:368|256:344,1,172.500003290176
316,296,217276,2,0,P|360:280|408:308,1,86.2500016450882
452,360,217593,2,0,P|476:304|472:252,1,86.2500016450882
444,200,217911,1,0,0:0:0:0:
392,132,218070,1,0,0:0:0:0:
328,76,218228,6,0,P|272:52|228:48,1,86.2500016450882
160,60,218546,1,0,0:0:0:0:
24,168,218863,5,0,0:0:0:0:
80,232,219022,2,0,P|124:268|164:268,1,86.2500016450882
256,192,219498,12,0,222038,0:0:0:0:
308,228,222355,6,0,P|328:184|272:80,1,150
204,156,222990,2,0,P|184:200|240:304,1,150
368,296,223625,2,0,P|392:252|360:152,2,150
304,336,224419,1,0,0:0:0:0:
232,348,224578,1,0,0:0:0:0:
112,288,224895,6,0,P|80:256|100:136,1,150
132,84,225371,1,0,0:0:0:0:
204,140,225530,2,0,P|224:72|216:44,1,75
223,69,225847,2,0,P|264:48|360:88,1,150
284,124,226324,2,0,P|296:164|224:248,1,150
216,164,226800,2,0,P|176:156|124:180,1,75
68,200,227117,1,0,0:0:0:0:
248,312,227435,5,0,0:0:0:0:
316,256,227593,1,0,0:0:0:0:
372,328,227752,1,0,0:0:0:0:
432,260,227911,1,0,0:0:0:0:
376,188,228070,2,0,P|352:132|368:92,1,75
400,44,228387,1,0,0:0:0:0:
256,192,228466,12,0,229657,0:0:0:0:
256,192,229974,12,0,232197,0:0:0:0:
