osu file format v9

[General]
AudioFilename: Oato Yoroshikutte... Yo! (TV Size).mp3
AudioLeadIn: 1500
PreviewTime: 55247
Countdown: 0
SampleSet: Normal
StackLeniency: 0.7
Mode: 0
LetterboxInBreaks: 0

[Editor]
DistanceSpacing: 0.6
BeatDivisor: 4
GridSize: 4

[Metadata]
Title:Oato ga Yoroshikutte... Yo! (TV Size)
Artist:Goku Rakujokai
Creator:Kawayi Rika
Version:Rika
Source:Joshiraku
Tags:Vicho-kun Melophobia JoJo climbb65588 kanpakyin opening

[Difficulty]
HPDrainRate:8
CircleSize:4
OverallDifficulty:8
ApproachRate:9
SliderMultiplier:1.9
SliderTickRate:1

[Events]
//Background and Video events
Video,0,"JoshirakuOP.avi"
0,0,"BG.jpg"
//Break Periods
//Storyboard Layer 0 (Background)
//Storyboard Layer 1 (Fail)
//Storyboard Layer 2 (Pass)
//Storyboard Layer 3 (Foreground)
//Storyboard Sound Samples
//Background Colour Transformations
3,100,163,162,255

[TimingPoints]
724,317.460317460317,4,1,0,70,1,0
2866,-100,4,2,2,70,0,0
3025,-100,4,1,0,70,0,0
5089,-100,4,1,0,55,0,0
5803,-100,4,2,1,75,0,0
14612,-100,4,2,1,10,0,0
15644,-100,4,2,1,80,0,0
15723,-100,4,1,0,50,0,0
17231,-100,4,2,1,75,0,0
34930,-100,4,2,1,55,0,0
37549,-133.333333333333,4,2,1,60,0,0
42628,-100,4,2,1,60,0,0
55327,-100,4,2,1,70,0,1
65009,-100,4,1,0,50,0,1
65406,-100,4,1,0,50,0,0
65485,-100,4,2,1,75,0,1
75168,-100,4,1,0,50,0,1
75485,-100,4,2,1,70,0,1
78898,-100,4,1,0,50,0,1
79454,-100,4,1,0,60,0,1
80327,-100,4,2,2,70,0,1
80723,-100,4,2,1,70,0,0
84454,-100,4,2,1,5,0,0
85485,-100,4,2,1,70,0,0
86041,-100,4,2,1,50,0,0
86200,-100,4,2,1,30,0,0
86755,-100,4,2,1,20,0,0
87708,-100,4,2,1,10,0,0
88343,-100,4,2,1,5,0,0

[Colours]
Combo1 : 215,4,4
Combo2 : 115,14,205
Combo3 : 27,160,103
Combo4 : 133,20,85

[HitObjects]
256,128,724,6,0,B|324:52|440:72,1,190,4|0
492,248,1358,1,0
480,344,1517,1,0
404,288,1676,1,0
256,288,1835,1,0
256,288,1914,1,0
256,288,1993,2,0,B|160:316,1,95,4|0
80,272,2311,2,0,B|40:244|32:184,1,95
84,112,2628,5,0
256,28,2946,1,8
428,112,3263,5,4
420,208,3422,1,0
512,180,3581,1,0
468,264,3739,1,0
388,312,3898,2,0,B|352:350|295:355,1,95,4|0
208,354,4216,1,0
128,300,4374,1,4
128,300,4454,1,0
128,300,4533,6,0,B|100:256|52:244,1,95
12,160,4850,1,0
80,96,5009,1,0
156,36,5168,1,0
182,45,5247,1,0
208,55,5327,1,0
234,64,5406,1,0
261,74,5485,1,0
287,83,5565,1,0
313,93,5644,1,0
340,103,5723,1,0
368,112,5803,6,0,B|463:112,1,95,4|0
463,272,6120,2,0,B|368:272,1,95,8|0
416,192,6438,2,0,B|511:192,1,95,0|0
511,352,6755,2,0,B|416:352,1,95,8|0
232,324,7073,5,0
140,348,7231,1,0
140,348,7311,1,0
140,348,7390,1,8
64,292,7549,1,0
36,164,7708,1,8
188,48,8025,1,8
256,116,8184,1,0
256,116,8263,1,0
256,116,8343,6,0,B|352:84,1,95,4|0
346,298,8660,2,0,B|256:268,1,95,8|0
312,192,8977,2,0,B|407:192,1,95
200,192,9295,2,0,B|105:192,1,95,8|0
64,328,9612,5,0
160,328,9771,1,0
256,328,9930,1,8
352,328,10089,1,0
448,328,10247,1,8
460,304,10327,1,0
472,280,10406,1,0
484,256,10485,1,0
496,232,10565,1,8
496,136,10723,1,0
332,36,10882,5,4
256,96,11041,1,0
256,96,11120,1,0
256,96,11200,2,0,B|144:96|144:96|76:48,2,190,8|0|8
256,192,11993,1,0
256,288,12152,2,0,B|144:288|144:288|76:336,2,190,0|8|0
340,240,12946,1,0
436,240,13104,1,8
436,144,13263,1,0
340,144,13422,6,0,B|340:44,1,95,4|0
172,49,13739,2,0,B|172:144,1,95,8|0
172,240,14057,1,0
256,284,14216,1,0
340,240,14374,1,8
256,192,14533,1,0
256,192,14692,12,2,15644
352,192,15962,5,0
256,100,16120,1,0
160,192,16279,1,0
256,284,16438,1,0
256,56,16597,5,0
256,56,16676,1,0
256,56,16755,1,0
120,192,16914,1,0
256,328,17073,1,0
256,328,17152,1,0
256,328,17231,1,4
440,316,17390,6,0,B|456:264|512:240,2,95,0|8|0
348,292,17866,2,0,B|316:192|220:148,1,190,0|8
188,64,18343,1,0
188,64,18422,1,0
188,64,18501,2,0,B|92:88,1,95
44,168,18819,2,0,B|32:236|32:236|64:304|156:308,1,190,8|0
212,344,19295,1,0
228,320,19374,1,0
256,312,19454,1,8
284,320,19533,1,0
300,344,19612,1,8
386,304,19771,6,0,B|448:304|480:236|480:236|468:168,1,190,4|8
416,88,20247,1,0
324,64,20406,1,0
256,128,20565,1,0
188,64,20723,2,0,B|96:124,1,95,8|0
48,192,21041,5,0
120,252,21200,1,0
256,228,21358,1,8
200,304,21517,1,0
312,304,21676,2,0,B|416:268,1,95
492,240,21993,1,8
492,144,22152,1,8
492,144,22231,1,0
492,144,22311,6,0,B|402:112,1,95,4|0
332,48,22628,2,0,B|308:112|200:112|179:44,1,190,8|0
109,112,23104,1,0
109,112,23263,2,0,B|20:144,1,95,8|0
56,232,23581,1,4
92,320,23739,2,0,B|2:351,2,95,4|8|0
184,348,24216,1,0
256,288,24374,1,0
328,348,24533,1,8
420,320,24692,5,0
420,320,24771,1,0
420,320,24850,1,0
480,140,25168,1,8
296,100,25485,1,0
256,288,25803,1,8
348,192,25962,1,0
256,96,26120,1,0
164,192,26279,1,0
68,204,26438,6,0,B|76:308|188:348,1,190,8|0
256,288,26914,1,0
256,288,26993,1,0
256,288,27073,1,8
334,344,27231,1,0
334,344,27390,6,0,B|436:307|444:203,1,190,4|8
511,44,27866,1,0
511,44,27946,1,0
511,44,28025,2,0,B|464:60|444:108,1,95
348,108,28343,1,8
256,80,28501,1,0
164,108,28660,6,0,B|148:156|164:204,1,95
348,201,28977,2,0,B|364:156|348:108,1,95,8|0
256,152,29295,2,0,B|256:248,1,95
256,344,29612,1,8
440,296,29930,1,4
440,88,30089,5,0
440,88,30168,1,0
440,88,30247,2,0,B|408:48|360:36,1,95,8|0
304,116,30565,1,0
208,116,30723,1,0
149,36,30882,2,0,B|104:48|72:88,1,95,8|0
112,272,31200,5,0
164,352,31358,1,0
256,376,31517,1,8
348,352,31676,1,0
400,272,31835,2,0,B|420:224|476:200,1,95
464,112,32152,1,8
48,112,32470,1,4
132,40,32628,5,0
132,40,32708,1,0
132,40,32787,2,0,B|224:100,1,95,8|0
380,40,33104,2,0,B|288:100,1,95
256,176,33422,1,8
256,272,33581,2,0,B|256:372,2,95
176,224,34057,5,8
176,224,34216,1,0
336,224,34374,1,0
336,224,34533,1,0
256,176,34692,2,0,B|256:81,1,95,8|0
437,43,35009,6,0,B|389:27|344:44,1,95,4|4
74,340,35485,2,0,B|122:356|168:340,1,95,4|4
446,192,35962,2,0,B|66:192,1,380,4|8
32,104,36755,5,0
56,92,36835,1,0
80,80,36914,1,8
172,100,37073,1,0
196,88,37153,1,0
220,76,37232,1,8
304,36,37390,1,8
364,104,37549,6,0,B|404:116|404:116|464:116|464:116|512:136,1,142.499995753169,4|0
440,192,38025,1,0
501,252,38184,2,0,B|464:268|464:268|404:268|404:268|364:280,1,142.499995753169,8|0
312,348,38660,1,0
144,348,38819,6,0,B|68:324|48:240,1,142.499995753169,0|0
116,192,39295,1,0
50,134,39454,2,0,B|68:60|144:36,1,142.499995753169,8|0
208,92,39930,1,0
368,56,40089,6,0,B|488:136,1,142.499995753169,0|0
424,192,40565,1,0
486,248,40723,2,0,B|368:328,1,142.499995753169,8|0
288,364,41200,1,0
288,364,41279,1,0
288,364,41358,5,8
68,304,41676,1,0
68,80,41993,1,8
96,88,42073,1,0
124,96,42152,1,0
152,104,42231,1,0
180,112,42311,1,8
208,120,42390,1,0
236,128,42470,1,0
264,136,42549,1,0
292,144,42628,6,0,B|344:140|376:96,1,95,4|0
491,192,42946,2,0,B|396:192,1,95,0|0
292,240,43263,2,0,B|344:244|376:288,1,95,8|0
224,336,43581,2,0,B|172:332|140:288,1,95,0|0
56,328,43898,6,0,B|152:284|151:169,1,190,4|0
208,100,44374,1,0
304,100,44533,1,8
384,48,44692,1,0
384,48,44771,1,0
384,48,44850,1,8
464,100,45009,1,0
484,192,45168,6,0,B|484:292,1,95,4|0
28,287,45485,2,0,B|28:192,1,95,8|0
392,264,45803,2,0,B|392:364,1,95
120,359,46120,2,0,B|120:264,1,95,8|0
208,304,46438,5,0
304,304,46597,1,0
256,224,46755,1,8
256,128,46914,2,0,B|256:32,2,95
340,80,47390,1,8
172,80,47549,1,0
172,80,47628,1,0
172,80,47708,6,0,B|104:80|104:80|64:64,1,95,4|0
20,144,48025,2,0,B|20:244,1,95,8|0
78,314,48343,2,0,B|104:304|104:304|172:304,1,95
256,352,48660,2,0,B|356:352,1,95,8|0
372,260,48977,6,0,B|471:249|515:139,1,190,4|8
472,58,49454,1,0
384,24,49612,2,0,B|284:34|240:144,1,190,0|8
248,232,50089,1,0
68,252,50247,5,4
68,252,50406,1,0
0,192,50565,2,0,B|8:140|64:104,1,95,8|0
152,296,50882,2,0,B|193:322|201:374,1,95,8|0
360,296,51200,2,0,B|318:322|310:374,1,95,8|0
444,252,51517,5,8
444,252,51676,1,0
462,113,51835,2,0,B|504:140|512:192,2,95,8|0|8
392,176,52311,1,0
376,84,52470,1,8
256,192,52628,12,0,53739
184,260,54057,5,8
328,124,54216,1,8
184,124,54692,5,8
328,260,54850,1,8
256,192,55009,1,2
80,264,55327,6,0,B|80:360,1,95,4|0
176,360,55644,1,8
256,312,55803,1,0
336,360,55962,1,0
432,360,56120,1,0
432,360,56200,1,0
432,360,56279,2,0,B|432:265,1,95,8|0
500,105,56597,6,0,B|456:124|432:168,1,95
348,124,56914,1,8
256,96,57073,1,0
164,124,57231,1,0
80,168,57390,2,0,B|56:124|11:105,1,95,0|8
32,280,57708,5,0
32,280,57787,1,0
32,280,57866,2,0,B|88:280|88:280|148:320|148:320|228:320,1,190,0|8
256,236,58343,1,0
302,320,58501,2,0,B|364:320|364:320|424:280|424:280|480:280,1,190,0|8
512,192,58977,1,0
480,104,59136,5,0
356,104,59295,1,0
420,32,59454,1,8
296,32,59612,1,0
236,104,59771,2,0,B|188:88|140:104,1,95
142,280,60089,2,0,B|188:296|236:280,1,95,8|0
204,192,60406,5,4
300,192,60565,1,0
300,192,60723,2,0,B|395:192,2,95,8|0|0
204,192,61200,1,0
108,192,61358,2,0,B|4:192,1,95,8|0
44,284,61676,6,0,B|116:284|116:284|224:352,1,190,0|8
256,260,62152,1,0
296,346,62311,2,0,B|396:284|396:284|468:284,1,190,0|8
496,192,62787,1,0
392,44,62946,5,4
420,136,63104,1,0
332,168,63263,1,8
300,80,63422,1,0
212,80,63581,1,4
180,168,63739,1,0
92,136,63898,1,8
120,44,64057,1,4
256,144,64216,6,0,B|256:244,1,95,0|0
395,346,64533,2,0,B|348:264,1,95,8|0
164,264,64850,2,0,B|114:350,1,95
88,348,65089,1,0
60,348,65168,1,0
44,324,65247,1,0
28,300,65327,1,0
12,276,65406,1,0
12,248,65485,6,0,B|40:200|8:144,1,95,4|0
80,88,65803,1,8
172,60,65962,1,0
268,60,66120,1,0
268,60,66279,2,0,B|372:60,1,95,0|8
452,96,66597,1,0
452,96,66676,1,0
452,96,66755,6,0,B|452:148|452:148|484:184,1,95
452,272,67073,2,0,B|480:304|480:304|480:356,1,95,8|0
384,356,67390,2,0,B|332:356|332:356|256:340|256:340|196:340,1,190,0|8
100,340,67866,1,0
88,244,68025,6,0,B|36:228|20:176,1,95
490,181,68343,2,0,B|476:228|424:244,1,95,8|0
112,156,68660,2,0,B|212:156,1,95
399,156,68977,2,0,B|304:156,1,95,8|0
256,240,69295,5,0
256,240,69454,1,0
256,336,69612,1,8
256,336,69771,1,0
176,288,69930,2,0,B|128:288,2,47.5
336,288,70247,2,0,B|384:288,2,47.5,8|0|0
256,240,70565,6,0,B|256:140,1,95,4|0
256,48,70882,1,8
256,48,71041,1,0
168,80,71200,2,0,B|148:124|96:148,1,95
101,238,71517,2,0,B|148:260|168:304,1,95,8|0
188,324,71755,1,0
216,332,71835,5,0
312,332,71993,1,0
408,332,72152,1,8
504,332,72311,1,0
504,236,72470,2,0,B|431:164|442:54,1,190,0|8
348,32,72946,1,0
256,72,73104,5,8
164,104,73263,1,8
132,192,73422,1,0
168,280,73581,1,0
256,312,73739,1,8
344,280,73898,1,8
380,192,74057,1,0
348,104,74216,6,0,B|212:239,1,190,8|8
144,300,74692,2,0,B|48:300,1,95,8|0
49,84,75009,2,0,B|144:84,1,95,8|0
172,80,75247,1,0
200,80,75327,1,0
228,80,75406,1,0
256,80,75485,6,0,B|348:120|390:214,1,190,4|0
484,216,75962,1,8
500,308,76120,1,0
420,356,76279,1,0
348,296,76438,1,0
348,296,76517,1,0
348,296,76597,1,8
276,356,76755,6,0,B|172:356,1,95,4|0
104,300,77073,2,0,B|52:284|36:236,1,95,0|8
36,145,77390,2,0,B|52:100|104:84,1,95
181,28,77708,2,0,B|276:28,1,95,0|8
464,56,78025,6,0,B|464:148|464:148|500:244,1,190,4|0
456,324,78501,2,0,B|408:324|408:324|360:340,1,95,8|0
268,340,78819,1,0
172,340,78977,1,0
148,324,79057,1,0
124,308,79136,1,0
100,292,79216,1,0
76,276,79295,1,0
52,260,79374,1,0
28,244,79454,6,0,B|28:148,1,95
484,149,79930,2,0,B|484:244,2,95
484,52,80406,1,8
304,108,80723,6,0,B|208:108,1,95,4|0
209,276,81041,2,0,B|304:276,1,95,8|0
352,192,81358,1,0
352,192,81517,1,0
256,192,81676,1,8
256,192,81835,1,0
160,192,81993,2,0,B|52:192,1,95
44,100,82311,5,8
64,192,82470,1,0
44,284,82628,1,8
256,352,82946,1,8
344,320,83104,5,0
344,320,83184,1,0
344,320,83263,2,0,B|452:324|504:216,1,190,4|8
408,192,83739,1,0
497,155,83898,2,0,B|452:60|344:64,1,190,0|8
256,28,84374,1,0
256,192,84533,12,2,85485
256,256,85644,6,0,B|256:312,2,47.5,0|0|8
256,64,86120,1,4
256,192,86200,12,0,88343
