osu file format v14

[General]
AudioFilename: DANZEN.mp3
AudioLeadIn: 0
PreviewTime: 59
Countdown: 0
SampleSet: Normal
StackLeniency: 0.7
Mode: 1
LetterboxInBreaks: 0
WidescreenStoryboard: 0

[Editor]
DistanceSpacing: 1.2
BeatDivisor: 2
GridSize: 32
TimelineZoom: 0.3999999

[Metadata]
Title:DANZEN! Futari wa Pretty Cure
TitleUnicode:DANZEN! ふたりはプリキュア
Artist:Gojou Mayumi
ArtistUnicode:五條真由美
Creator:Mrriichi
Version:Kantan
Source:Futari wa Pretty Cure
Tags:
BeatmapID:858833
BeatmapSetID:394634

[Difficulty]
HPDrainRate:8
CircleSize:5
OverallDifficulty:4
ApproachRate:5
SliderMultiplier:1.4
SliderTickRate:1

[Events]
//Background and Video events
0,0,"maxresdefault.jpg",0,40
//Break Periods
//Storyboard Layer 0 (Background)
//Storyboard Layer 1 (Fail)
//Storyboard Layer 2 (Pass)
//Storyboard Layer 3 (Foreground)
//Storyboard Sound Samples

[TimingPoints]
239,359.281437125748,4,1,0,75,1,0
2754,359.281437125748,4,1,0,75,1,0
38682,-100,4,1,0,75,0,1
50179,-100,4,1,0,75,0,0

[HitObjects]
288,352,239,5,4,0:0:0:0:
224,256,1317,1,4,0:0:0:0:
224,256,2574,1,4,0:0:0:0:
160,288,3472,1,2,0:0:0:0:
96,160,4011,1,0,0:0:0:0:
160,288,4909,1,2,0:0:0:0:
96,160,5448,1,0,0:0:0:0:
160,288,6347,1,2,0:0:0:0:
96,160,6885,1,0,0:0:0:0:
128,192,7784,1,2,0:0:0:0:
96,160,8323,1,0,0:0:0:0:
224,256,8862,1,0,0:0:0:0:
128,352,9221,1,2,0:0:0:0:
96,160,9760,1,0,0:0:0:0:
128,352,10299,1,0,0:0:0:0:
128,352,10658,1,2,0:0:0:0:
96,160,11197,1,0,0:0:0:0:
224,192,11736,1,0,0:0:0:0:
128,224,12095,1,2,0:0:0:0:
64,224,12814,2,0,L|192:224|192:224,7,70
96,224,15688,1,0,0:0:0:0:
192,224,16406,1,2,0:0:0:0:
192,224,17125,1,0,0:0:0:0:
96,224,17664,1,2,0:0:0:0:
224,288,18562,1,0,0:0:0:0:
224,288,18921,1,0,0:0:0:0:
224,288,19281,1,0,0:0:0:0:
224,288,19820,1,2,0:0:0:0:
96,192,21436,1,2,0:0:0:0:
192,256,22155,1,0,0:0:0:0:
192,256,22874,1,2,0:0:0:0:
96,192,23412,1,0,0:0:0:0:
416,320,24311,1,2,0:0:0:0:
160,224,24670,1,2,0:0:0:0:
160,224,25029,1,2,0:0:0:0:
160,224,25568,1,0,0:0:0:0:
256,224,27185,1,0,0:0:0:0:
192,288,27903,1,2,0:0:0:0:
256,256,28622,1,0,0:0:0:0:
160,192,28981,1,0,0:0:0:0:
256,256,29341,1,2,0:0:0:0:
256,256,30059,1,0,0:0:0:0:
256,256,30778,1,2,0:0:0:0:
192,224,31496,1,0,0:0:0:0:
128,192,33113,1,0,0:0:0:0:
128,192,33473,1,0,0:0:0:0:
128,192,34550,1,2,0:0:0:0:
128,192,34910,1,2,0:0:0:0:
160,256,35808,1,4,0:0:0:0:
160,256,36347,1,4,0:0:0:0:
160,256,36885,1,4,0:0:0:0:
64,192,37424,2,0,L|128:128|128:128,5,70
192,288,38682,1,0,0:0:0:0:
192,224,39041,1,0,0:0:0:0:
224,224,39400,1,2,0:0:0:0:
64,192,40119,1,0,0:0:0:0:
160,224,40838,1,2,0:0:0:0:
96,160,41556,1,0,0:0:0:0:
96,256,41915,1,2,0:0:0:0:
224,224,42275,1,2,0:0:0:0:
96,160,43173,1,4,0:0:0:0:
96,160,43712,1,4,0:0:0:0:
160,192,44430,1,2,0:0:0:0:
96,224,44790,1,2,0:0:0:0:
192,256,45149,1,0,0:0:0:0:
128,192,45868,1,2,0:0:0:0:
128,192,46586,1,0,0:0:0:0:
160,224,47305,1,2,0:0:0:0:
160,224,47664,1,0,0:0:0:0:
224,224,48023,1,0,0:0:0:0:
128,256,48921,1,6,0:0:0:0:
128,256,49460,1,6,0:0:0:0:
192,192,50179,5,0,0:0:0:0:
192,192,50897,1,2,0:0:0:0:
160,224,51257,1,0,0:0:0:0:
160,224,51616,1,2,0:0:0:0:
64,160,53053,1,2,0:0:0:0:
0,192,53772,1,0,0:0:0:0:
0,192,54131,1,2,0:0:0:0:
160,192,54490,1,0,0:0:0:0:
64,224,55927,1,6,0:0:0:0:
128,256,57185,1,0,0:0:0:0:
160,288,58083,1,2,0:0:0:0:
160,288,58622,1,0,0:0:0:0:
160,288,59520,1,2,0:0:0:0:
160,288,60059,1,0,0:0:0:0:
160,288,60958,1,2,0:0:0:0:
160,224,61496,1,0,0:0:0:0:
128,192,62395,1,2,0:0:0:0:
128,192,62933,1,6,0:0:0:0:
224,256,63473,1,0,0:0:0:0:
128,352,63832,1,2,0:0:0:0:
128,352,64371,1,0,0:0:0:0:
128,352,64910,1,0,0:0:0:0:
128,352,65269,1,2,0:0:0:0:
128,352,65808,1,0,0:0:0:0:
224,192,66347,1,0,0:0:0:0:
128,224,66706,1,2,0:0:0:0:
64,224,67424,2,0,L|192:224|192:224,7,70
96,224,70299,5,4,0:0:0:0:
128,224,71377,1,4,0:0:0:0:
160,192,72634,1,4,0:0:0:0:
