osu file format v11

[General]
AudioFilename: Gojou Kai - Ultimate Truth.mp3
AudioLeadIn: 2000
PreviewTime: 40497
Countdown: 0
SampleSet: Normal
StackLeniency: 0.7
Mode: 1
LetterboxInBreaks: 0

[Editor]
Bookmarks: 18751,28426,82013,111076
DistanceSpacing: 1
BeatDivisor: 4
GridSize: 8

[Metadata]
Title:Ultimate Truth
TitleUnicode:
Artist:Gojou Kai
ArtistUnicode:
Creator:DaxMasterix
Version:Wmf's Taiko
Source:Touhou
Tags:youmu konpaku SYNC.ART'S Secret Seven Perfect Cherry Blossom zun wmfchris mancusojuanmattos
BeatmapID:151075
BeatmapSetID:48656

[Difficulty]
HPDrainRate:6
CircleSize:4
OverallDifficulty:6
ApproachRate:5
SliderMultiplier:1.4
SliderTickRate:1

[Events]
//Background and Video events
0,0,"BG.png"
//Break Periods
//Storyboard Layer 0 (Background)
//Storyboard Layer 1 (Fail)
//Storyboard Layer 2 (Pass)
//Storyboard Layer 3 (Foreground)
//Storyboard Sound Samples
//Background Colour Transformations
3,100,163,162,255

[TimingPoints]
50,389.61038961039,4,1,0,70,1,0
18751,-100,4,1,0,70,0,1
37452,-100,4,1,0,70,0,0
40497,379.746835443038,3,1,0,70,1,0
76951,375,3,1,0,70,1,0
94951,-100,3,1,0,70,0,1
112951,-100,3,1,0,70,0,0

[Colours]
Combo1 : 255,128,64
Combo2 : 0,255,128
Combo3 : 128,255,255
Combo4 : 255,128,192

[HitObjects]
480,96,50,1,4,0:0:0
480,96,439,1,0,0:0:0
480,96,829,1,0,0:0:0
480,96,1024,1,2,0:0:0
480,96,1218,1,0,0:0:0
480,96,1413,1,2,0:0:0
480,96,1608,1,0,0:0:0
480,96,1998,1,0,0:0:0
480,96,2387,1,0,0:0:0
480,96,2582,1,2,0:0:0
480,96,2777,1,0,0:0:0
480,96,2972,1,2,0:0:0
480,96,3166,1,0,0:0:0
480,96,3556,1,0,0:0:0
480,96,3946,1,0,0:0:0
480,96,4140,1,2,0:0:0
480,96,4335,1,0,0:0:0
480,96,4530,1,2,0:0:0
480,96,4725,1,0,0:0:0
480,96,5114,1,2,0:0:0
480,96,5309,1,2,0:0:0
480,96,5504,1,0,0:0:0
480,96,5699,1,2,0:0:0
480,96,5894,1,0,0:0:0
480,96,6088,1,2,0:0:0
480,96,6283,1,0,0:0:0
480,96,6673,1,2,0:0:0
480,96,6868,1,2,0:0:0
480,96,7062,1,0,0:0:0
480,96,7257,1,2,0:0:0
480,96,7452,1,0,0:0:0
480,96,7647,1,2,0:0:0
480,96,7842,1,0,0:0:0
480,96,8231,1,2,0:0:0
480,96,8426,1,2,0:0:0
480,96,8621,1,0,0:0:0
480,96,8816,1,2,0:0:0
480,96,9011,1,0,0:0:0
480,96,9205,1,2,0:0:0
480,96,9400,1,4,0:0:0
480,96,9692,1,0,0:0:0
480,96,9790,1,2,0:0:0
480,96,9985,1,2,0:0:0
480,96,10179,1,0,0:0:0
480,96,10374,1,2,0:0:0
480,96,10569,1,0,0:0:0
480,96,10764,1,2,0:0:0
480,96,10861,1,2,0:0:0
480,96,10959,1,0,0:0:0
480,96,11251,1,0,0:0:0
480,96,11348,1,2,0:0:0
480,96,11543,1,2,0:0:0
480,96,11738,1,0,0:0:0
480,96,11933,1,0,0:0:0
480,96,12127,1,2,0:0:0
480,96,12322,1,2,0:0:0
480,96,12517,1,0,0:0:0
480,96,12809,1,2,0:0:0
480,96,12907,1,0,0:0:0
480,96,13101,1,2,0:0:0
480,96,13296,1,0,0:0:0
480,96,13491,1,0,0:0:0
480,96,13686,1,2,0:0:0
480,96,13881,1,0,0:0:0
480,96,14075,1,0,0:0:0
480,96,14368,1,0,0:0:0
480,96,14465,1,2,0:0:0
480,96,14660,1,2,0:0:0
480,96,14855,1,0,0:0:0
480,96,15049,1,2,0:0:0
480,96,15147,1,2,0:0:0
480,96,15244,1,0,0:0:0
480,96,15439,1,2,0:0:0
480,96,15634,1,0,0:0:0
480,96,15926,1,0,0:0:0
480,96,16024,1,2,0:0:0
480,96,16218,1,2,0:0:0
480,96,16413,1,2,0:0:0
480,96,16608,1,0,0:0:0
480,96,16705,1,2,0:0:0
480,96,16803,1,0,0:0:0
480,96,16998,1,2,0:0:0
480,96,17192,1,0,0:0:0
480,96,17485,1,2,0:0:0
480,96,17582,1,0,0:0:0
480,96,17777,1,2,0:0:0
480,96,17972,1,0,0:0:0
480,96,18069,1,0,0:0:0
480,96,18166,1,0,0:0:0
480,96,18361,1,2,0:0:0
480,96,18556,1,2,0:0:0
480,96,18653,1,2,0:0:0
480,96,18751,1,0,0:0:0
480,96,18946,1,0,0:0:0
480,96,19043,1,0,0:0:0
480,96,19140,1,2,0:0:0
480,96,19335,1,2,0:0:0
480,96,19530,1,0,0:0:0
480,96,19725,1,2,0:0:0
480,96,19920,1,0,0:0:0
480,96,20114,1,2,0:0:0
480,96,20309,1,0,0:0:0
480,96,20504,1,2,0:0:0
480,96,20601,1,2,0:0:0
480,96,20699,1,0,0:0:0
480,96,20894,1,2,0:0:0
480,96,21088,1,0,0:0:0
480,96,21283,1,0,0:0:0
480,96,21478,1,0,0:0:0
480,96,21673,1,2,0:0:0
480,96,21868,1,0,0:0:0
480,96,22062,1,2,0:0:0
480,96,22160,1,2,0:0:0
480,96,22257,1,0,0:0:0
480,96,22452,1,2,0:0:0
480,96,22647,1,0,0:0:0
480,96,22842,1,2,0:0:0
480,96,23037,1,0,0:0:0
480,96,23231,1,2,0:0:0
480,96,23426,1,0,0:0:0
480,96,23621,1,2,0:0:0
480,96,23718,1,2,0:0:0
480,96,23816,1,0,0:0:0
480,96,23913,1,0,0:0:0
480,96,24011,1,2,0:0:0
480,96,24205,1,0,0:0:0
480,96,24400,1,2,0:0:0
480,96,24498,1,2,0:0:0
480,96,24595,1,0,0:0:0
480,96,24790,1,2,0:0:0
480,96,24985,1,0,0:0:0
480,96,25179,1,2,0:0:0
480,96,25277,1,2,0:0:0
480,96,25374,1,0,0:0:0
480,96,25472,1,0,0:0:0
480,96,25569,1,2,0:0:0
480,96,25764,1,0,0:0:0
480,96,25959,1,0,0:0:0
480,96,26056,1,0,0:0:0
480,96,26153,1,2,0:0:0
480,96,26348,1,2,0:0:0
480,96,26543,1,0,0:0:0
480,96,26738,1,2,0:0:0
480,96,26835,1,2,0:0:0
480,96,26933,1,2,0:0:0
480,96,27030,1,0,0:0:0
480,96,27127,1,2,0:0:0
480,96,27322,1,0,0:0:0
480,96,27517,1,2,0:0:0
480,96,27614,1,2,0:0:0
480,96,27712,1,0,0:0:0
480,96,27809,1,0,0:0:0
480,96,27907,1,2,0:0:0
480,96,28101,1,4,0:0:0
480,96,28296,1,2,0:0:0
480,96,28491,1,0,0:0:0
480,96,28686,1,2,0:0:0
480,96,28783,1,2,0:0:0
480,96,28881,1,0,0:0:0
480,96,29075,1,2,0:0:0
480,96,29173,1,2,0:0:0
480,96,29270,1,0,0:0:0
480,96,29368,1,0,0:0:0
480,96,29465,1,2,0:0:0
480,96,29660,1,0,0:0:0
480,96,29855,1,2,0:0:0
480,96,30049,1,0,0:0:0
480,96,30244,1,2,0:0:0
480,96,30342,1,2,0:0:0
480,96,30439,1,0,0:0:0
480,96,30634,1,0,0:0:0
480,96,30731,1,0,0:0:0
480,96,30829,1,2,0:0:0
480,96,30926,1,2,0:0:0
480,96,31024,1,0,0:0:0
480,96,31218,1,0,0:0:0
480,96,31413,1,2,0:0:0
480,96,31608,1,0,0:0:0
480,96,31803,1,2,0:0:0
480,96,31900,1,0,0:0:0
480,96,31998,1,2,0:0:0
480,96,32192,1,0,0:0:0
480,96,32290,1,0,0:0:0
480,96,32387,1,2,0:0:0
480,96,32485,1,0,0:0:0
480,96,32582,1,2,0:0:0
480,96,32777,1,0,0:0:0
480,96,32972,1,2,0:0:0
480,96,33069,1,2,0:0:0
480,96,33166,1,0,0:0:0
480,96,33361,1,0,0:0:0
480,96,33459,1,0,0:0:0
480,96,33556,1,2,0:0:0
480,96,33751,1,0,0:0:0
480,96,33848,1,0,0:0:0
480,96,33946,1,0,0:0:0
480,96,34043,1,0,0:0:0
480,96,34140,1,2,0:0:0
480,96,34238,1,2,0:0:0
480,96,34335,1,0,0:0:0
480,96,34530,1,2,0:0:0
480,96,34627,1,2,0:0:0
480,96,34725,1,0,0:0:0
480,96,34920,1,0,0:0:0
480,96,35017,1,0,0:0:0
480,96,35114,1,2,0:0:0
480,96,35309,1,0,0:0:0
480,96,35407,1,2,0:0:0
480,96,35504,1,0,0:0:0
480,96,35601,1,0,0:0:0
480,96,35699,1,2,0:0:0
480,96,35796,1,2,0:0:0
480,96,35894,1,0,0:0:0
480,96,36088,1,2,0:0:0
480,96,36186,1,2,0:0:0
480,96,36283,1,0,0:0:0
480,96,36381,1,0,0:0:0
480,96,36478,1,2,0:0:0
480,96,36575,1,2,0:0:0
480,96,36673,1,0,0:0:0
480,96,36868,1,0,0:0:0
480,96,36965,1,0,0:0:0
480,96,37062,1,2,0:0:0
480,96,37127,1,2,0:0:0
480,96,37192,1,2,0:0:0
480,96,37257,1,2,0:0:0
480,96,37322,1,2,0:0:0
480,96,37387,1,2,0:0:0
480,96,37452,1,0,0:0:0
480,96,40497,1,4,0:0:0
480,96,40876,1,2,0:0:0
480,96,41256,1,2,0:0:0
480,96,41636,1,0,0:0:0
480,96,42015,1,2,0:0:0
480,96,42395,1,2,0:0:0
480,96,42775,1,0,0:0:0
480,96,43155,1,2,0:0:0
480,96,43534,1,0,0:0:0
480,96,43724,1,2,0:0:0
480,96,44104,1,2,0:0:0
480,96,44199,1,2,0:0:0
480,96,44294,1,0,0:0:0
480,96,44484,1,2,0:0:0
480,96,44674,1,0,0:0:0
480,96,44864,1,2,0:0:0
480,96,45053,1,0,0:0:0
480,96,45433,1,0,0:0:0
480,96,45813,1,2,0:0:0
480,96,46193,1,0,0:0:0
480,96,46572,1,0,0:0:0
480,96,46952,1,2,0:0:0
480,96,47332,1,0,0:0:0
480,96,47712,1,2,0:0:0
480,96,48091,1,2,0:0:0
480,96,48471,1,0,0:0:0
480,96,49610,1,0,0:0:0
480,96,49800,1,0,0:0:0
480,96,49895,1,0,0:0:0
480,96,49990,1,2,0:0:0
480,96,50180,1,2,0:0:0
480,96,50370,1,2,0:0:0
480,96,50750,1,0,0:0:0
480,96,50940,1,0,0:0:0
480,96,51034,1,2,0:0:0
480,96,51129,1,2,0:0:0
480,96,51319,1,0,0:0:0
480,96,51509,1,2,0:0:0
480,96,51889,1,0,0:0:0
480,96,52079,1,0,0:0:0
480,96,52269,1,2,0:0:0
480,96,52648,1,0,0:0:0
480,96,52838,1,2,0:0:0
480,96,53218,1,2,0:0:0
480,96,53313,1,2,0:0:0
480,96,53408,1,0,0:0:0
480,96,53598,1,2,0:0:0
480,96,53788,1,0,0:0:0
480,96,53978,1,2,0:0:0
480,96,54167,1,0,0:0:0
480,96,54357,1,0,0:0:0
480,96,54547,1,2,0:0:0
480,96,54737,1,2,0:0:0
480,96,54927,1,2,0:0:0
480,96,55307,1,0,0:0:0
480,96,55497,1,0,0:0:0
480,96,55591,1,0,0:0:0
480,96,55686,1,2,0:0:0
480,96,55876,1,2,0:0:0
480,96,56066,1,2,0:0:0
480,96,56446,1,0,0:0:0
480,96,56826,1,2,0:0:0
480,96,57205,1,2,0:0:0
480,96,57585,1,2,0:0:0
480,96,58724,1,4,0:0:0
480,96,58914,1,0,0:0:0
480,96,59009,1,0,0:0:0
480,96,59104,1,0,0:0:0
480,96,59294,1,2,0:0:0
480,96,59484,1,2,0:0:0
480,96,59674,1,2,0:0:0
480,96,59864,1,0,0:0:0
480,96,60053,1,0,0:0:0
480,96,60148,1,0,0:0:0
480,96,60243,1,2,0:0:0
480,96,60433,1,2,0:0:0
480,96,60623,1,2,0:0:0
480,96,60813,1,2,0:0:0
480,96,60908,1,0,0:0:0
480,96,61003,1,0,0:0:0
480,96,61193,1,0,0:0:0
480,96,61383,1,2,0:0:0
480,96,61762,1,0,0:0:0
480,96,61857,1,0,0:0:0
480,96,61952,1,2,0:0:0
480,96,62142,1,0,0:0:0
480,96,62332,1,2,0:0:0
480,96,62522,1,2,0:0:0
480,96,62617,1,2,0:0:0
480,96,62712,1,2,0:0:0
480,96,62807,1,2,0:0:0
480,96,62902,1,0,0:0:0
480,96,63091,1,2,0:0:0
480,96,63186,1,2,0:0:0
480,96,63281,1,0,0:0:0
480,96,63471,1,0,0:0:0
480,96,63566,1,0,0:0:0
480,96,63661,1,2,0:0:0
480,96,63851,1,2,0:0:0
480,96,64041,1,2,0:0:0
480,96,64231,1,2,0:0:0
480,96,64421,1,0,0:0:0
480,96,64610,1,0,0:0:0
480,96,64705,1,0,0:0:0
480,96,64800,1,2,0:0:0
480,96,64990,1,2,0:0:0
480,96,65180,1,2,0:0:0
480,96,65370,1,2,0:0:0
480,96,65465,1,2,0:0:0
480,96,65560,1,0,0:0:0
480,96,65750,1,0,0:0:0
480,96,65940,1,2,0:0:0
480,96,66129,1,0,0:0:0
480,96,66319,1,2,0:0:0
480,96,66414,1,2,0:0:0
480,96,66509,1,2,0:0:0
480,96,66604,1,2,0:0:0
480,96,66699,1,0,0:0:0
480,96,66889,1,2,0:0:0
480,96,66984,1,0,0:0:0
480,96,67079,1,0,0:0:0
480,96,67269,1,0,0:0:0
480,96,67364,1,2,0:0:0
480,96,67459,1,2,0:0:0
480,96,67648,1,0,0:0:0
480,96,67838,1,4,0:0:0
480,96,68028,1,0,0:0:0
480,96,68123,1,0,0:0:0
480,96,68218,1,2,0:0:0
480,96,68313,1,2,0:0:0
480,96,68408,1,2,0:0:0
480,96,68598,1,2,0:0:0
480,96,68788,1,2,0:0:0
480,96,68978,1,4,0:0:0
480,96,69167,1,0,0:0:0
480,96,69262,1,2,0:0:0
480,96,69357,1,0,0:0:0
480,96,69452,1,0,0:0:0
480,96,69547,1,2,0:0:0
480,96,69737,1,2,0:0:0
480,96,69927,1,0,0:0:0
480,96,70117,1,4,0:0:0
480,96,70497,1,2,0:0:0
480,96,70686,1,4,0:0:0
480,96,70876,1,2,0:0:0
480,96,71066,1,2,0:0:0
480,96,71256,1,4,0:0:0
480,96,71446,1,2,0:0:0
480,96,71541,1,2,0:0:0
480,96,71636,1,0,0:0:0
480,96,71826,1,0,0:0:0
480,96,71921,1,2,0:0:0
480,96,72015,1,0,0:0:0
480,96,72110,1,2,0:0:0
480,96,72205,1,2,0:0:0
480,96,72395,1,4,0:0:0
480,96,72585,1,0,0:0:0
480,96,72680,1,0,0:0:0
480,96,72775,1,2,0:0:0
480,96,72965,1,2,0:0:0
480,96,73155,1,2,0:0:0
480,96,73345,1,2,0:0:0
480,96,73534,1,4,0:0:0
480,96,73724,1,2,0:0:0
480,96,73819,1,2,0:0:0
480,96,73914,1,0,0:0:0
480,96,74104,1,2,0:0:0
480,96,74199,1,2,0:0:0
480,96,74294,1,0,0:0:0
480,96,74484,1,2,0:0:0
480,96,74674,1,6,0:0:0
480,96,75053,1,6,0:0:0
480,96,75433,1,4,0:0:0
480,96,75813,1,4,0:0:0
480,96,76003,1,0,0:0:0
480,96,76098,1,0,0:0:0
480,96,76193,1,2,0:0:0
480,96,76383,1,0,0:0:0
480,96,76572,1,0,0:0:0
480,96,76636,1,0,0:0:0
480,96,76699,1,0,0:0:0
480,96,76826,1,0,0:0:0
480,96,76951,1,4,0:0:0
480,96,77138,1,0,0:0:0
480,96,77232,1,0,0:0:0
480,96,77326,1,2,0:0:0
480,96,77513,1,2,0:0:0
480,96,77701,1,2,0:0:0
480,96,77794,1,2,0:0:0
480,96,77888,1,2,0:0:0
480,96,77982,1,2,0:0:0
480,96,78076,1,0,0:0:0
480,96,78263,1,0,0:0:0
480,96,78357,1,0,0:0:0
480,96,78451,1,2,0:0:0
480,96,78638,1,2,0:0:0
480,96,78826,1,2,0:0:0
480,96,79013,1,0,0:0:0
480,96,79201,1,0,0:0:0
480,96,79388,1,0,0:0:0
480,96,79482,1,2,0:0:0
480,96,79576,1,2,0:0:0
480,96,79763,1,2,0:0:0
480,96,79951,1,0,0:0:0
480,96,80044,1,0,0:0:0
480,96,80138,1,2,0:0:0
480,96,80326,1,0,0:0:0
480,96,80513,1,2,0:0:0
480,96,80701,1,0,0:0:0
480,96,80794,1,0,0:0:0
480,96,80888,1,2,0:0:0
480,96,80982,1,2,0:0:0
480,96,81076,1,2,0:0:0
480,96,81169,1,2,0:0:0
480,96,81263,1,0,0:0:0
480,96,81357,1,0,0:0:0
480,96,81451,1,0,0:0:0
480,96,81638,1,0,0:0:0
480,96,81732,1,0,0:0:0
480,96,81826,1,2,0:0:0
480,96,82013,1,2,0:0:0
480,96,82201,1,2,0:0:0
480,96,82294,1,2,0:0:0
480,96,82388,1,2,0:0:0
480,96,82482,1,2,0:0:0
480,96,82576,1,0,0:0:0
480,96,82763,1,0,0:0:0
480,96,82857,1,0,0:0:0
480,96,82951,1,2,0:0:0
480,96,83138,1,2,0:0:0
480,96,83326,1,2,0:0:0
480,96,83513,1,0,0:0:0
480,96,83701,1,0,0:0:0
480,96,83888,1,0,0:0:0
480,96,83982,1,0,0:0:0
480,96,84076,1,2,0:0:0
480,96,84263,1,0,0:0:0
480,96,84357,1,2,0:0:0
480,96,84451,1,2,0:0:0
480,96,84544,1,2,0:0:0
480,96,84638,1,2,0:0:0
480,96,84732,1,2,0:0:0
480,96,84826,1,0,0:0:0
480,96,85013,1,2,0:0:0
480,96,85107,1,2,0:0:0
480,96,85201,1,0,0:0:0
480,96,85388,1,2,0:0:0
480,96,85482,1,2,0:0:0
480,96,85576,1,0,0:0:0
480,96,85669,1,0,0:0:0
480,96,85763,1,2,0:0:0
480,96,85951,1,4,0:0:0
480,96,86138,1,0,0:0:0
480,96,86326,1,2,0:0:0
480,96,86513,1,0,0:0:0
480,96,86701,1,2,0:0:0
480,96,86888,1,2,0:0:0
480,96,86982,1,2,0:0:0
480,96,87076,1,0,0:0:0
480,96,87263,1,0,0:0:0
480,96,87451,1,2,0:0:0
480,96,87638,1,0,0:0:0
480,96,87732,1,0,0:0:0
480,96,87826,1,2,0:0:0
480,96,88013,1,2,0:0:0
480,96,88201,1,0,0:0:0
480,96,88294,1,0,0:0:0
480,96,88388,1,0,0:0:0
480,96,88482,1,0,0:0:0
480,96,88576,1,2,0:0:0
480,96,88763,1,0,0:0:0
480,96,88951,1,0,0:0:0
480,96,89044,1,0,0:0:0
480,96,89138,1,2,0:0:0
480,96,89326,1,0,0:0:0
480,96,89513,1,2,0:0:0
480,96,89607,1,0,0:0:0
480,96,89701,1,0,0:0:0
480,96,89794,1,0,0:0:0
480,96,89888,1,2,0:0:0
480,96,89982,1,0,0:0:0
480,96,90076,1,2,0:0:0
480,96,90263,1,2,0:0:0
480,96,90451,1,0,0:0:0
480,96,90638,1,0,0:0:0
480,96,90732,1,0,0:0:0
480,96,90826,1,2,0:0:0
480,96,91013,1,2,0:0:0
480,96,91201,1,2,0:0:0
480,96,91388,1,0,0:0:0
480,96,91576,1,0,0:0:0
480,96,91763,1,0,0:0:0
480,96,91857,1,2,0:0:0
480,96,91951,1,2,0:0:0
480,96,92138,1,2,0:0:0
480,96,92326,1,0,0:0:0
480,96,92513,1,2,0:0:0
480,96,92701,1,0,0:0:0
480,96,92888,1,0,0:0:0
480,96,92982,1,0,0:0:0
480,96,93076,1,0,0:0:0
480,96,93263,1,0,0:0:0
480,96,93357,1,0,0:0:0
480,96,93451,1,2,0:0:0
480,96,93638,1,0,0:0:0
480,96,93732,1,2,0:0:0
480,96,93826,1,2,0:0:0
480,96,94107,1,0,0:0:0
480,96,94201,1,0,0:0:0
480,96,94388,1,2,0:0:0
480,96,94576,1,0,0:0:0
480,96,94669,1,0,0:0:0
480,96,94763,1,2,0:0:0
480,96,94951,1,4,0:0:0
480,96,95138,1,0,0:0:0
480,96,95232,1,0,0:0:0
480,96,95326,1,2,0:0:0
480,96,95513,1,2,0:0:0
480,96,95701,1,2,0:0:0
480,96,95888,1,0,0:0:0
480,96,96076,1,0,0:0:0
480,96,96263,1,0,0:0:0
480,96,96357,1,2,0:0:0
480,96,96451,1,2,0:0:0
480,96,96638,1,2,0:0:0
480,96,96826,1,0,0:0:0
480,96,97013,1,2,0:0:0
480,96,97201,1,0,0:0:0
480,96,97576,1,2,0:0:0
480,96,97951,1,0,0:0:0
480,96,98044,1,0,0:0:0
480,96,98138,1,2,0:0:0
480,96,98326,1,0,0:0:0
480,96,98513,1,2,0:0:0
480,96,98607,1,2,0:0:0
480,96,98701,1,0,0:0:0
480,96,98888,1,2,0:0:0
480,96,99076,1,2,0:0:0
480,96,99169,1,2,0:0:0
480,96,99263,1,0,0:0:0
480,96,99357,1,2,0:0:0
480,96,99451,1,0,0:0:0
480,96,99638,1,0,0:0:0
480,96,99732,1,0,0:0:0
480,96,99826,1,2,0:0:0
480,96,100013,1,2,0:0:0
480,96,100201,1,2,0:0:0
480,96,100388,1,0,0:0:0
480,96,100576,1,0,0:0:0
480,96,100669,1,0,0:0:0
480,96,100763,1,2,0:0:0
480,96,100857,1,0,0:0:0
480,96,100951,1,0,0:0:0
480,96,101138,1,0,0:0:0
480,96,101232,1,0,0:0:0
480,96,101326,1,2,0:0:0
480,96,101513,1,0,0:0:0
480,96,101701,1,0,0:0:0
480,96,101888,1,0,0:0:0
480,96,101982,1,0,0:0:0
480,96,102076,1,2,0:0:0
480,96,102263,1,0,0:0:0
480,96,102357,1,0,0:0:0
480,96,102451,1,2,0:0:0
480,96,102544,1,2,0:0:0
480,96,102638,1,2,0:0:0
480,96,102732,1,2,0:0:0
480,96,102826,1,0,0:0:0
480,96,103013,1,2,0:0:0
480,96,103107,1,2,0:0:0
480,96,103201,1,0,0:0:0
480,96,103388,1,2,0:0:0
480,96,103576,1,0,0:0:0
480,96,103669,1,0,0:0:0
480,96,103763,1,2,0:0:0
480,96,103951,1,4,0:0:0
480,96,104138,1,0,0:0:0
480,96,104232,1,0,0:0:0
480,96,104326,1,2,0:0:0
480,96,104513,1,2,0:0:0
480,96,104701,1,2,0:0:0
480,96,104888,1,2,0:0:0
480,96,105076,1,0,0:0:0
480,96,105169,1,0,0:0:0
480,96,105263,1,0,0:0:0
480,96,105357,1,0,0:0:0
480,96,105451,1,2,0:0:0
480,96,105638,1,0,0:0:0
480,96,105826,1,2,0:0:0
480,96,106013,1,2,0:0:0
480,96,106201,1,0,0:0:0
480,96,106388,1,0,0:0:0
480,96,106482,1,0,0:0:0
480,96,106576,1,2,0:0:0
480,96,106763,1,0,0:0:0
480,96,106951,1,0,0:0:0
480,96,107044,1,0,0:0:0
480,96,107138,1,2,0:0:0
480,96,107326,1,0,0:0:0
480,96,107513,1,2,0:0:0
480,96,107607,1,2,0:0:0
480,96,107701,1,0,0:0:0
480,96,107794,1,0,0:0:0
480,96,107888,1,2,0:0:0
480,96,107982,1,0,0:0:0
480,96,108076,1,0,0:0:0
480,96,108263,1,0,0:0:0
480,96,108451,1,4,0:0:0
480,96,108638,1,0,0:0:0
480,96,108732,1,0,0:0:0
480,96,108826,1,2,0:0:0
480,96,109013,1,0,0:0:0
480,96,109201,1,2,0:0:0
480,96,109388,1,0,0:0:0
480,96,109576,1,4,0:0:0
480,96,109763,1,0,0:0:0
480,96,109857,1,0,0:0:0
480,96,109951,1,2,0:0:0
480,96,110138,1,0,0:0:0
480,96,110232,1,0,0:0:0
480,96,110326,1,2,0:0:0
480,96,110419,1,0,0:0:0
480,96,110513,1,0,0:0:0
480,96,110701,1,4,0:0:0
480,96,111076,1,6,0:0:0
480,96,111451,1,6,0:0:0
480,96,111826,1,4,0:0:0
480,96,112107,1,2,0:0:0
480,96,112201,1,0,0:0:0
480,96,112388,1,2,0:0:0
480,96,112576,1,2,0:0:0
480,96,112638,1,2,0:0:0
480,96,112701,1,2,0:0:0
480,96,112763,1,2,0:0:0
480,96,112951,1,4,0:0:0
480,96,113326,1,2,0:0:0
480,96,113701,1,2,0:0:0
480,96,114076,1,0,0:0:0
480,96,114451,1,2,0:0:0
480,96,114826,1,2,0:0:0
480,96,115013,1,2,0:0:0
480,96,115201,1,0,0:0:0
480,96,115576,1,0,0:0:0
480,96,115951,1,0,0:0:0
480,96,116138,1,2,0:0:0
480,96,116326,1,0,0:0:0
480,96,116701,1,2,0:0:0
480,96,117076,1,2,0:0:0
480,96,117451,1,6,0:0:0
480,96,117826,1,0,0:0:0
480,96,118013,1,0,0:0:0
480,96,118201,1,0,0:0:0
480,96,118388,1,2,0:0:0
480,96,118576,1,0,0:0:0
480,96,118763,1,0,0:0:0
480,96,118951,1,2,0:0:0
480,96,119138,1,2,0:0:0
480,96,119326,1,0,0:0:0
480,96,119701,1,0,0:0:0
480,96,120076,1,0,0:0:0
480,96,120263,1,0,0:0:0
480,96,120451,1,0,0:0:0
480,96,120544,1,0,0:0:0
480,96,120638,1,0,0:0:0
480,96,120732,1,0,0:0:0
480,96,120826,1,2,0:0:0
480,96,121201,1,0,0:0:0
480,96,121576,1,2,0:0:0
480,96,121951,1,6,0:0:0
480,96,122326,1,2,0:0:0
480,96,122513,1,2,0:0:0
480,96,122701,1,0,0:0:0
480,96,123076,1,2,0:0:0
480,96,123451,1,2,0:0:0
480,96,123638,1,0,0:0:0
480,96,123826,1,0,0:0:0
480,96,124201,1,2,0:0:0
480,96,124576,1,0,0:0:0
480,96,124951,1,2,0:0:0
480,96,125044,1,0,0:0:0
480,96,125138,1,0,0:0:0
480,96,125232,1,2,0:0:0
480,96,125326,1,0,0:0:0
480,96,125701,1,0,0:0:0
480,96,125888,1,0,0:0:0
480,96,126076,1,2,0:0:0
480,96,126451,1,6,0:0:0
256,192,126638,12,0,130857,0:0:0
