osu file format v11

[General]
AudioFilename: Gojou Kai - Ultimate Truth.mp3
AudioLeadIn: 2000
PreviewTime: 40497
Countdown: 0
SampleSet: Soft
StackLeniency: 0.7
Mode: 0
LetterboxInBreaks: 0

[Editor]
Bookmarks: 83326
DistanceSpacing: 1
BeatDivisor: 4
GridSize: 8

[Metadata]
Title:Ultimate Truth
TitleUnicode:Ultimate Truth
Artist:Gojou Kai
ArtistUnicode:Gojou Kai
Creator:DaxMasterix
Version:Normal
Source:Touhou
Tags:youmu konpaku SYNC.ART'S Secret Seven Perfect Cherry Blossom zun wmfchris mancusojuanmattos
BeatmapID:150379
BeatmapSetID:48656

[Difficulty]
HPDrainRate:4
CircleSize:3
OverallDifficulty:4
ApproachRate:5
SliderMultiplier:1.2
SliderTickRate:1

[Events]
//Background and Video events
0,0,"BG.png"
//Break Periods
2,37652,39297
//Storyboard Layer 0 (Background)
//Storyboard Layer 1 (Fail)
//Storyboard Layer 2 (Pass)
//Storyboard Layer 3 (Foreground)
//Storyboard Sound Samples
//Background Colour Transformations
3,100,163,162,255

[TimingPoints]
50,389.61038961039,4,2,1,80,1,0
18751,-100,4,2,1,80,0,1
37452,-100,4,2,1,80,0,0
40497,379.746835443038,3,2,1,80,1,1
40591,-100,3,2,1,80,0,0
48471,-100,3,2,0,80,0,0
58724,-100,3,2,1,80,0,0
76951,375,3,2,1,80,1,1
76997,-100,3,2,1,80,0,0
94951,-100,3,2,1,80,0,1
112951,-100,3,2,1,80,0,0

[Colours]
Combo1 : 255,128,64
Combo2 : 0,255,128
Combo3 : 128,255,255
Combo4 : 255,128,192

[HitObjects]
176,80,50,2,0,B|96:200|176:318,1,240,6|2,0:0|0:0,0:0:0
256,224,1218,1,2,0:0:0
343,305,1608,2,0,B|416:200|336:80,1,240,2|2,0:0|0:0,0:0:0
256,160,2777,1,2,0:0:0
136,224,3166,6,0,B|256:248|375:225,1,240,2|2,0:0|0:0,0:0:0
472,160,4335,1,2,0:0:0
376,96,4725,2,0,B|256:72|137:95,1,240,2|2,0:0|0:0,0:0:0
40,160,5894,1,2,0:0:0
136,224,6283,6,0,B|254:201|376:224,1,240,2|2,0:0|0:0,0:0:0
476,287,7452,1,2,0:0:0
376,352,7842,2,0,B|256:376|137:353,1,240,2|2,0:0|0:0,0:0:0
36,287,9011,1,2,0:0:0
136,224,9400,6,0,B|160:160|104:120|104:120|112:56|176:24,1,240,6|2,0:0|0:0,0:0:0
256,104,10569,1,2,0:0:0
338,25,10959,2,0,B|400:56|408:120|408:120|352:160|376:224,1,240,2|2,0:0|0:0,0:0:0
256,235,12127,1,2,0:0:0
376,304,12517,6,0,B|256:328|137:305,1,240,2|2,0:0|0:0,0:0:0
144,184,13686,1,2,0:0:0
32,144,14075,2,0,B|104:48|104:48|168:40|208:112,1,240,2|2,0:0|0:0,0:0:0
256,208,15244,1,2,0:0:0
309,102,15634,6,0,B|344:40|408:48|408:48|480:144,1,240,2|2,0:0|0:0,0:0:0
368,184,16803,1,2,0:0:0
468,244,17192,2,0,P|370:315|256:336,1,240,2|2,0:0|0:0,0:0:0
192,240,18361,1,2,0:0:0
124,339,18751,6,0,B|-19:327,1,120,6|10,0:0|0:0,0:0:0
72,229,19530,2,0,B|192:240,1,120,2|10,0:0|0:0,0:0:0
128,136,20309,5,2,0:0:0
195,36,20699,1,10,0:0:0
314,36,21088,1,2,0:0:0
384,136,21478,1,10,0:0:0
320,240,21868,6,0,B|439:229,1,120,2|10,0:0|0:0,0:0:0
376,330,22647,2,0,B|256:340,1,120,2|10,0:0|0:0,0:0:0
136,350,23426,5,2,0:0:0
192,240,23816,1,10,0:0:0
76,273,24205,1,2,0:0:0
124,163,24595,1,10,0:0:0
174,54,24985,6,0,B|302:54,1,120,2|10,0:0|0:0,0:0:0
344,160,25764,2,0,B|224:160,1,120,2|10,0:0|0:0,0:0:0
256,263,26543,5,2,0:0:0
200,359,26933,1,10,0:0:0
312,359,27322,1,2,0:0:0
256,263,27712,1,10,0:0:0
160,208,28101,6,0,B|40:152,1,120,6|10,0:0|0:0,0:0:0
88,42,28881,2,0,B|196:92,1,120,2|10,0:0|0:0,0:0:0
315,92,29660,2,0,B|424:42,1,120,2|10,0:0|0:0,0:0:0
460,157,30439,2,0,B|352:208,1,120,2|10,0:0|0:0,0:0:0
433,296,31218,5,2,0:0:0
316,326,31608,1,10,0:0:0
195,326,31998,1,2,0:0:0
79,296,32387,1,10,0:0:0
149,213,32777,6,0,B|104:102,1,120,6|10,0:0|0:0,0:0:0
201,55,33556,1,2,0:0:0
309,55,33946,1,10,0:0:0
358,79,34140,1,2,0:0:0
408,102,34335,6,0,B|362:214,1,120,6|10,0:0|0:0,0:0:0
316,323,35114,1,2,0:0:0
195,323,35504,1,10,0:0:0
172,268,35699,1,2,0:0:0
149,213,35894,6,0,B|200:104,1,120,6|10,0:0|0:0,0:0:0
312,104,36673,2,0,B|363:213,1,120,2|10,0:0|0:0,0:0:0
340,268,37257,1,2,0:0:0
317,323,37452,1,6,0:0:0
375,273,40497,6,0,B|255:297|136:274,1,240,4|0,0:0|0:0,0:0:0
136,274,41636,2,0,B|158:154|256:72,1,240
256,72,42775,2,0,B|353:154|375:274,1,240
256,312,43914,1,0,0:0:0
375,111,45053,6,0,B|255:87|136:110,1,240,0|0,0:0|0:0,0:0:0
136,109,46193,2,0,B|158:229|256:312,1,240
256,312,47332,2,0,B|353:229|375:109,1,240
256,72,48471,1,2,0:0:0
24,272,49610,6,0,B|130:332|256:311,1,240
256,311,50750,2,0,B|256:184|178:90,1,240
178,89,51889,2,0,B|84:165|26:273,1,240,0|0,0:0|0:0,0:0:0
136,312,53028,1,0,0:0:0
256,80,54167,6,0,B|381:59|487:119,1,240
486,119,55307,2,0,B|427:226|333:302,1,240,0|0,0:0|0:0,0:0:0
333,302,56446,2,0,B|255:207|255:80,1,240
376,72,57585,1,2,0:0:0
192,104,58724,6,0,B|80:168,2,120,4|0|0,0:0|0:0|0:0,0:0:0
320,104,59864,2,0,B|432:168,2,120
256,208,61003,2,0,B|256:336,2,120
256,208,62142,5,0,0:0:0
192,104,62522,1,0,0:0:0
320,104,62902,1,0,0:0:0
192,104,63281,6,0,B|80:40,2,120
320,104,64421,2,0,B|432:40,2,120
256,208,65560,2,0,B|256:336,2,120
256,208,66699,1,0,0:0:0
80,96,67838,6,4,B|256:32|440:96,1,360,6|6,0:0|0:0,0:0:0
169,319,70117,6,0,B|257:375|337:319,2,180,6|6|6,0:0|0:0|0:0,0:0:0
256,184,71826,5,2,0:0:0
256,184,72015,1,2,0:0:0
256,64,72395,6,2,B|120:96,1,120,6|2,0:0|0:0,0:0:0
192,192,73155,2,2,B|200:320,1,120,2|6,0:0|0:0,0:0:0
312,311,73914,2,2,B|320:192,1,120,2|2,0:0|0:0,0:0:0
372,91,74674,2,2,B|256:64,1,120,6|2,0:0|0:0,0:0:0
192,192,75433,5,2,0:0:0
320,192,75813,1,6,0:0:0
255,320,76951,6,0,B|120:312,1,120,6|2,0:0|0:0,0:0:0
135,312,77701,1,2,0:0:0
88,216,78076,2,0,B|223:207,1,120,2|2,0:0|0:0,0:0:0
207,208,78826,1,2,0:0:0
159,97,79201,5,2,0:0:0
256,27,79576,1,2,0:0:0
354,97,79951,1,2,0:0:0
305,208,80326,2,0,B|368:200|408:256,1,120,2|2,0:0|0:0,0:0:0
359,366,81076,2,0,B|296:374|256:318,1,120,2|2,0:0|0:0,0:0:0
136,332,81826,5,2,0:0:0
50,248,82201,2,0,B|18:192|50:128,1,120,2|2,0:0|0:0,0:0:0
145,62,82951,1,2,0:0:0
256,15,83326,1,2,0:0:0
366,62,83701,6,0,B|396:196,1,120,2|2,0:0|0:0,0:0:0
276,209,84451,2,0,B|256:328,1,120,2|2,0:0|0:0,0:0:0
142,286,85201,1,2,0:0:0
66,192,85576,1,2,0:0:0
112,88,85951,6,0,B|240:56,1,120,6|2,0:0|0:0,0:0:0
228,58,86701,1,2,0:0:0
224,168,87076,2,0,B|352:136,1,120,2|2,0:0|0:0,0:0:0
340,138,87826,1,2,0:0:0
341,257,88201,5,2,0:0:0
256,341,88576,1,2,0:0:0
171,257,88951,1,2,0:0:0
126,145,89326,6,0,B|-2:121,1,120,2|2,0:0|0:0,0:0:0
91,36,90076,2,0,B|219:60,1,120,2|2,0:0|0:0,0:0:0
328,58,90826,5,2,0:0:0
420,134,91201,2,0,B|449:193|417:249,1,120,2|2,0:0|0:0,0:0:0
313,309,91951,1,2,0:0:0
197,342,92326,2,0,B|80:320,1,120,2|2,0:0|0:0,0:0:0
37,214,93076,5,2,0:0:0
57,96,93451,1,2,0:0:0
174,96,93826,2,0,B|198:224,1,120,2|2,0:0|0:0,0:0:0
316,213,94576,1,2,0:0:0
339,96,94951,5,6,0:0:0
428,175,95326,1,2,0:0:0
316,213,95701,1,2,0:0:0
196,213,96076,5,2,0:0:0
84,175,96451,1,2,0:0:0
173,96,96826,1,2,0:0:0
59,63,97201,6,0,B|39:120|85:176,1,120,2|2,0:0|0:0,0:0:0
85,175,97951,2,0,B|130:219|132:283,1,120,2|2,0:0|0:0,0:0:0
242,329,98701,1,2,0:0:0
329,255,99076,1,2,0:0:0
448,243,99451,6,0,B|440:123,1,120,2|2,0:0|0:0,0:0:0
440,123,100201,1,2,0:0:0
321,135,100576,2,0,B|329:255,1,120,2|2,0:0|0:0,0:0:0
328,254,101326,1,2,0:0:0
256,350,101701,5,2,0:0:0
183,254,102076,1,2,0:0:0
183,254,102451,1,2,0:0:0
87,182,102826,1,2,0:0:0
183,109,103201,1,2,0:0:0
183,109,103576,1,2,0:0:0
256,25,103951,6,0,B|384:57,1,120,6|2,0:0|0:0,0:0:0
372,54,104701,1,2,0:0:0
312,152,105076,2,0,B|195:122,1,120,2|2,0:0|0:0,0:0:0
195,122,105826,5,2,0:0:0
161,224,106201,1,2,0:0:0
266,246,106576,1,2,0:0:0
225,346,106951,1,2,0:0:0
120,319,107326,2,0,B|0:289,1,120,2|2,0:0|0:0,0:0:0
48,192,108076,1,2,0:0:0
5,94,108451,6,0,B|124:64,1,120,6|2,0:0|0:0,0:0:0
121,64,109201,1,2,0:0:0
221,129,109576,2,0,B|338:101,1,120,6|2,0:0|0:0,0:0:0
337,101,110326,1,2,0:0:0
341,220,110701,5,6,0:0:0
256,304,111076,1,6,0:0:0
171,219,111451,1,6,0:0:0
255,134,111826,1,6,0:0:0
128,64,112951,6,0,B|32:144|64:288,1,240,6|2,0:0|0:0,0:0:0
160,328,114076,1,2,0:0:0
256,280,114451,1,2,0:0:0
352,328,114826,1,2,0:0:0
449,281,115201,6,0,B|480:144|384:64,1,240,2|2,0:0|0:0,0:0:0
320,152,116326,1,2,0:0:0
256,64,116701,1,2,0:0:0
200,152,117076,1,2,0:0:0
144,248,117451,6,0,B|264:288|384:248,1,240,6|2,0:0|0:0,0:0:0
320,152,118576,2,0,B|184:152,1,120,2|2,0:0|0:0,0:0:0
256,56,119326,1,2,0:0:0
144,64,119701,6,0,B|24:120|32:264,1,240,2|2,0:0|0:0,0:0:0
152,232,120826,1,2,0:0:0
256,288,121201,1,2,0:0:0
360,232,121576,1,2,0:0:0
480,258,121951,6,0,B|424:24,1,240,6|2,0:0|0:0,0:0:0
312,72,123076,1,2,0:0:0
256,176,123451,1,2,0:0:0
200,72,123826,1,2,0:0:0
87,25,124201,6,0,B|31:258,1,240,2|2,0:0|0:0,0:0:0
136,320,125326,1,2,0:0:0
256,320,125701,1,2,0:0:0
376,320,126076,1,2,0:0:0
256,320,126451,5,6,0:0:0
256,192,127576,1,6,0:0:0
256,64,128701,1,6,0:0:0
256,192,129451,12,0,130904,0:0:0
