osu file format v11

[General]
AudioFilename: Gojou Kai - Ultimate Truth.mp3
AudioLeadIn: 2000
PreviewTime: 40497
Countdown: 0
SampleSet: Soft
StackLeniency: 0.7
Mode: 0
LetterboxInBreaks: 0

[Editor]
Bookmarks: 83326
DistanceSpacing: 1
BeatDivisor: 4
GridSize: 4

[Metadata]
Title:Ultimate Truth
TitleUnicode:Ultimate Truth
Artist:Gojou Kai
ArtistUnicode:Gojou Kai
Creator:DaxMasterix
Version:Mancuso's Easy
Source:Touhou
Tags:youmu konpaku SYNC.ART'S Secret Seven Perfect Cherry Blossom zun wmfchris mancusojuanmattos
BeatmapID:158314
BeatmapSetID:48656

[Difficulty]
HPDrainRate:3
CircleSize:3
OverallDifficulty:3
ApproachRate:3
SliderMultiplier:0.9
SliderTickRate:1

[Events]
//Background and Video events
0,0,"BG.png"
//Break Periods
2,37652,39057
//Storyboard Layer 0 (Background)
//Storyboard Layer 1 (Fail)
//Storyboard Layer 2 (Pass)
//Storyboard Layer 3 (Foreground)
//Storyboard Sound Samples
//Background Colour Transformations
3,100,163,162,255

[TimingPoints]
50,389.61038961039,4,2,1,80,1,0
18751,-100,4,2,1,80,0,1
37452,-100,4,2,1,80,0,0
40497,379.746835443038,3,2,1,80,1,1
40544,-100,3,2,0,80,0,0
72680,-100,3,2,1,80,0,0
72870,-100,3,2,0,80,0,0
73819,-100,3,2,1,80,0,0
74009,-100,3,2,0,80,0,0
76951,375,3,2,1,80,1,1
76997,-100,3,2,1,80,0,0
79482,-100,3,2,0,80,0,0
79669,-100,3,2,1,80,0,0
81732,-100,3,2,0,80,0,0
84638,-100,3,2,1,80,0,0
85013,-100,3,2,0,80,0,0
87732,-100,3,2,1,80,0,0
87919,-100,3,2,0,80,0,0
94482,-100,3,2,1,80,0,0
94951,-100,3,2,1,80,0,1
104982,-100,3,2,0,80,0,1
105169,-100,3,2,1,80,0,1
112951,-100,3,2,1,80,0,0

[Colours]
Combo1 : 255,128,64
Combo2 : 0,255,128
Combo3 : 128,255,255
Combo4 : 255,128,192

[HitObjects]
136,96,50,2,0,B|204:44|256:100|256:100|308:44|380:96,1,270,4|2,0:0|0:0,0:0:0
344,176,1608,2,0,B|300:256,3,90,2|0|0|0,0:0|0:0|0:0|0:0,0:0:0
212,256,3166,6,0,B|168:177,3,90,2|0|0|0,0:0|0:0|0:0|0:0,0:0:0
136,92,4725,6,0,B|204:40|256:96|256:96|308:40|380:92,1,270,2|0,0:0|0:0,0:0:0
460,124,6283,2,0,B|511:191|455:243|455:243|511:295|461:366,1,270,2|0,0:0|0:0,0:0:0
384,316,7842,6,0,B|256:344|115:316,1,270,2|0,0:0|0:0,0:0:0
115,226,9400,2,0,B|251:203|383:226,2,270,4|0|0,0:0|0:0|0:0,0:0:0
128,316,12127,1,2,0:0:0
40,300,12517,6,0,B|-10:233|45:181|45:181|-10:129|39:58,1,270,0|0,0:0|0:0,0:0:0
104,120,14075,2,0,B|284:120,2,180,0|2|0,0:0|0:0|0:0,0:0:0
256,192,16024,12,0,17972,0:0:0
140,296,18751,6,0,B|184:356|256:376|328:356|372:296,1,270,4|2,0:0|0:0,0:0:0
428,128,20699,1,2,0:0:0
256,180,21478,1,2,0:0:0
84,128,22257,1,2,0:0:0
256,80,23037,1,2,0:0:0
344,80,23426,6,0,B|432:120|396:224|396:224|496:224,1,270,0|2,0:0|0:0,0:0:0
316,196,25374,1,2,0:0:0
256,28,26153,1,2,0:0:0
184,80,26543,2,0,B|96:120|132:224|132:224|32:224,1,270,0|2,0:0|0:0,0:0:0
84,308,28101,6,0,B|172:308|172:308|216:340|256:356|296:340|340:308|340:308|428:308,1,360,4|0,0:0|0:0,0:0:0
256,252,30439,1,0,0:0:0
84,200,31218,6,0,B|172:200|172:200|216:168|256:152|296:168|340:200|340:200|428:200,1,360
428,108,33166,2,0,B|380:108|380:108|340:76,1,90,2|0,0:0|0:0,0:0:0
256,68,33946,1,2,0:0:0
164,81,34335,2,0,B|132:108|132:108|84:108,2,90
256,68,35504,2,0,B|256:252,2,180,2|2|2,0:0|0:0|0:0,0:0:0
340,36,37452,5,4,0:0:0
108,152,40497,6,0,B|160:76|256:56|256:56|352:76|404:152,1,360,4|0,0:0|0:0,0:0:0
480,196,42395,1,2,2:0:0
404,240,42775,6,0,B|352:316|256:336|256:336|160:316|108:240,2,360,0|0|2,0:0|0:0|0:0,0:0:0
344,172,46193,1,0,0:0:0
256,172,46572,2,0,P|172:160|135:80,1,180
199,16,47712,2,0,P|283:28|319:107,1,180,2|0,0:0|0:0,0:0:0
436,352,49610,6,0,B|436:260|436:260|368:208|368:208|432:144|432:144|432:52,1,360,4|0,0:0|0:0,0:0:0
340,52,51509,2,0,P|256:84|256:84|172:52,1,180,2|2,0:0|0:0,0:0:0
76,52,52648,2,0,B|76:144|76:144|140:208|140:208|72:260|72:260|72:352,1,360,0|0,0:0|0:0,0:0:0
160,336,54547,6,0,B|348:336,1,180,0|0,0:0|0:0,0:0:0
348,248,55686,1,2,0:0:0
432,280,56066,2,0,B|432:100,2,180,2|0|2,0:0|0:0|0:0,0:0:0
172,244,58724,6,0,B|216:288|260:292|260:292|312:296|332:380|256:420|184:380|200:296|252:292|252:292|296:288|340:244,1,450,4|0,0:0|0:0,0:0:0
256,196,61003,1,0,0:0:0
256,196,61383,1,2,0:0:0
172,156,61762,6,0,B|216:112|260:108|260:108|312:104|332:20|256:-20|184:20|200:104|252:108|252:108|296:112|340:156,1,450,0|0,0:0|0:0,0:0:0
400,88,64041,2,0,B|448:173|408:261,1,180,2|0,0:0|0:0,0:0:0
344,324,65180,2,0,P|256:340|168:324,1,180,2|0,0:0|0:0,0:0:0
103,280,66319,2,0,B|63:192|112:108,2,180,2|0|4,0:0|0:0|0:0,0:0:0
192,268,68218,6,0,P|238:190,1,90,0|2,0:0|0:0,0:0:0
288,116,68978,2,0,B|372:172|456:115,1,180,4|0,0:0|0:0,0:0:0
388,56,70117,2,0,B|303:0|219:55,1,180,4|0,0:0|0:0,0:0:0
288,116,71256,2,0,B|204:172|120:115,1,180,4|0,0:0|0:0,0:0:0
72,192,72395,5,4,0:0:0
152,236,72775,2,0,B|215:299,1,90,2|2,0:0|0:0,0:0:0
256,380,73534,1,4,0:0:0
300,300,73914,2,0,B|363:236,1,90,2|2,0:0|0:0,0:0:0
440,192,74674,1,4,0:0:0
363,147,75053,2,0,B|300:84,2,90,2|2|2,0:0|0:0|0:0,0:0:0
144,312,76951,6,0,B|144:240|72:240|72:152,1,180,4|2,0:0|0:0,0:0:0
140,92,78076,2,0,B|184:152|256:172|328:152|372:92,1,270
440,152,79576,2,0,B|440:240|368:240|368:312,2,180,2|0|0,0:0|0:0|0:0,0:0:0
352,144,81451,5,4,0:0:0
264,168,81826,2,0,B|300:208|266:249,1,90,0|2,0:0|0:0,0:0:0
180,236,82576,2,0,B|144:196|178:154,2,90,2|0|2,0:0|0:0|0:0,0:0:0
120,304,83701,2,0,B|59:259|51:187|63:115|128:71,1,270,2|2,0:0|0:0,0:0:0
396,72,85951,6,0,B|460:116|472:188|464:260|404:304,1,270,4|0,0:0|0:0,0:0:0
348,232,87451,2,0,B|384:192|349:150,2,90,2|2|0,0:0|0:0|0:0,0:0:0
256,224,88576,2,0,B|256:359,2,135,2|2|0,0:0|0:0|0:0,0:0:0
168,244,90076,1,0,0:0:0
96,304,90451,6,0,B|35:259|27:187|39:115|103:71,1,270,2|2,0:0|0:0,0:0:0
168,136,91951,2,0,B|256:176|344:136,1,180,0|2,0:0|0:0,0:0:0
348,228,93076,2,0,B|348:318,1,90,0|2,0:0|0:0,0:0:0
256,316,93826,1,2,0:0:0
168,316,94201,2,0,B|168:226,1,90,0|2,0:0|0:0,0:0:0
256,200,94951,5,4,0:0:0
192,136,95326,2,0,B|196:88|255:59|316:88|320:136,1,180,0|2,0:0|0:0,0:0:0
256,200,96451,1,2,0:0:0
319,266,96826,2,0,B|316:312|255:340|196:312|192:264,1,180,2|2,0:0|0:0,0:0:0
100,268,97951,6,0,B|52:183|96:95,1,180
184,104,99076,1,2,0:0:0
256,160,99451,1,2,0:0:0
328,104,99826,1,2,0:0:0
416,96,100201,6,0,B|459:183|411:268,1,180,2|2,0:0|0:0,0:0:0
348,204,101326,2,0,B|284:236|256:300|256:300|228:236|164:204,1,270,2|2,0:0|0:0,0:0:0
256,172,102826,1,4,0:0:0
20,304,103951,6,0,B|96:356|188:367,1,180,4|2,0:0|0:0,0:0:0
256,312,105076,1,2,0:0:0
328,368,105451,2,0,B|420:356|496:304,1,180,2|2,0:0|0:0,0:0:0
480,216,106576,1,2,0:0:0
404,264,106951,6,0,B|308:252|296:140,1,180
256,60,108076,1,0,0:0:0
216,140,108451,2,0,B|204:253|108:265,1,180,4|0,0:0|0:0,0:0:0
100,176,109576,2,0,B|32:108,2,90,4|2|2,0:0|0:0|0:0,0:0:0
136,92,110701,5,4,0:0:0
212,44,111076,1,4,0:0:0
300,44,111451,1,4,0:0:0
376,92,111826,1,2,0:0:0
256,228,112576,6,0,B|256:324,1,90,2|4,0:0|0:0,0:0:0
344,340,113326,6,0,B|344:292|369:254,1,90,0|2,0:0|0:0,0:0:0
456,272,114076,2,0,B|456:224|430:186,1,90,2|2,0:0|0:0,0:0:0
340,172,114826,2,0,B|320:120|256:120|256:120|256:36,1,180,0|2,0:0|0:0,0:0:0
164,44,115951,6,0,B|164:92|138:129,1,90,2|2,0:0|0:0,0:0:0
64,76,116701,2,0,B|38:113|38:161,1,90,0|2,0:0|0:0,0:0:0
104,224,117451,6,0,B|196:256|196:364,1,180,4|0,0:0|0:0,0:0:0
108,324,118576,2,0,B|268:220,1,180,2|0,0:0|0:0,0:0:0
332,172,119701,1,2,0:0:0
484,72,120451,2,0,B|536:140|480:192|480:192|536:244|486:315,1,270,2|2,0:0|0:0,0:0:0
416,260,121951,5,4,0:0:0
342,206,122326,2,0,B|191:107,1,180,2|2,0:0|0:0,0:0:0
276,76,123451,2,0,B|276:184|184:216,1,180,2|0,0:0|0:0,0:0:0
132,288,124576,5,2,0:0:0
172,368,124951,1,2,0:0:0
84,368,125326,1,2,0:0:0
0,368,125701,1,0,0:0:0
44,288,126076,1,2,0:0:0
256,192,126451,12,0,130904,0:0:0
