osu file format v11

[General]
AudioFilename: Gojou Kai - Ultimate Truth.mp3
AudioLeadIn: 2000
PreviewTime: 40497
Countdown: 0
SampleSet: Soft
StackLeniency: 0.7
Mode: 0
LetterboxInBreaks: 0

[Editor]
Bookmarks: 28426,82013,111076
DistanceSpacing: 0.5
BeatDivisor: 4
GridSize: 8

[Metadata]
Title:Ultimate Truth
TitleUnicode:Ultimate Truth
Artist:Gojou Kai
ArtistUnicode:Gojou Kai
Creator:DaxMasterix
Version:Lunatic
Source:Touhou
Tags:youmu konpaku SYNC.ART'S Secret Seven Perfect Cherry Blossom zun wmfchris mancusojuanmattos
BeatmapID:159874
BeatmapSetID:48656

[Difficulty]
HPDrainRate:7
CircleSize:4
OverallDifficulty:7
ApproachRate:9
SliderMultiplier:2
SliderTickRate:1

[Events]
//Background and Video events
0,0,"BG.png"
//Break Periods
2,37652,39351
//Storyboard Layer 0 (Background)
//Storyboard Layer 1 (Fail)
//Storyboard Layer 2 (Pass)
//Storyboard Layer 3 (Foreground)
//Storyboard Sound Samples
//Background Colour Transformations
3,100,163,162,255

[TimingPoints]
50,389.61038961039,4,2,1,80,1,0
18751,-100,4,2,1,80,0,1
37452,-100,4,2,1,80,0,0
40497,379.746835443038,3,2,1,80,1,1
40544,-100,3,2,1,80,0,0
76951,375,3,2,1,80,1,1
76997,-100,3,2,1,80,0,0
94951,-100,3,2,1,80,0,1
112951,-100,3,2,1,80,0,0

[Colours]
Combo1 : 255,128,64
Combo2 : 0,255,128
Combo3 : 128,255,255
Combo4 : 255,128,192

[HitObjects]
383,86,50,1,6,0:0:0
303,150,244,1,0,0:0:0
207,150,439,1,2,0:0:0
127,86,634,1,0,0:0:0
55,158,829,2,0,B|79:214|143:230,1,100,2|0,0:0|0:0,0:0:0
454,158,1218,2,0,B|431:214|384:224,1,100,2|0,0:0|0:0,0:0:0
256,224,1608,5,2,0:0:0
192,296,1803,1,0,0:0:0
256,368,1998,1,2,0:0:0
320,296,2192,1,0,0:0:0
125,226,2387,2,0,B|192:152,1,100,2|0,0:0|0:0,0:0:0
386,226,2777,2,0,B|320:152,1,100,2|0,0:0|0:0,0:0:0
192,152,3166,6,0,B|144:64,1,100,2|0,0:0|0:0,0:0:0
112,192,3556,2,0,B|192:256,1,100,2|0,0:0|0:0,0:0:0
72,264,3946,2,0,B|-24:232,1,100,2|0,0:0|0:0,0:0:0
88,344,4335,2,0,B|192:344,1,100,2|0,0:0|0:0,0:0:0
320,152,4725,6,0,B|368:64,1,100,2|0,0:0|0:0,0:0:0
400,192,5114,2,0,B|320:256,1,100,2|0,0:0|0:0,0:0:0
440,264,5504,2,0,B|536:232,1,100,2|0,0:0|0:0,0:0:0
424,344,5894,2,0,B|320:344,1,100,2|0,0:0|0:0,0:0:0
352,256,6283,5,2,0:0:0
256,304,6478,1,0,0:0:0
160,256,6673,1,2,0:0:0
256,208,6868,1,0,0:0:0
352,160,7062,1,2,0:0:0
256,112,7257,1,0,0:0:0
160,160,7452,1,2,0:0:0
256,208,7647,1,0,0:0:0
160,160,7842,6,0,B|48:96,1,100,2|0,0:0|0:0,0:0:0
256,112,8231,2,0,B|256:0,1,100,2|0,0:0|0:0,0:0:0
352,160,8621,2,0,B|464:96,1,100,2|0,0:0|0:0,0:0:0
256,208,9011,2,0,B|256:328,1,100,2|0,0:0|0:0,0:0:0
160,272,9400,5,6,0:0:0
65,228,9595,1,0,0:0:0
109,133,9790,1,2,0:0:0
203,177,9985,1,0,0:0:0
352,112,10179,5,2,0:0:0
447,156,10374,1,0,0:0:0
403,251,10569,1,2,0:0:0
309,207,10764,1,0,0:0:0
192,80,10959,6,0,B|144:64|80:80,1,100,2|0,0:0|0:0,0:0:0
24,160,11348,2,0,B|72:176|136:160,1,100,2|0,0:0|0:0,0:0:0
208,256,11738,2,0,B|160:240|96:256,1,100,2|0,0:0|0:0,0:0:0
40,336,12127,2,0,B|88:352|152:336,1,100,2|0,0:0|0:0,0:0:0
256,352,12517,5,2,0:0:0
373,338,12712,1,0,0:0:0
488,256,12907,1,2,0:0:0
370,242,13101,1,0,0:0:0
234,165,13296,1,2,0:0:0
352,152,13491,1,0,0:0:0
466,69,13686,1,2,0:0:0
348,55,13881,1,0,0:0:0
192,72,14075,6,0,B|80:112,1,100,2|0,0:0|0:0,0:0:0
65,238,14465,2,0,B|144:176,1,100,2|0,0:0|0:0,0:0:0
136,288,14855,2,0,B|80:384,1,100,2|0,0:0|0:0,0:0:0
256,320,15244,1,2,0:0:0
256,320,15439,1,0,0:0:0
376,288,15634,6,0,B|426:374,1,100,2|0,0:0|0:0,0:0:0
446,238,16024,2,0,B|368:176,1,100,2|0,0:0|0:0,0:0:0
320,72,16413,2,0,B|414:105,1,100,2|0,0:0|0:0,0:0:0
256,192,16803,1,2,0:0:0
256,192,16998,1,0,0:0:0
192,72,17192,5,2,0:0:0
160,168,17387,1,0,0:0:0
352,168,17582,1,2,0:0:0
320,72,17777,1,0,0:0:0
72,224,17972,5,2,0:0:0
104,320,18166,1,0,0:0:0
408,320,18361,1,2,0:0:0
440,224,18556,1,0,0:0:0
145,291,18751,6,0,B|72:224,1,100,6|0,0:0|0:0,0:0:0
366,291,19140,2,0,B|440:224,1,100,10|0,0:0|0:0,0:0:0
212,232,19530,2,0,B|171:141,1,100,2|0,0:0|0:0,0:0:0
300,232,19920,2,0,B|341:141,1,100,10|0,0:0|0:0,0:0:0
145,92,20309,6,0,B|72:160,1,100,2|0,0:0|0:0,0:0:0
366,92,20699,2,0,B|440:160,1,100,10|0,0:0|0:0,0:0:0
212,152,21088,2,0,B|171:243,1,100,2|0,0:0|0:0,0:0:0
300,152,21478,2,0,B|341:243,1,100,10|0,0:0|0:0,0:0:0
256,272,21868,5,2,0:0:0
176,328,22062,1,0,0:0:0
80,320,22257,1,10,0:0:0
24,240,22452,1,0,0:0:0
256,112,22647,5,2,0:0:0
336,56,22842,1,0,0:0:0
432,64,23037,1,10,0:0:0
488,144,23231,1,0,0:0:0
256,272,23426,6,0,B|167:228,1,100,2|0,0:0|0:0,0:0:0
256,112,23816,2,0,B|345:156,1,100,10|0,0:0|0:0,0:0:0
176,328,24205,2,0,B|165:208,1,100,2|0,0:0|0:0,0:0:0
336,56,24595,2,0,B|347:176,1,100,10|0,0:0|0:0,0:0:0
80,64,24985,5,2,0:0:0
168,112,25179,1,0,0:0:0
120,200,25374,1,10,0:0:0
208,248,25569,1,0,0:0:0
304,248,25764,1,2,0:0:0
392,200,25959,1,0,0:0:0
344,112,26153,1,10,0:0:0
432,64,26348,1,0,0:0:0
214,148,26543,6,0,B|208:248,1,100,2|0,0:0|0:0,0:0:0
304,248,26933,2,0,B|297:148,1,100,10|0,0:0|0:0,0:0:0
80,64,27322,2,0,B|73:163,1,100,2|0,0:0|0:0,0:0:0
438,163,27712,2,0,B|432:64,1,100,10|0,0:0|0:0,0:0:0
304,248,28101,5,6,0:0:0
201,267,28296,1,0,0:0:0
80,64,28491,1,10,0:0:0
183,83,28686,1,0,0:0:0
432,64,28881,1,2,0:0:0
329,83,29075,1,0,0:0:0
208,248,29270,1,10,0:0:0
311,267,29465,1,0,0:0:0
80,64,29660,6,0,B|72:184,1,100,2|0,0:0|0:0,0:0:0
438,163,30050,2,0,B|432:64,1,100,10|0,0:0|0:0,0:0:0
183,82,30439,2,0,B|175:202,1,100,2|0,0:0|0:0,0:0:0
335,181,30829,2,0,B|329:82,1,100,10|0,0:0|0:0,0:0:0
256,248,31218,5,2,0:0:0
184,320,31413,1,0,0:0:0
112,248,31608,1,10,0:0:0
184,176,31803,1,0,0:0:0
256,248,31998,5,2,0:0:0
328,320,32192,1,0,0:0:0
400,248,32387,1,10,0:0:0
328,176,32582,1,0,0:0:0
256,104,32777,6,0,B|192:72,3,50,2|0|0|0,0:0|0:0|0:0|0:0,0:0:0
184,176,33166,2,0,B|112:174,3,50,10|0|0|0,0:0|0:0|0:0|0:0,0:0:0
140,272,33556,2,0,B|74:301,3,50,2|0|0|0,0:0|0:0|0:0|0:0,0:0:0
216,336,33946,2,0,B|169:390,3,50,10|0|0|0,0:0|0:0|0:0|0:0,0:0:0
296,336,34335,6,0,B|343:390,3,50,2|0|0|0,0:0|0:0|0:0|0:0,0:0:0
372,272,34725,2,0,B|438:301,3,50,10|0|0|0,0:0|0:0|0:0|0:0,0:0:0
328,176,35114,2,0,B|377:174,3,50,2|0|0|0,0:0|0:0|0:0|0:0,0:0:0
255,104,35504,2,0,B|300:81,3,50,10|0|0|0,0:0|0:0|0:0|0:0,0:0:0
184,176,35894,5,2,0:0:0
176,176,35991,1,0,0:0:0
168,176,36088,1,0,0:0:0
160,176,36186,1,0,0:0:0
152,176,36283,1,10,0:0:0
144,176,36381,1,0,0:0:0
136,176,36478,1,0,0:0:0
128,176,36575,1,2,0:0:0
120,176,36673,1,2,0:0:0
112,176,36770,1,2,0:0:0
104,176,36868,1,0,0:0:0
96,176,36965,1,2,0:0:0
88,176,37062,1,10,0:0:0
80,176,37160,1,2,0:0:0
72,176,37257,1,2,0:0:0
64,176,37355,1,2,0:0:0
56,176,37452,1,4,0:0:0
368,64,40497,5,4,0:0:0
464,56,40876,1,0,0:0:0
424,144,41256,1,0,0:0:0
144,64,41636,5,0,0:0:0
48,56,42015,1,0,0:0:0
88,144,42395,1,0,0:0:0
312,208,42775,5,0,0:0:0
256,296,43155,1,0,0:0:0
200,208,43534,1,0,0:0:0
200,208,43724,1,0,0:0:0
200,208,44104,5,0,0:0:0
200,208,44294,2,0,B|112:264,1,100
312,208,44674,2,0,B|400:264,1,100
256,112,45053,5,0,0:0:0
200,208,45433,1,0,0:0:0
312,208,45813,1,0,0:0:0
256,71,46193,5,0,0:0:0
172,216,46572,1,0,0:0:0
340,216,46952,1,0,0:0:0
256,32,47332,5,0,0:0:0
130,228,47712,1,0,0:0:0
382,228,48091,1,0,0:0:0
256,160,48471,5,0,0:0:0
144,320,49610,5,0,0:0:0
48,328,49990,1,0,0:0:0
88,240,50370,1,0,0:0:0
368,320,50750,5,0,0:0:0
464,328,51129,1,0,0:0:0
424,240,51509,1,0,0:0:0
200,176,51889,5,0,0:0:0
256,88,52269,1,0,0:0:0
312,176,52648,1,0,0:0:0
312,176,52838,1,0,0:0:0
312,176,53218,5,0,0:0:0
312,176,53408,2,0,B|400:120,1,100
200,176,53788,2,0,B|112:120,1,100
256,272,54167,5,0,0:0:0
312,176,54547,1,0,0:0:0
200,176,54927,1,0,0:0:0
256,313,55307,5,0,0:0:0
340,168,55686,1,0,0:0:0
172,168,56066,1,0,0:0:0
256,352,56446,5,0,0:0:0
382,156,56826,1,0,0:0:0
130,156,57205,1,0,0:0:0
256,224,57585,5,0,0:0:0
208,72,58724,6,0,B|96:80,1,100,4|0,0:0|0:0,0:0:0
168,168,59104,2,0,B|64:216,1,100
144,280,59484,2,0,B|64:368,1,100
304,72,59864,6,0,B|416:80,1,100
344,168,60243,2,0,B|448:216,1,100
368,280,60623,2,0,B|448:368,1,100
144,280,61003,6,0,B|224:368,1,100
344,168,61383,2,0,B|264:256,1,100
208,72,61762,1,0,0:0:0
208,72,61952,1,0,0:0:0
208,72,62332,5,0,0:0:0
272,280,62522,1,0,0:0:0
96,152,62712,1,0,0:0:0
320,152,62902,1,0,0:0:0
144,280,63091,1,0,0:0:0
304,312,63281,6,0,B|416:304,1,100
344,216,63661,2,0,B|448:168,1,100
368,104,64041,2,0,B|448:16,1,100
208,312,64421,6,0,B|96:304,1,100
168,216,64800,2,0,B|64:168,1,100
144,104,65180,2,0,B|64:16,1,100
368,104,65560,6,0,B|288:16,1,100
168,216,65940,2,0,B|248:128,1,100
304,312,66319,1,0,0:0:0
304,312,66509,1,0,0:0:0
304,312,66699,2,0,B|176:312,1,100
368,240,67079,2,0,B|496:240,1,100,0|0,0:0|0:0,0:0:0
304,176,67459,2,0,B|176:176,1,100,0|0,0:0|0:0,0:0:0
368,104,67838,5,4,0:0:0
144,104,68978,1,4,0:0:0
464,208,70117,1,6,0:0:0
256,320,70686,1,6,0:0:0
48,208,71256,1,6,0:0:0
256,192,71826,1,2,0:0:0
256,192,72015,1,2,0:0:0
256,192,72395,6,0,B|200:208|160:168,1,100,6|0,0:0|0:0,0:0:0
256,192,72775,2,0,B|240:136|280:96,1,100,2|0,0:0|0:0,0:0:0
256,192,73155,2,0,B|312:176|352:216,1,100,2|0,0:0|0:0,0:0:0
163,171,73534,6,0,B|107:187|67:147,1,100,6|0,0:0|0:0,0:0:0
276,99,73914,2,0,B|260:43|300:3,1,100,2|0,0:0|0:0,0:0:0
350,213,74294,2,0,B|406:197|446:237,1,100,2|0,0:0|0:0,0:0:0
236,285,74674,5,6,0:0:0
163,172,75053,1,2,0:0:0
276,99,75433,5,2,0:0:0
349,212,75623,1,2,0:0:0
256,192,75813,1,6,0:0:0
256,264,76572,6,2,B|256:304,2,25
256,240,76762,1,2,0:0:0
256,216,76857,1,2,0:0:0
256,192,76951,6,0,B|176:131,1,100,6|0,0:0|0:0,0:0:0
32,128,77326,2,0,B|136:208,1,100,2|0,0:0|0:0,0:0:0
144,320,77701,2,0,B|40:240,1,100,2|0,0:0|0:0,0:0:0
368,320,78076,6,0,B|447:259,1,100,2|0,0:0|0:0,0:0:0
480,127,78451,2,0,B|400:188,1,100,2|0,0:0|0:0,0:0:0
256,192,78826,2,0,B|335:131,1,100,2|0,0:0|0:0,0:0:0
256,56,79201,5,2,0:0:0
160,72,79388,1,0,0:0:0
40,184,79576,1,2,0:0:0
136,168,79763,1,0,0:0:0
256,192,79951,5,2,0:0:0
352,208,80138,1,0,0:0:0
472,320,80326,1,2,0:0:0
376,304,80513,1,0,0:0:0
136,304,80701,6,0,B|40:272,1,100,2|0,0:0|0:0,0:0:0
376,304,81076,2,0,B|472:272,1,100,2|2,0:0|0:0,0:0:0
321,216,81451,5,2,0:0:0
279,127,81638,1,0,0:0:0
186,172,81826,1,2,0:0:0
226,259,82013,1,0,0:0:0
279,127,82201,1,2,0:0:0
226,259,82388,1,0,0:0:0
158,228,82576,5,2,0:0:0
221,94,82763,1,0,0:0:0
361,162,82951,1,2,0:0:0
301,292,83138,1,0,0:0:0
221,94,83326,1,2,0:0:0
301,292,83513,1,0,0:0:0
158,228,83701,6,0,B|40:240,1,100,2|0,0:0|0:0,0:0:0
361,162,84076,2,0,B|479:150,1,100,2|0,0:0|0:0,0:0:0
222,94,84451,2,0,B|104:106,1,100,2|0,0:0|0:0,0:0:0
301,292,84826,2,0,B|419:280,1,100,2|0,0:0|0:0,0:0:0
158,228,85201,5,2,0:0:0
361,162,85388,1,0,0:0:0
222,94,85576,1,2,0:0:0
301,292,85763,1,2,0:0:0
121,83,85951,6,0,B|56:208,1,100,6|0,0:0|0:0,0:0:0
111,317,86326,2,0,B|157:228,1,100,2|0,0:0|0:0,0:0:0
256,152,86701,2,0,B|256:256,1,100,2|0,0:0|0:0,0:0:0
437,172,87076,6,0,B|390:83,1,100,2|0,0:0|0:0,0:0:0
354,228,87451,2,0,B|401:317,1,100,2|0,0:0|0:0,0:0:0
256,252,87826,2,0,B|256:152,1,100,2|0,0:0|0:0,0:0:0
112,56,88201,6,0,B|159:77|215:69,1,100,2|0,0:0|0:0,0:0:0
436,172,88576,2,0,B|389:193|333:185,1,100,2|0,0:0|0:0,0:0:0
173,185,88951,1,2,0:0:0
302,69,89138,1,0,0:0:0
256,216,89326,1,2,0:0:0
385,100,89513,1,0,0:0:0
176,272,89701,6,0,B|80:296,1,100,2|0,0:0|0:0,0:0:0
336,272,90076,2,0,B|432:296,1,100,2|2,0:0|0:0,0:0:0
256,320,90451,5,2,0:0:0
176,272,90638,1,0,0:0:0
173,185,90826,1,2,0:0:0
256,144,91013,1,0,0:0:0
338,185,91201,1,2,0:0:0
336,272,91388,1,0,0:0:0
256,348,91576,5,2,0:0:0
152,286,91763,1,0,0:0:0
149,174,91951,1,2,0:0:0
256,120,92138,1,0,0:0:0
362,174,92326,1,2,0:0:0
359,286,92513,1,0,0:0:0
256,376,92701,5,2,0:0:0
128,300,92888,1,0,0:0:0
124,162,93076,1,2,0:0:0
256,96,93263,1,0,0:0:0
388,162,93451,1,2,0:0:0
382,300,93638,1,0,0:0:0
124,162,93826,6,0,B|16:112,1,100,2|0,0:0|0:0,0:0:0
388,162,94201,2,0,B|496:112,1,100,2|0,0:0|0:0,0:0:0
256,96,94576,2,0,B|256:240,1,100,2|2,0:0|0:0,0:0:0
128,300,94951,6,0,B|64:272|44:196,1,100,6|0,0:0|0:0,0:0:0
125,161,95326,2,0,B|189:189|209:265,1,100,2|0,0:0|0:0,0:0:0
304,304,95701,2,0,B|256:328|208:304,1,100,2|0,0:0|0:0,0:0:0
384,300,96076,6,0,B|448:272|468:196,1,100,2|0,0:0|0:0,0:0:0
387,161,96451,2,0,B|323:189|303:265,1,100,2|0,0:0|0:0,0:0:0
208,304,96826,2,0,B|256:328|304:304,1,100,2|0,0:0|0:0,0:0:0
304,144,97201,6,0,B|336:96|304:48,1,100,2|0,0:0|0:0,0:0:0
206,50,97576,2,0,B|176:96|208:144,1,100,2|0,0:0|0:0,0:0:0
255,291,97951,2,0,B|256:192,1,100,2|0,0:0|0:0,0:0:0
144,192,98326,5,2,0:0:0
376,192,98513,1,0,0:0:0
168,272,98701,2,0,B|64:304,1,100,2|0,0:0|0:0,0:0:0
344,272,99076,2,0,B|448:304,1,100,2|2,0:0|0:0,0:0:0
304,144,99451,5,2,0:0:0
267,46,99638,1,0,0:0:0
169,81,99826,1,2,0:0:0
205,180,100013,1,0,0:0:0
267,46,100201,1,2,0:0:0
205,180,100388,1,0,0:0:0
315,174,100576,5,2,0:0:0
267,46,100763,1,0,0:0:0
138,92,100951,1,2,0:0:0
185,222,101138,1,0,0:0:0
267,46,101326,1,2,0:0:0
185,222,101513,1,0,0:0:0
330,215,101701,5,2,0:0:0
267,46,101888,1,0,0:0:0
97,107,102076,1,2,0:0:0
159,278,102263,1,0,0:0:0
267,47,102451,1,2,0:0:0
159,278,102638,1,0,0:0:0
330,215,102826,6,0,B|352:88,1,100,2|0,0:0|0:0,0:0:0
182,215,103201,2,0,B|160:88,1,100,2|0,0:0|0:0,0:0:0
256,328,103576,2,0,B|256:216,1,100,2|2,0:0|0:0,0:0:0
353,278,103951,6,0,B|408:264|424:208,1,100,6|0,0:0|0:0,0:0:0
336,176,104326,2,0,B|379:140|370:82,1,100,2|0,0:0|0:0,0:0:0
256,112,104701,2,0,B|280:60|248:12,1,100,2|0,0:0|0:0,0:0:0
159,278,105076,6,0,B|104:264|88:208,1,100,2|0,0:0|0:0,0:0:0
176,176,105451,2,0,B|132:140|141:82,1,100,2|0,0:0|0:0,0:0:0
256,112,105826,2,0,B|231:60|263:12,1,100,2|0,0:0|0:0,0:0:0
352,280,106201,6,0,B|407:294|423:350,1,100,2|0,0:0|0:0,0:0:0
160,280,106576,2,0,B|105:294|89:350,1,100,2|0,0:0|0:0,0:0:0
336,176,106951,1,2,0:0:0
176,176,107138,1,0,0:0:0
256,112,107326,1,2,0:0:0
256,328,107513,1,0,0:0:0
352,280,107701,6,0,B|456:240,1,100,2|0,0:0|0:0,0:0:0
160,280,108076,2,0,B|56:240,1,100,2|2,0:0|0:0,0:0:0
176,76,108451,6,0,B|176:176,1,100,6|0,0:0|0:0,0:0:0
85,134,108826,2,0,B|176:176,1,100,2|0,0:0|0:0,0:0:0
105,246,109201,2,0,B|176:176,1,100,2|0,0:0|0:0,0:0:0
336,308,109576,6,0,B|336:208,1,100,6|0,0:0|0:0,0:0:0
426,249,109951,2,0,B|336:208,1,100,2|0,0:0|0:0,0:0:0
406,137,110326,2,0,B|336:208,1,100,2|0,0:0|0:0,0:0:0
85,134,110701,6,0,B|120:32,1,100,6|0,0:0|0:0,0:0:0
426,249,111076,2,0,B|392:352,1,100,6|0,0:0|0:0,0:0:0
184,232,111451,1,6,0:0:0
256,128,111638,1,0,0:0:0
328,232,111826,1,6,0:0:0
256,336,112013,1,0,0:0:0
168,144,112201,5,2,0:0:0
344,144,112388,1,0,0:0:0
256,200,112576,6,2,B|256:240,2,25
256,176,112763,1,2,0:0:0
256,152,112857,1,2,0:0:0
256,128,112951,6,0,B|279:80|322:55,1,100,6|0,0:0|0:0,0:0:0
410,216,113326,2,0,B|368:192|344:144,1,100,2|0,0:0|0:0,0:0:0
256,264,113701,2,0,B|232:216|189:191,1,100,2|0,0:0|0:0,0:0:0
101,352,114076,2,0,B|143:327|167:279,1,100,2|0,0:0|0:0,0:0:0
344,278,114451,6,0,B|369:327|411:352,1,100,2|0,0:0|0:0,0:0:0
322,191,114826,2,0,B|280:216|256:264,1,100,2|0,0:0|0:0,0:0:0
168,143,115201,2,0,B|144:192|102:216,1,100,2|0,0:0|0:0,0:0:0
189,54,115576,2,0,B|233:80|256:128,1,100,2|0,0:0|0:0,0:0:0
352,104,115951,5,2,0:0:0
440,80,116138,1,0,0:0:0
160,280,116326,1,2,0:0:0
72,304,116513,1,0,0:0:0
352,280,116701,1,2,0:0:0
440,304,116888,1,0,0:0:0
160,104,117076,1,2,0:0:0
72,80,117263,1,2,0:0:0
322,191,117451,6,0,B|448:192,1,100,6|0,0:0|0:0,0:0:0
190,191,117826,2,0,B|64:192,1,100,2|0,0:0|0:0,0:0:0
256,120,118201,2,0,B|256:16,1,100,2|0,0:0|0:0,0:0:0
256,264,118576,2,0,B|256:368,1,100,2|0,0:0|0:0,0:0:0
322,191,118951,5,2,0:0:0
256,120,119138,1,0,0:0:0
190,191,119326,1,2,0:0:0
256,264,119513,1,0,0:0:0
344,104,119701,6,0,B|384:72|448:80,1,100,2|0,0:0|0:0,0:0:0
168,104,120076,2,0,B|128:72|64:80,1,100,2|0,0:0|0:0,0:0:0
48,192,120451,1,2,0:0:0
64,216,120544,1,0,0:0:0
80,240,120638,1,0,0:0:0
96,264,120732,1,0,0:0:0
112,288,120826,6,0,B|170:376,1,100,2|0,0:0|0:0,0:0:0
400,288,121201,2,0,B|342:376,1,100,2|0,0:0|0:0,0:0:0
256,264,121576,2,0,B|256:136,1,100,2|2,0:0|0:0,0:0:0
168,104,121951,5,6,0:0:0
344,104,122138,1,0,0:0:0
408,184,122326,2,0,B|304:200,1,100,2|0,0:0|0:0,0:0:0
104,184,122701,2,0,B|208:200,1,100,2|0,0:0|0:0,0:0:0
112,288,123076,5,2,0:0:0
400,288,123263,1,0,0:0:0
168,104,123451,2,0,B|208:216,1,100,2|0,0:0|0:0,0:0:0
344,104,123826,2,0,B|304:216,1,100,2|0,0:0|0:0,0:0:0
112,288,124201,6,0,B|64:256|48:168,1,100,2|0,0:0|0:0,0:0:0
400,288,124576,2,0,B|448:256|464:168,1,100,2|0,0:0|0:0,0:0:0
256,256,124951,1,2,0:0:0
256,224,125044,1,0,0:0:0
256,192,125138,1,0,0:0:0
256,160,125232,1,0,0:0:0
256,128,125326,6,0,B|256:8,1,100,2|0,0:0|0:0,0:0:0
80,88,125701,2,0,B|184:144,1,100,2|0,0:0|0:0,0:0:0
432,88,126076,2,0,B|328:144,1,100,2|2,0:0|0:0,0:0:0
152,288,126451,6,0,B|179:330,3,50,6|0|0|0,0:0|0:0|0:0|0:0,0:0:0
256,256,126826,2,0,B|256:304,3,50,2|0|0|0,0:0|0:0|0:0|0:0,0:0:0
360,288,127201,2,0,B|332:330,3,50,2|0|0|0,0:0|0:0|0:0|0:0,0:0:0
332,184,127576,6,0,B|359:141,3,50,2|0|0|0,0:0|0:0|0:0|0:0,0:0:0
256,152,127951,2,0,B|256:104,3,50,2|0|0|0,0:0|0:0|0:0|0:0,0:0:0
180,184,128326,2,0,B|152:141,3,50,2|0|0|0,0:0|0:0|0:0|0:0,0:0:0
156,263,128701,5,2,0:0:0
163,288,128794,1,0,0:0:0
175,310,128888,1,0,0:0:0
193,326,128982,1,0,0:0:0
216,338,129076,1,2,0:0:0
240,344,129169,1,0,0:0:0
264,342,129263,1,0,0:0:0
289,338,129357,1,0,0:0:0
311,325,129451,1,2,0:0:0
330,309,129544,1,0,0:0:0
344,289,129638,1,0,0:0:0
351,265,129732,1,0,0:0:0
256,192,129826,12,0,130904,0:0:0
