osu file format v11

[General]
AudioFilename: Gojou Kai - Ultimate Truth.mp3
AudioLeadIn: 2000
PreviewTime: 40497
Countdown: 0
SampleSet: Soft
StackLeniency: 0.7
Mode: 0
LetterboxInBreaks: 0

[Editor]
Bookmarks: 28426,28783
DistanceSpacing: 1.2
BeatDivisor: 8
GridSize: 8

[Metadata]
Title:Ultimate Truth
TitleUnicode:Ultimate Truth
Artist:Gojou Kai
ArtistUnicode:Gojou Kai
Creator:DaxMasterix
Version:Hard
Source:Touhou
Tags:youmu konpaku SYNC.ART'S Secret Seven Perfect Cherry Blossom zun wmfchris mancusojuanmattos
BeatmapID:150377
BeatmapSetID:48656

[Difficulty]
HPDrainRate:6
CircleSize:4
OverallDifficulty:6
ApproachRate:7
SliderMultiplier:1.6
SliderTickRate:1

[Events]
//Background and Video events
0,0,"BG.png"
//Break Periods
2,37652,39351
//Storyboard Layer 0 (Background)
//Storyboard Layer 1 (Fail)
//Storyboard Layer 2 (Pass)
//Storyboard Layer 3 (Foreground)
//Storyboard Sound Samples
//Background Colour Transformations
3,100,163,162,255

[TimingPoints]
50,389.61038961039,4,2,1,80,1,0
18751,-100,4,2,1,80,0,1
37452,-100,4,2,1,80,0,0
40497,379.746835443038,3,2,1,80,1,1
40544,-100,3,2,1,80,0,0
48471,-100,3,2,0,80,0,0
58724,-100,3,2,1,80,0,0
66699,-100,3,2,0,80,0,0
67838,-100,3,2,1,80,0,0
76951,375,3,2,1,80,1,1
76997,-100,3,2,1,80,0,0
94951,-100,3,2,1,80,0,1
98232,-100,3,2,2,80,0,1
98419,-100,3,2,1,80,0,1
107232,-100,3,2,2,80,0,1
107419,-100,3,2,1,80,0,1
112951,-100,3,2,1,80,0,0

[Colours]
Combo1 : 255,128,64
Combo2 : 0,255,128
Combo3 : 128,255,255
Combo4 : 255,128,192

[HitObjects]
208,96,50,2,0,B|120:160,1,80,6|0,0:0|0:0,0:0:0
200,200,439,2,0,B|112:264,1,80,2|0,0:0|0:0,0:0:0
192,304,829,2,0,B|104:368,1,80,2|0,0:0|0:0,0:0:0
256,368,1218,1,2,0:0:0
256,368,1413,1,0,0:0:0
384,351,1608,6,0,B|320:304,1,80,2|0,0:0|0:0,0:0:0
376,247,1998,2,0,B|312:200,1,80,2|0,0:0|0:0,0:0:0
368,142,2387,2,0,B|304:95,1,80,2|0,0:0|0:0,0:0:0
256,16,2777,1,2,0:0:0
256,16,2972,1,0,0:0:0
168,48,3166,6,0,B|160:152,1,80,2|0,0:0|0:0,0:0:0
80,152,3556,2,0,B|88:256,1,80,2|0,0:0|0:0,0:0:0
168,248,3946,2,0,B|160:352,1,80,2|0,0:0|0:0,0:0:0
256,368,4335,1,2,0:0:0
256,368,4530,1,0,0:0:0
352,328,4725,6,0,B|346:249,1,80,2|0,0:0|0:0,0:0:0
425,231,5115,2,0,B|432:152,1,80,2|0,0:0|0:0,0:0:0
350,127,5504,2,0,B|344:48,1,80,2|0,0:0|0:0,0:0:0
256,16,5894,1,2,0:0:0
256,16,6089,1,0,0:0:0
168,47,6283,6,0,B|64:88,1,80,2|0,0:0|0:0,0:0:0
168,136,6673,2,0,B|272:176,1,80,2|0,0:0|0:0,0:0:0
168,224,7062,2,0,B|176:304,1,80,2|0,0:0|0:0,0:0:0
256,336,7452,1,2,0:0:0
256,336,7647,1,0,0:0:0
336,304,7842,6,0,B|344:224,1,80,2|0,0:0|0:0,0:0:0
269,164,8231,2,0,B|344:136,1,80,2|0,0:0|0:0,0:0:0
418,76,8621,2,0,B|344:47,1,80,2|0,0:0|0:0,0:0:0
256,16,9011,1,2,0:0:0
256,16,9205,1,0,0:0:0
168,47,9400,6,0,B|88:80|64:192,1,160,6|2,0:0|0:0,0:0:0
160,200,9985,1,0,0:0:0
88,256,10179,2,0,B|96:344,1,80,2|0,0:0|0:0,0:0:0
186,305,10569,2,0,B|256:344,1,80,2|0,0:0|0:0,0:0:0
256,344,10959,6,0,B|325:305,1,80,2|0,0:0|0:0,0:0:0
416,335,11348,2,0,B|424:256,1,80,2|0,0:0|0:0,0:0:0
352,200,11738,1,2,0:0:0
441,166,11933,1,0,0:0:0
368,104,12126,1,2,0:0:0
457,70,12322,1,0,0:0:0
384,8,12517,6,0,B|288:56,1,80,2|0,0:0|0:0,0:0:0
199,43,12907,2,0,B|128:8,1,80,2|0,0:0|0:0,0:0:0
55,70,13296,1,2,0:0:0
144,104,13492,1,0,0:0:0
71,166,13685,1,2,0:0:0
160,200,13881,1,0,0:0:0
87,262,14075,6,0,B|104:360,1,80,2|0,0:0|0:0,0:0:0
200,344,14465,2,0,B|213:265,1,80,2|0,0:0|0:0,0:0:0
298,265,14855,2,0,B|312:344,1,80,2|0,0:0|0:0,0:0:0
411,340,15245,2,0,B|425:262,1,80,2|0,0:0|0:0,0:0:0
360,192,15634,5,2,0:0:0
400,120,15829,1,0,0:0:0
336,64,16024,1,2,0:0:0
296,136,16218,1,0,0:0:0
216,136,16413,1,2,0:0:0
176,64,16607,1,0,0:0:0
112,120,16803,1,2,0:0:0
152,192,16997,1,0,0:0:0
80,232,17192,6,0,B|56:312,1,80,2|0,0:0|0:0,0:0:0
136,304,17582,2,0,B|232:320,1,80,2|0,0:0|0:0,0:0:0
296,320,17972,2,0,B|375:307,1,80,2|0,0:0|0:0,0:0:0
454,308,18362,2,0,B|432:232,1,80,2|0,0:0|0:0,0:0:0
336,216,18751,6,0,B|256:248|176:216,1,160,6|10,0:0|0:0,0:0:0
112,176,19335,1,0,0:0:0
184,136,19530,1,2,0:0:0
216,64,19725,2,0,B|312:64,1,80,0|10,0:0|0:0,0:0:0
328,136,20114,1,0,0:0:0
400,176,20309,6,0,B|432:280,1,80,2|0,0:0|0:0,0:0:0
336,240,20699,2,0,B|352:344,1,80,10|0,0:0|0:0,0:0:0
256,272,21088,2,0,B|256:360,1,80,2|0,0:0|0:0,0:0:0
163,319,21478,1,10,0:0:0
88,252,21673,1,0,0:0:0
176,224,21868,6,0,B|184:128|104:64,1,160,2|10,0:0|0:0,0:0:0
192,32,22452,1,0,0:0:0
256,96,22647,2,0,B|256:184,1,80,2|0,0:0|0:0,0:0:0
336,224,23037,1,10,0:0:0
336,136,23231,1,0,0:0:0
416,176,23426,6,0,B|456:256,1,80,2|0,0:0|0:0,0:0:0
384,296,23816,2,0,B|344:376,1,80,10|0,0:0|0:0,0:0:0
256,320,24205,1,2,0:0:0
256,320,24400,1,0,0:0:0
163,367,24595,1,10,0:0:0
163,367,24790,1,0,0:0:0
80,304,24985,6,0,B|32:240|48:128,1,160,2|10,0:0|0:0,0:0:0
56,64,25569,1,0,0:0:0
128,120,25764,2,0,B|136:216,1,80,2|0,0:0|0:0,0:0:0
208,152,26153,2,0,B|216:56,1,80,10|0,0:0|0:0,0:0:0
297,72,26543,6,0,B|304:152,1,80,2|0,0:0|0:0,0:0:0
377,199,26932,2,0,B|384:120,1,80,10|0,0:0|0:0,0:0:0
456,64,27322,1,2,0:0:0
472,152,27517,1,0,0:0:0
464,240,27712,1,8,0:0:0
416,312,27907,1,0,0:0:0
336,280,28101,6,0,B|256:312|176:280,1,160,6|10,0:0|0:0,0:0:0
96,312,28686,1,0,0:0:0
48,240,28881,2,0,B|32:152,1,80,2|0,0:0|0:0,0:0:0
112,112,29270,2,0,B|120:200,1,80,10|0,0:0|0:0,0:0:0
200,232,29660,5,2,0:0:0
212,144,29855,1,0,0:0:0
300,144,30050,1,10,0:0:0
312,232,30245,1,0,0:0:0
392,192,30439,2,0,B|399:112,1,80,2|0,0:0|0:0,0:0:0
478,161,30830,2,0,B|464:240,1,80,10|0,0:0|0:0,0:0:0
392,288,31218,6,0,B|304:336|208:328,1,160,2|10,0:0|0:0,0:0:0
152,328,31803,1,0,0:0:0
88,272,31998,2,0,B|48:192,1,80,2|0,0:0|0:0,0:0:0
136,168,32387,2,0,B|176:248,1,80,10|0,0:0|0:0,0:0:0
256,224,32777,6,0,B|320:208,7,40,2|0|0|0|10|0|0|0,0:0|0:0|0:0|0:0|0:0|0:0|0:0|0:0,0:0:0
272,176,33556,2,0,B|336:160,7,40,2|0|0|0|10|0|0|0,0:0|0:0|0:0|0:0|0:0|0:0|0:0|0:0,0:0:0
288,128,34335,2,0,B|352:112,7,40,2|0|0|0|10|0|0|0,0:0|0:0|0:0|0:0|0:0|0:0|0:0|0:0,0:0:0
304,80,35114,2,0,B|368:64,7,40,2|0|0|0|10|0|0|0,0:0|0:0|0:0|0:0|0:0|0:0|0:0|0:0,0:0:0
208,80,35894,6,0,B|144:64,3,40,2|0|0|0,0:0|0:0|0:0|0:0,0:0:0
224,128,36283,2,0,B|160:112,3,40,10|0|0|2,0:0|0:0|0:0|0:0,0:0:0
240,176,36673,2,0,B|176:160,3,40,2|2|0|2,0:0|0:0|0:0|0:0,0:0:0
256,224,37062,2,0,B|192:208,3,40,10|2|2|2,0:0|0:0|0:0|0:0,0:0:0
256,224,37452,5,4,0:0:0
40,96,40497,6,0,B|208:72,1,160,4|0,0:0|0:0,0:0:0
198,73,41256,1,0,0:0:0
176,208,41636,2,0,B|344:184,1,160
334,185,42395,1,0,0:0:0
313,310,42775,2,0,B|472:288,1,160
472,288,43534,5,0,0:0:0
472,288,43724,2,0,B|408:112,1,160
334,185,44294,2,0,B|304:280,1,80
202,261,44674,2,0,B|178:185,1,80
94,137,45053,6,0,B|40:288,1,160
40,288,45813,1,0,0:0:0
280,120,46193,2,0,B|225:270,1,160
225,270,46953,1,0,0:0:0
472,96,47332,2,0,B|417:246,1,160
417,246,48091,1,0,0:0:0
417,246,48471,1,2,0:0:0
472,288,49610,6,0,B|304:312,1,160
314,311,50369,1,0,0:0:0
336,176,50749,2,0,B|168:200,1,160
178,199,51508,1,0,0:0:0
199,74,51888,2,0,B|40:96,1,160
40,96,52647,5,0,0:0:0
40,96,52837,2,0,B|104:272,1,160
178,199,53407,2,0,B|208:104,1,80
310,123,53787,2,0,B|334:199,1,80
418,247,54166,6,0,B|472:96,1,160
472,96,54926,1,0,0:0:0
232,264,55306,2,0,B|287:114,1,160
287,114,56066,1,0,0:0:0
40,288,56445,2,0,B|95:138,1,160
95,138,57204,1,0,0:0:0
95,138,57584,1,2,0:0:0
408,232,58724,6,0,B|280:360,1,160,4|0,0:0|0:0,0:0:0
294,345,59484,1,0,0:0:0
104,152,59864,2,0,B|232:24,1,160
218,39,60624,1,0,0:0:0
336,112,61003,2,0,B|336:296,1,160
336,272,61762,5,0,0:0:0
336,272,61952,2,0,B|256:312|176:272,1,160,0|0,0:0|0:0,0:0:0
149,204,62522,2,0,B|216:160,1,80
296,160,62902,2,0,B|362:204,1,80
408,152,63281,6,0,B|280:24,1,160
294,38,64041,1,0,0:0:0
104,232,64421,2,0,B|232:360,1,160
217,345,65181,1,0,0:0:0
336,272,65560,2,0,B|336:88,1,160
336,112,66319,5,0,0:0:0
176,112,66699,1,2,0:0:0
176,272,67079,1,0,0:0:0
336,272,67459,1,0,0:0:0
256,192,67838,5,6,0:0:0
176,272,68978,1,6,0:0:0
336,272,70117,2,0,B|408:240|408:240|448:152|392:80,2,240,6|6|6,0:0|0:0|0:0,0:0:0
256,144,71826,1,2,0:0:0
256,144,72016,1,2,0:0:0
112,88,72395,6,2,B|152:256,1,160,6|2,0:0|0:0,0:0:0
149,243,73155,1,2,0:0:0
362,243,73534,2,2,B|400:88,1,160,6|2,0:0|0:0,0:0:0
400,87,74294,1,2,0:0:0
256,144,74674,2,0,B|256:328,1,160,6|2,0:0|0:0,0:0:0
256,304,75433,1,2,0:0:0
256,304,75813,1,6,0:0:0
184,56,76951,6,0,B|80:88,1,80,6|0,0:0|0:0,0:0:0
88,192,77326,2,0,B|156:152,1,80,2|0,0:0|0:0,0:0:0
204,221,77701,2,0,B|160:288,1,80,2|0,0:0|0:0,0:0:0
352,288,78076,6,0,B|307:221,1,80,2|0,0:0|0:0,0:0:0
354,151,78451,2,0,B|424:192,1,80,2|0,0:0|0:0,0:0:0
404,79,78826,2,0,B|328:56,1,80,2|0,0:0|0:0,0:0:0
184,56,79201,6,0,B|208:144,1,80
332,229,79576,2,0,B|354:152,1,80,2|0,0:0|0:0,0:0:0
204,220,79951,1,2,0:0:0
204,220,80138,2,0,B|240:304|320:320,1,160,0|0,0:0|0:0,0:0:0
408,280,80701,1,2,0:0:0
408,280,80888,1,0,0:0:0
448,192,81076,1,2,0:0:0
448,192,81263,1,2,0:0:0
408,104,81451,6,0,B|336:40,1,80,2|0,0:0|0:0,0:0:0
312,144,81826,2,0,B|240:208,1,80,2|0,0:0|0:0,0:0:0
224,104,82201,2,0,B|152:40,1,80,2|0,0:0|0:0,0:0:0
72,80,82576,6,0,B|8:152,1,80,2|0,0:0|0:0,0:0:0
112,176,82951,2,0,B|176:248,1,80,2|0,0:0|0:0,0:0:0
72,264,83326,2,0,B|8:336,1,80,2|0,0:0|0:0,0:0:0
112,360,83701,5,2,0:0:0
200,320,83888,1,0,0:0:0
256,240,84076,2,0,B|256:128,2,80,2|0|2,0:0|0:0|0:0,0:0:0
312,320,84638,1,0,0:0:0
400,360,84826,6,0,B|472:288,1,80,2|0,0:0|0:0,0:0:0
384,248,85201,2,0,B|312:176,1,80,2|0,0:0|0:0,0:0:0
408,144,85576,2,0,B|480:72,1,80,2|2,0:0|0:0,0:0:0
376,56,85951,5,6,0:0:0
312,128,86138,1,0,0:0:0
256,48,86326,1,2,0:0:0
200,128,86513,1,0,0:0:0
136,56,86700,1,2,0:0:0
104,144,86888,1,0,0:0:0
104,144,87076,6,0,B|120:240,1,80,2|0,0:0|0:0,0:0:0
208,208,87451,2,0,B|221:286,1,80,2|0,0:0|0:0,0:0:0
312,272,87826,2,0,B|328:368,1,80,2|0,0:0|0:0,0:0:0
408,296,88201,5,2,0:0:0
472,224,88388,1,0,0:0:0
376,208,88576,1,2,0:0:0
440,136,88763,1,0,0:0:0
344,120,88951,1,2,0:0:0
296,40,89138,2,0,B|208:40|168:120,1,160
72,136,89701,1,2,0:0:0
136,208,89888,1,0,0:0:0
40,224,90076,1,2,0:0:0
104,296,90263,1,2,0:0:0
168,368,90451,6,0,B|216:288,1,80,2|0,0:0|0:0,0:0:0
302,299,90826,2,0,B|344:368,1,80,2|0,0:0|0:0,0:0:0
408,296,91201,2,0,B|456:216,1,80,2|0,0:0|0:0,0:0:0
360,184,91576,6,0,B|312:104,1,80,2|0,0:0|0:0,0:0:0
225,115,91951,2,0,B|183:183,1,80,2|0,0:0|0:0,0:0:0
120,112,92326,2,0,B|72:32,1,80,2|0,0:0|0:0,0:0:0
24,120,92701,5,2,0:0:0
32,216,92888,1,0,0:0:0
128,256,93076,2,0,B|208:248,1,80,2|0,0:0|0:0,0:0:0
304,248,93451,2,0,B|384:256,1,80,2|0,0:0|0:0,0:0:0
480,216,93826,1,2,0:0:0
488,120,94013,1,0,0:0:0
424,48,94201,6,0,B|368:120,1,80,2|0,0:0|0:0,0:0:0
270,95,94576,2,0,B|320:32,1,80,2|2,0:0|0:0,0:0:0
192,32,94951,5,6,0:0:0
88,48,95138,1,0,0:0:0
152,120,95326,2,0,B|192:208,1,80,2|0,0:0|0:0,0:0:0
256,272,95701,1,2,0:0:0
256,272,95888,1,0,0:0:0
326,191,96076,6,0,B|360:264,1,80,2|0,0:0|0:0,0:0:0
424,336,96451,1,2,0:0:0
320,352,96638,1,0,0:0:0
256,272,96826,1,2,0:0:0
256,272,97013,1,0,0:0:0
186,191,97201,6,0,B|152:264,1,80,2|0,0:0|0:0,0:0:0
64,224,97576,2,0,B|98:151,1,80,2|0,0:0|0:0,0:0:0
176,96,97951,1,2,0:0:0
256,48,98138,6,0,B|336:64|392:128,1,160,0|0,0:0|0:0,0:0:0
326,191,98701,2,0,B|359:263,1,80,2|0,0:0|0:0,0:0:0
256,272,99076,1,2,0:0:0
256,272,99263,1,2,0:0:0
152,263,99451,6,0,B|64:248,1,80,2|0,0:0|0:0,0:0:0
152,176,99826,2,0,B|80:128,1,80,2|0,0:0|0:0,0:0:0
208,112,100201,2,0,B|200:16,1,80,2|0,0:0|0:0,0:0:0
309,32,100576,6,0,B|304:112,1,80,2|0,0:0|0:0,0:0:0
426,130,100951,2,0,B|360:176,1,80,2|0,0:0|0:0,0:0:0
438,248,101326,2,0,B|360:263,1,80,2|0,0:0|0:0,0:0:0
400,344,101701,5,2,0:0:0
304,352,101888,1,0,0:0:0
208,352,102076,1,2,0:0:0
112,344,102263,1,0,0:0:0
73,248,102451,6,0,B|64:168,1,80,2|0,0:0|0:0,0:0:0
168,176,102826,2,0,B|158:256,1,80,2|0,0:0|0:0,0:0:0
248,264,103201,2,0,B|277:188,1,80,2|0,0:0|0:0,0:0:0
376,208,103576,1,2,0:0:0
400,112,103763,1,2,0:0:0
304,112,103951,5,6,0:0:0
304,112,104138,1,0,0:0:0
216,72,104326,1,2,0:0:0
216,72,104513,1,0,0:0:0
120,80,104701,1,2,0:0:0
120,80,104888,1,0,0:0:0
192,176,105076,5,2,0:0:0
192,176,105263,1,0,0:0:0
280,216,105451,1,2,0:0:0
280,216,105638,1,0,0:0:0
376,208,105826,1,2,0:0:0
376,208,106013,1,0,0:0:0
456,288,106201,6,0,B|368:328,1,80,2|0,0:0|0:0,0:0:0
296,336,106576,2,0,B|184:336,1,80,2|0,0:0|0:0,0:0:0
128,321,106951,1,2,0:0:0
56,264,107138,6,0,B|0:192|56:112,1,160
129,62,107701,1,2,0:0:0
216,48,107888,2,0,B|328:48,1,80,0|2,0:0|0:0,0:0:0
383,62,108263,1,2,0:0:0
472,104,108451,6,0,B|464:192,1,80,6|0,0:0|0:0,0:0:0
392,152,108826,2,0,B|384:240,1,80,2|0,0:0|0:0,0:0:0
312,200,109201,2,0,B|304:288,1,80,2|0,0:0|0:0,0:0:0
207,279,109576,6,0,B|200:200,1,80,6|0,0:0|0:0,0:0:0
127,231,109951,2,0,B|120:152,1,80,2|0,0:0|0:0,0:0:0
47,183,110326,2,0,B|40:104,1,80,2|0,0:0|0:0,0:0:0
112,40,110701,5,6,0:0:0
208,64,110888,1,0,0:0:0
304,64,111076,1,6,0:0:0
400,40,111263,1,0,0:0:0
360,136,111451,6,0,B|328:232,1,80,6|0,0:0|0:0,0:0:0
152,136,111826,2,0,B|184:232,1,80,6|0,0:0|0:0,0:0:0
256,280,112201,2,0,B|256:192,1,80,2|0,0:0|0:0,0:0:0
152,136,112576,1,2,0:0:0
360,136,112763,1,2,0:0:0
392,224,112951,6,0,B|384:264|344:288,1,80,6|0,0:0|0:0,0:0:0
256,280,113326,2,0,B|264:240|304:216,1,80,2|0,0:0|0:0,0:0:0
405,73,113701,2,0,B|397:113|360:136,1,80,2|0,0:0|0:0,0:0:0
269,128,114076,2,0,B|277:88|315:66,1,80,2|0,0:0|0:0,0:0:0
196,65,114451,6,0,B|235:88|243:128,1,80,2|0,0:0|0:0,0:0:0
152,136,114826,2,0,B|115:113|107:73,1,80,2|0,0:0|0:0,0:0:0
210,217,115201,2,0,B|248:240|256:280,1,80,2|0,0:0|0:0,0:0:0
165,286,115576,2,0,B|128:264|120:224,1,80,2|0,0:0|0:0,0:0:0
48,160,115951,5,2,0:0:0
80,72,116138,1,0,0:0:0
152,136,116326,2,0,B|224:72,1,80,2|0,0:0|0:0,0:0:0
300,82,116701,2,0,B|360:136,1,80,2|0,0:0|0:0,0:0:0
432,72,117076,1,2,0:0:0
464,160,117263,1,2,0:0:0
392,224,117451,6,0,B|383:328,1,80,6|0,0:0|0:0,0:0:0
304,344,117826,2,0,B|296:256,1,80,2|0,0:0|0:0,0:0:0
215,264,118201,2,0,B|208:344,1,80,2|0,0:0|0:0,0:0:0
126,303,118576,2,0,B|120:224,1,80,2|0,0:0|0:0,0:0:0
30,152,118951,2,0,B|24:232,1,80,2|0,0:0|0:0,0:0:0
120,120,119326,2,0,B|113:40,1,80,2|0,0:0|0:0,0:0:0
208,64,119701,5,2,0:0:0
304,64,119888,1,0,0:0:0
398,40,120076,2,0,B|392:120,1,80,2|0,0:0|0:0,0:0:0
488,232,120451,2,0,B|481:152,1,80,2|0,0:0|0:0,0:0:0
392,224,120826,2,0,B|385:303,1,80,2|0,0:0|0:0,0:0:0
304,248,121201,5,2,0:0:0
256,328,121388,1,0,0:0:0
208,248,121576,1,2,0:0:0
256,168,121763,1,2,0:0:0
256,72,121951,6,0,B|176:48,1,80,6|0,0:0|0:0,0:0:0
160,144,122326,2,0,B|72:144,1,80,2|0,0:0|0:0,0:0:0
104,240,122701,2,0,B|8:280,1,80,2|0,0:0|0:0,0:0:0
112,328,123076,5,2,0:0:0
208,344,123263,1,0,0:0:0
256,264,123451,1,2,0:0:0
256,264,123638,1,0,0:0:0
304,344,123826,1,2,0:0:0
400,328,124013,1,0,0:0:0
480,272,124201,6,0,B|408:240,1,80,2|0,0:0|0:0,0:0:0
432,144,124576,2,0,B|352:144,1,80,2|0,0:0|0:0,0:0:0
332,49,124951,2,0,B|256:72,1,80,2|0,0:0|0:0,0:0:0
168,40,125326,5,2,0:0:0
168,40,125513,1,0,0:0:0
104,112,125701,1,2,0:0:0
104,112,125888,1,0,0:0:0
192,144,126076,1,2,0:0:0
192,144,126263,1,2,0:0:0
128,216,126451,6,0,B|64:272,1,80,6|0,0:0|0:0,0:0:0
128,216,126826,2,0,B|160:304,1,80,2|0,0:0|0:0,0:0:0
128,216,127201,2,0,B|232:232,1,80,2|0,0:0|0:0,0:0:0
304,228,127576,6,0,B|384:216,1,80,6|0,0:0|0:0,0:0:0
356,291,127951,2,0,B|384:216,1,80,2|0,0:0|0:0,0:0:0
444,268,128326,2,0,B|384:216,1,80,2|0,0:0|0:0,0:0:0
368,128,128701,5,6,0:0:0
368,128,128888,1,0,0:0:0
256,48,129076,1,2,0:0:0
256,48,129263,1,0,0:0:0
144,128,129451,1,2,0:0:0
144,128,129638,1,0,0:0:0
256,192,129826,12,0,130904,0:0:0
