osu file format v5

[General]
AudioFilename: Gojou Kai - Ultimate Truth.mp3
AudioLeadIn: 1996
PreviewTime: -1
Countdown: 0
SampleSet: Soft
StackLeniency: 0.5
Mode: 0
LetterboxInBreaks: 1
EditorBookmarks: 7777,37777

[Metadata]
Title:Ultimate Truth
Artist:Gojou Kai
Creator:Al-Azif
Version:Normal
Source:touhou
Tags:SYNC.ART'S

[Difficulty]
HPDrainRate:2
CircleSize:3
OverallDifficulty:4
SliderMultiplier:1.4
SliderTickRate:1

[Events]
//Background and Video events
0,0,"bg.jpg"
//Break Periods
2,37577,39102
2,57710,66443
//Storyboard Layer 0 (Background)
//Storyboard Layer 1 (Failing)
//Storyboard Layer 2 (Passing)
//Storyboard Layer 3 (Foreground)
//Storyboard Sound Samples
//Background Colour Transformations
3,100,128,128,192

[TimingPoints]
-15,389.61038961039,4,2,1,100,1
18686,389.61038961039,4,1,1,100,0
40432,379.746835443038,4,2,1,100,1
49545,379.746835443038,4,1,1,100,0
76896,375,4,2,1,100,1
85896,375,4,1,1,100,0

[Colours]
Combo1 : 255,128,192
Combo2 : 204,204,204
Combo3 : 0,189,189

[HitObjects]
448,64,9335,1,2
307,64,9725,1,8
167,63,10114,1,2
167,63,10309,1,2
167,63,10504,1,8
97,184,10894,5,2
97,184,11088,1,2
97,184,11283,1,8
201,183,11575,5,0
201,183,11673,1,2
271,184,11868,1,2
340,184,12062,1,8
430,291,12452,5,2
289,289,12842,1,8
149,289,13231,1,2
149,289,13426,1,2
149,289,13621,1,8
148,149,14010,6,0,B|148:53,2,70,0|2|8
253,149,14692,5,0
253,149,14790,1,2
323,150,14984,1,2
392,148,15179,1,8
295,46,15569,5,0
224,47,15764,1,2
153,49,15959,1,8
152,153,16251,5,0
152,153,16348,2,0,B|152:254,2,70,2|2|8
292,155,17127,6,0,B|372:155,1,70,0|2
432,156,17517,2,0,B|484:156,2,35,8|0|8
422,225,17907,5,0
376,277,18101,1,0
306,285,18296,1,8
165,284,18686,6,0,B|83:284,1,70,0|2
95,213,19075,2,0,B|95:117,1,70,8|8
165,143,19465,2,0,B|261:143,1,70,0|2
305,140,19855,1,8
409,46,20244,6,0,B|329:46,1,70,0|2
268,48,20634,2,0,B|268:131,1,70,8|8
269,188,21023,2,0,B|173:188,1,70,0|2
128,189,21413,1,8
54,308,21803,5,0
123,308,21997,1,2
193,308,22192,1,8
297,309,22484,5,0
332,308,22582,2,0,B|421:308,2,70,8|2|8
409,191,23361,5,0
350,151,23556,1,2
289,116,23751,1,8
184,118,24043,5,0
149,118,24140,2,0,B|60:118,2,70,0|2|8
148,188,24725,6,0,B|148:282,1,70,2|0
147,328,25114,1,2
217,327,25309,1,8
287,326,25504,5,0
287,326,25601,1,0
287,326,25699,2,0,B|367:326,1,70,8|2
427,326,26088,1,8
427,185,26478,6,0,B|305:185,3,70,0|2|8|0
286,185,27257,2,2,B|158:185,1,70,2|2
145,186,27647,1,8
42,280,28036,6,0,B|474:280,1,420,4|8
438,141,29595,1,0
305,96,29984,1,8
163,96,30374,5,2
163,96,30569,1,2
163,96,30764,1,8
200,230,31153,6,2,B|245:306|355:287,1,140,2|8
374,248,31738,1,8
381,178,31933,2,2,B|341:106|250:105,1,140,2|8
128,120,32712,6,2,B|74:177|122:257,1,140,2|8
178,283,33296,1,8
248,280,33491,2,2,B|315:254|308:151,1,140,2|8
388,49,34270,6,0,B|500:49,2,70,0|2|8
317,50,34855,2,0,B|237:50,2,70,8|0|2
350,111,35439,5,8
256,192,35829,12,0,37387
256,96,40432,5,2
116,96,40811,1,0
113,236,41191,1,2
253,237,41571,1,2
256,96,41950,1,0
115,98,42330,1,2
113,238,42710,2,0,B|273:238,1,140
393,236,43469,5,2
322,236,43659,1,2
218,141,44039,5,0
257,83,44229,1,2
325,70,44419,1,0
385,104,44609,1,2
414,167,44799,1,2
393,233,44988,1,0
252,236,45368,6,0,B|88:236|89:236,1,140,0|2
115,95,46128,5,2
185,95,46318,1,0
254,94,46507,1,2
303,143,46697,1,2
352,192,46887,1,2
249,287,47267,6,0,B|89:287,1,140,0|2
108,146,48026,2,0,B|268:146,1,140,0|2
416,64,49545,5,4
416,64,49735,1,0
346,63,49925,1,0
205,65,50305,1,0
345,63,50685,5,4
345,63,50875,1,0
275,67,51064,1,0
134,67,51444,1,0
76,194,51824,6,0,B|76:286|167:286,1,140,4|0
228,287,52394,1,4
297,286,52583,1,0
367,285,52773,1,4
367,144,53153,6,0,B|368:219,2,70,0|12|0
296,144,53723,2,0,B|196:144,2,70,8|0|8
436,141,54482,1,4
363,260,54862,1,0
222,259,55242,2,0,B|126:259,1,70,8|0
150,188,55621,2,0,B|246:188,1,70,8|8
290,188,56001,1,4
430,188,56381,5,8
289,189,56761,1,8
149,188,57140,1,0
289,189,57520,1,6
92,69,67773,5,8
162,69,67963,1,8
232,68,68153,1,0
372,69,68533,1,10
415,202,68913,5,8
352,232,69102,1,8
282,237,69292,1,0
141,237,69672,1,10
115,99,70052,6,2,B|206:96|240:176,1,140,2|0
260,224,70621,2,2,B|313:313|431:267,1,140,2|2
446,263,71191,1,0
446,122,71571,6,0,B|446:10,2,70,2|8|2
375,121,72140,2,0,B|295:121,1,70,8|0
164,119,72710,1,2
65,218,73090,5,8
169,310,73469,1,4
271,214,73849,1,2
377,122,74229,1,8
482,214,74609,5,8
437,267,74799,1,8
297,267,75178,5,2
226,268,75368,1,8
155,269,75558,1,8
84,269,75748,1,2
56,69,76896,6,0,B|70:126|146:131,1,70,10|0
167,102,77271,2,0,B|231:133|196:205,1,70,2|2
200,224,77646,1,10
322,292,78021,6,0,B|376:283|385:205,1,70,10|0
342,186,78396,2,0,B|277:163|306:84,1,70,2|2
329,74,78771,1,8
189,73,79146,6,0,B|87:77|42:196,2,140,2|8|2
258,73,80083,1,2
256,208,80458,6,8,B|256:304,2,70,2|8|2
256,136,81021,2,0,B|176:136,1,70,8|2
104,136,81396,5,8
40,192,81583,1,8
64,272,81771,1,2
144,272,81958,1,8
176,192,82146,1,2
288,112,82521,5,8
352,64,82708,1,8
416,112,82896,1,2
392,192,83083,1,8
312,192,83271,1,2
220,89,83646,6,0,B|130:107|148:215,1,140,8|8
285,197,84396,2,0,B|283:295|155:317,1,140,2|8
374,96,85896,6,2,B|470:96,2,70,2|8|2
234,95,86646,1,2
147,204,87021,6,0,B|67:204,2,70,2|8|2
287,206,87771,1,2
416,154,88146,5,8
378,95,88333,1,8
309,78,88521,1,2
238,198,88896,5,8
168,191,89083,1,2
126,134,89271,1,8
254,77,89646,5,6
393,79,90021,6,0,B|393:191,1,70,8|0
391,219,90396,1,8
321,219,90583,2,0,B|225:219,1,70,8|2
180,220,90958,1,8
109,220,91146,1,2
104,80,91521,6,2,B|184:80,1,70,2|2
244,81,91896,1,8
313,79,92083,1,2
383,79,92271,1,2
386,218,92646,5,8
316,218,92833,1,2
176,220,93208,2,0,B|96:220,2,70,2|8|2
246,218,93771,1,2
435,92,94896,5,8
435,92,95083,1,8
435,92,95271,2,2,B|243:92,1,140,2|2
155,93,96021,5,6
95,130,96208,1,2
66,194,96396,1,8
94,257,96583,1,6
155,289,96771,1,6
294,291,97146,6,2,B|399:285|403:176,1,140,2|2
398,73,97896,1,8
398,142,98083,1,6
258,147,98458,6,0,B|146:147,2,70,2|8|2
328,147,99021,2,0,B|328:243,1,70,8|8
258,222,99396,6,0,B|66:222,2,140,2|8|2
397,221,100521,1,2
397,80,100896,1,8
257,80,101271,1,2
256,192,101646,12,0,102771
119,124,103896,5,6
117,263,104271,1,8
257,263,104646,1,6
257,123,105021,1,2
396,123,105396,1,8
396,263,105771,1,6
256,264,106146,6,2,B|256:88,1,140,2|2
116,125,106896,1,8
116,125,107083,2,2,B|116:269,1,140,2|2
185,274,107646,5,8
236,226,107833,1,2
285,276,108021,1,8
335,227,108208,1,8
388,272,108396,5,4
481,167,108771,1,8
389,61,109146,1,2
296,165,109521,1,0
200,267,109896,1,8
96,172,110271,1,2
172,54,110646,6,0,B|284:54,1,70,8|8
312,54,111021,1,2
381,54,111208,1,8
451,55,111396,2,2,B|451:223,1,140,2|2
