osu file format v5

[General]
AudioFilename: tsuepeshu no osanaki matsuei.mp3
AudioLeadIn: 2000
PreviewTime: -1
Countdown: 0
SampleSet: Normal
StackLeniency: 0.6
Mode: 0
LetterboxInBreaks: 1
EditorBookmarks: -20

[Metadata]
Title:Tsuepeshu no Osanaki Matsuei
Artist:Gojou Kai
Creator:Al-Azif
Version:Normal
Source:touhou
Tags:SYNC.ART'S

[Difficulty]
HPDrainRate:2
CircleSize:3
OverallDifficulty:4
SliderMultiplier:1.4
SliderTickRate:1

[Events]
//Background and Video events
0,0,"bg.jpg"
//Break Periods
2,13380,15060
2,42160,47040
2,67360,79040
//Storyboard Layer 0 (Background)
//Storyboard Layer 1 (Failing)
//Storyboard Layer 2 (Passing)
//Storyboard Layer 3 (Foreground)
//Storyboard Sound Samples
//Background Colour Transformations
3,100,16,32,48

[TimingPoints]
380,400,4,1,1,90,1
16370,400,4,1,1,90,0
48370,400,4,1,1,90,0

[Colours]
Combo1 : 0,128,105
Combo2 : 137,156,235
Combo3 : 221,34,123

[HitObjects]
113,139,380,1,0
174,104,580,1,2
313,104,980,1,2
374,137,1180,1,8
366,279,1580,5,8
226,279,1980,2,2,B|146:279,2,70,2|10|2
365,279,2780,5,8
362,69,3380,5,2
292,68,3580,1,0
152,71,3980,1,0
82,69,4180,1,0
85,138,4380,2,2,B|91:234|183:231,1,140,2|2
308,233,5180,6,0,B|404:233,4,70,10|0|2|10|8
146,98,6580,5,2
215,98,6780,1,8
354,98,7180,2,0,B|434:98,2,70,8|8|2
134,272,8380,5,2
77,231,8580,1,0
65,162,8780,1,10
83,94,8980,1,2
144,60,9180,1,10
334,264,9980,5,8
382,208,10180,1,2
382,136,10380,1,2
163,87,10780,5,8
115,143,10980,1,2
115,215,11180,1,10
211,316,11580,6,0,B|307:260,1,70,0|2
269,210,11980,2,0,B|173:146,1,70,0|8
209,100,12380,2,0,B|288:54|289:54,1,70,2|2
339,63,12780,6,0,B|411:63,2,70,8|8|2
46,62,16380,5,0
185,63,16780,1,2
185,202,17180,1,0
323,200,17580,5,2
392,200,17780,1,0
461,199,17980,1,0
464,59,18380,1,2
324,58,18780,1,0
184,56,19180,5,2
44,56,19580,5,0
41,195,19980,1,2
180,198,20380,1,0
179,327,20780,5,2
248,325,20980,1,0
317,324,21180,1,0
456,325,21580,1,2
454,185,21980,1,0
314,181,22380,5,2
174,179,22780,6,8,B|94:179,2,70,0|2|8
291,101,23580,6,8,B|291:21,2,70,0|2|8
365,220,24380,6,8,B|445:220,2,70,0|2|8
246,293,25180,6,0,B|246:373,2,70,0|2|8
246,223,25780,1,2
106,221,26180,5,2
106,151,26380,2,8,B|106:76,1,70,8|2
245,69,26980,5,2
314,69,27180,2,8,B|389:69,1,70,8|2
317,192,27780,6,4,B|400:192,2,70,2|8|2
246,192,28380,5,8
246,192,28580,1,2
176,192,28780,1,8
176,192,28980,1,8
106,192,29180,6,10,B|216:77|327:204|381:294|444:219|514:126,1,420,2|2
389,62,30780,5,8
323,87,30980,1,2
258,60,31180,1,8
193,86,31380,1,8
125,66,31580,1,6
69,194,31980,5,2
112,326,32380,5,8
179,307,32580,1,2
246,325,32780,1,8
313,307,32980,1,8
380,324,33180,1,6
441,198,33580,5,2
362,82,33980,5,8
295,58,34180,2,0,B|219:38|193:79,1,70,2|2
102,121,34780,5,8
162,156,34980,2,0,B|212:188|288:152,1,70,2|2
299,291,35580,6,0,B|387:291,1,70,8|2
367,220,35980,2,0,B|367:140,1,70,8|8
369,79,36380,2,0,B|289:79,1,70,8|8
228,79,36780,5,2
227,218,37180,6,0,B|205:297|116:309,1,140,8|2
79,255,37780,1,0
59,188,37980,6,0,B|64:101|164:84,1,140,8|2
282,80,38780,6,0,B|379:81,1,70,0|2
379,145,39180,2,0,B|379:241,1,70,8|2
351,279,39580,2,0,B|255:279,1,70,8|8
209,279,39980,5,2
256,192,40380,12,0,41980
444,53,48380,5,0
304,49,48780,1,8
164,53,49180,1,0
24,55,49580,1,8
163,53,49980,6,2,B|163:213,1,140,2|2
303,196,50780,6,0,B|303:356,1,140,2|2
443,336,51580,5,0
303,336,51980,1,8
163,337,52380,1,0
23,333,52780,1,8
162,336,53180,6,2,B|162:176,1,140,2|2
302,192,53980,6,0,B|302:48,1,140,2|2
442,52,54780,6,0,B|138:52,1,280
92,54,55780,5,2
22,54,55980,1,8
25,193,56380,6,0,B|329:193,1,280
375,193,57380,5,2
445,193,57580,1,8
440,332,57980,5,0
370,333,58180,5,6
300,328,58380,2,0,B|187:215,1,140,8|0
131,229,58980,1,6
61,230,59180,1,8
130,231,59380,5,6
199,229,59580,2,0,B|322:124,1,140,0|0
375,139,60180,1,2
444,137,60380,1,0
374,138,60580,5,6
304,140,60780,2,0,B|192:42,1,140,8|0
128,47,61380,1,6
58,48,61580,5,8
56,117,61780,2,2,B|43:217|149:216,1,140,6|6
197,215,62380,1,8
237,156,62580,5,4
273,97,62780,5,0
342,97,62980,2,2,B|444:92|443:192,1,140,6|6
443,240,63580,1,0
440,309,63780,1,2
372,313,63980,2,0,B|244:313,1,70,8|2
230,312,64380,5,0
90,310,64780,1,8
88,170,65180,1,0
227,168,65580,1,8
366,166,65980,5,8
361,61,66280,1,8
256,63,66580,5,2
256,63,66780,1,8
157,162,67180,5,2
166,231,80380,6,2,B|284:341,1,140,2|8
408,326,81180,2,0,B|294:223,1,140,2|8
252,184,81780,1,2
164,74,82180,6,0,B|76:74,2,70,2|8|2
233,76,82780,2,0,L|364:76|454:144|321:200|372:256|265:314,1,560,0|0
217,302,84580,2,0,L|137:302,2,70,6|8|2
256,192,85380,12,8,86380
408,233,86780,6,2,B|290:123,1,140,2|8
209,239,87580,2,0,B|115:322,2,105,2|8|2
111,138,88580,6,0,L|165:90,3,70,2|8|2|2
217,46,89380,2,0,L|342:98|254:167|369:229,1,350,0|8
204,220,90780,6,8,B|110:221,2,70,0|2|8
256,192,91580,12,8,93180
128,96,93580,6,0,L|128:176,4,70,8|4|0|4|8
267,93,94780,6,0,L|363:93,3,70,0|2|8|2
335,162,95580,6,2,B|248:250|206:157|126:93|76:178,1,280,2|2
93,304,96780,1,8
240,304,97180,6,0,B|320:304,2,70,0|2|8
179,177,97980,2,0,B|51:177,2,70,0|2|8
319,175,98780,6,0,B|399:175,4,70,0|2|8|2|2
218,77,99980,5,8
119,176,100380,1,0
218,274,100780,1,8
316,174,101180,1,0
245,52,101580,6,0,B|74:52,1,140,10|2
193,160,102380,2,0,B|361:248,1,140,10|2
422,317,103180,2,2,B|246:317,1,140,10|2
256,192,103980,5,10
256,192,104380,12,0,105980
124,127,106380,6,0,B|73:201|140:284,1,140,8|2
257,295,107180,1,8
257,225,107380,1,2
205,94,107780,5,2
261,53,107980,1,8
330,56,108180,1,2
388,93,108380,1,2
418,155,108580,2,2,B|421:243|344:269,1,140,2|2
298,219,109180,2,0,B|252:199|201:232,1,70,0|2
196,279,109580,5,8
56,280,109980,1,0
56,136,110380,1,8
192,136,110780,1,0
256,192,111180,12,8,111980
396,52,112380,5,2
396,191,112780,1,8
256,192,113180,1,2
116,192,113580,1,8
118,261,113780,1,2
257,261,114180,5,2
327,261,114380,1,8
397,261,114580,2,2,B|413:172|308:139,1,140,2|2
264,150,115180,2,0,B|168:150,2,70,8|8|2
403,150,115980,1,8
301,53,116380,1,2
161,57,116780,1,8
256,192,117180,12,10,118780
