osu file format v5

[General]
AudioFilename: Gojou Kai - Touhou Youkai Komachi.mp3
AudioLeadIn: 0
PreviewTime: -1
Countdown: 0
SampleSet: Soft
StackLeniency: 0.7
Mode: 0
LetterboxInBreaks: 1
SkinPreference:Default
EditorBookmarks: 4445,66157

[Metadata]
Title:Touhou Youkai Komachi
Artist:Gojou Kai
Creator:James
Version:Normal
Source:touhou
Tags:SYNC.ART'S

[Difficulty]
HPDrainRate:2
CircleSize:3
OverallDifficulty:4
SliderMultiplier:0.7
SliderTickRate:1

[Events]
//Background and Video events
0,0,"image.jpg"
//Break Periods
2,33102,43925
2,78359,87810
//Storyboard Layer 0 (Background)
//Storyboard Layer 1 (Failing)
//Storyboard Layer 2 (Passing)
//Storyboard Layer 3 (Foreground)
//Storyboard Sound Samples
//Background Colour Transformations
3,100,0,0,0

[TimingPoints]
-18,342.857142857143,4,2,0,100,1

[Colours]
Combo1 : 245,192,10
Combo2 : 37,96,126
Combo3 : 166,125,4
Combo4 : 128,128,255

[HitObjects]
72,48,5467,1,0
144,48,5810,1,0
216,48,6153,1,0
288,48,6496,1,0
360,48,6839,2,0,B|360:152,3,70,0|0|0|0
360,184,8210,5,0
288,184,8553,1,0
216,184,8896,1,0
144,184,9239,1,0
72,184,9581,2,0,B|72:264,3,70
136,224,10953,6,0,B|240:224,1,70,4|2
176,160,11639,2,0,B|176:72,1,70,0|2
240,120,12324,2,0,B|352:120,3,70,0|2|0|2
272,184,13696,2,0,B|272:280,1,70,0|2
208,224,14382,2,0,B|128:224,1,70,0|2
168,160,15067,2,0,B|168:80,3,70,0|2|0|2
232,112,16439,5,0
232,184,16782,1,2
304,184,17124,1,0
304,112,17467,1,2
232,112,17810,5,0
232,184,18153,1,2
304,184,18496,1,0
304,112,18839,1,2
232,112,19182,5,0
160,112,19524,1,2
88,112,19867,1,0
16,112,20210,1,2
16,184,20553,1,0
16,256,20896,1,2
16,184,21239,1,0
16,256,21582,1,2
16,328,21924,6,0,B|104:328,1,70,0|2
152,328,22610,2,0,B|240:328,1,70,0|2
288,328,23296,2,0,B|360:328,1,70,0|2
424,328,23982,2,0,B|496:328,1,70,0|2
464,264,24667,2,0,B|424:200,1,70,0|2
384,144,25353,2,0,B|312:208,1,70,0|2
272,232,26039,2,0,B|216:160,3,70,0|2|0|2
184,120,27410,5,0
240,80,27753,1,2
288,128,28096,1,0
232,168,28439,1,2
176,208,28782,5,0
216,264,29124,1,2
272,224,29467,1,0
232,168,29810,2,0,B|232:80,2,70,2|0|2
232,240,30839,5,0
232,312,31182,1,2
232,240,31524,1,0
232,168,31867,1,2
232,96,32210,1,0
304,96,32553,1,2
376,96,32896,5,6
416,104,45239,6,0,B|352:104,3,35,0|2|0|2
312,104,46096,1,2
312,136,46267,1,0
312,168,46439,1,2
312,200,46610,1,0
312,232,46781,1,2
312,264,46953,1,0
312,296,47124,1,2
312,328,47296,2,0,B|152:328,1,140
104,328,48324,5,0
104,328,48496,1,2
104,256,48839,1,2
104,256,49010,2,0,B|408:256,1,280
456,256,50724,5,2
456,256,51067,1,0
456,256,51239,1,2
456,184,51581,2,0,B|40:184,1,385,2|2
71,184,53810,1,0
71,184,53981,1,2
256,192,54324,12,4,56210
296,48,56553,5,2
344,96,56896,1,0
296,144,57239,1,2
344,192,57581,1,0
296,240,57924,1,2
344,288,58267,1,0
296,336,58610,1,2
224,336,58953,5,0
176,288,59296,1,2
224,240,59639,1,0
176,192,59981,1,2
224,144,60324,1,0
176,96,60667,1,2
224,48,61010,1,0
272,96,61353,1,2
272,96,61696,6,0,B|272:336,2,210,4|0|0
272,96,64096,1,2
344,96,64439,1,0
344,168,64781,1,2
272,168,65124,1,0
272,96,65467,1,2
344,96,65810,2,0,B|344:320,1,210,4|4
272,304,67181,6,0,B|168:304,1,70,0|8
200,232,67867,2,0,B|280:232,1,70,0|8
272,160,68553,2,0,B|176:160,1,70,0|8
200,88,69239,2,0,B|288:88,1,70,0|8
336,88,69924,2,0,B|336:320,1,210,0|8
264,296,71296,2,0,B|264:64,1,210,0|8
192,88,72667,6,0,B|88:88,1,70,0|8
152,152,73353,2,0,B|152:232,1,70,0|8
208,184,74039,2,0,B|312:184,3,70,0|8|0|8
240,240,75410,2,0,B|240:328,1,70,0|8
296,272,76096,2,0,B|376:272,1,70,0|8
328,208,76781,2,0,B|328:120,4,70,0|8|0|8|4
448,104,89124,5,0
344,104,89639,1,0
200,104,90324,1,0
128,104,90667,1,0
128,104,90839,1,0
56,104,91182,1,8
56,176,91524,5,0
56,248,91867,1,0
160,248,92382,1,0
296,248,93067,1,0
368,248,93410,1,0
440,248,93753,1,0
440,248,93924,1,8
440,248,94096,1,0
440,248,94267,1,0
440,320,94610,5,0
336,320,95124,1,0
336,176,95810,1,0
264,176,96153,1,0
192,176,96496,1,0
192,176,96667,1,8
120,176,97010,5,0
120,104,97353,1,0
224,104,97867,1,0
360,104,98553,1,0
360,176,98896,1,0
360,248,99239,1,0
360,320,99582,1,0
360,320,99753,1,0
288,320,100096,6,0,B|160:320,1,105,4|0
112,320,100953,2,0,B|56:320,7,35,0|2|0|2|0|2|0|2
72,248,102496,5,2
72,176,102839,1,0
72,104,103182,1,8
72,104,103353,1,0
208,104,104039,1,0
280,104,104382,1,0
352,104,104724,1,0
352,104,104896,1,8
352,104,105067,1,0
352,104,105239,1,0
424,104,105582,5,0
424,208,106096,1,0
424,280,106439,2,0,B|80:280,1,315
117,280,108324,1,0
112,176,108839,1,0
248,176,109524,1,0
248,176,109696,1,0
248,248,110039,1,0
248,320,110382,1,0
320,320,110724,1,0
392,320,111067,6,0,B|392:216,1,70,4|8
320,248,111753,2,0,B|320:152,1,70,0|8
248,176,112439,2,0,B|248:80,1,70,0|8
176,104,113124,2,0,B|88:104,1,70,0|8
136,168,113810,2,0,B|232:168,1,70,0|8
168,232,114496,2,0,B|248:232,1,70,0|8
200,296,115182,2,0,B|280:296,3,70,0|8|0|8
344,296,116553,5,0
416,296,116896,1,8
416,224,117239,1,0
344,224,117582,1,8
344,296,117924,2,0,B|256:296,1,70,0|8
200,296,118610,1,0
200,224,118953,1,8
200,152,119296,5,0
200,80,119639,1,8
200,152,119982,1,0
200,80,120324,1,8
272,80,120667,2,0,B|272:312,1,210
272,290,122039,5,4
200,288,122382,1,8
128,288,122724,1,0
128,216,123067,1,8
128,144,123410,1,0
128,72,123753,1,8
200,72,124096,1,0
272,72,124439,1,8
344,72,124782,5,0
416,72,125124,1,8
416,144,125467,1,0
416,216,125810,1,8
416,288,126153,1,0
344,288,126496,1,8
272,288,126839,1,0
272,216,127182,1,8
272,144,127524,6,0,B|176:144,1,70,0|8
200,216,128210,2,0,B|296:216,1,70,0|8
272,144,128896,6,0,B|184:144,1,70,0|8
200,216,129582,2,0,B|296:216,1,70,0|8
256,192,130267,12,4,133010
