osu file format v9

[General]
AudioFilename: Secret Six.mp3
AudioLeadIn: 1500
PreviewTime: 194502
Countdown: 1
SampleSet: Soft
StackLeniency: 0.7
Mode: 0
LetterboxInBreaks: 1

[Editor]
Bookmarks: 217286
DistanceSpacing: 1
BeatDivisor: 4
GridSize: 8

[Metadata]
Title:Secret Seven
Artist:Gojou Kai
Creator:Cyclone
Version:Marathon
Source:Touhou
Tags:James Al-Azif Tsuepeshu no Osanaki Matsuei Ultimate Truth Border of Life Voyage 1969 1970 Touhou Youkai Komachi Higan no Tsuka

[Difficulty]
HPDrainRate:6
CircleSize:5
OverallDifficulty:9
ApproachRate:7
SliderMultiplier:1.4
SliderTickRate:1

[Events]
//Background and Video events
//Break Periods
2,13455,15556
2,42256,47556
2,119056,127556
2,154256,162505
2,191657,193602
2,309157,314057
2,326782,332057
2,448378,453171
2,485565,490112
2,519447,526818
2,592859,622818
2,635212,639597
2,668126,672512
2,713383,717769
2,757269,761654
2,790183,820026
//Storyboard Layer 0 (Background)
//Storyboard Layer 1 (Fail)
//Storyboard Layer 2 (Pass)
//Storyboard Layer 3 (Foreground)
Sprite,Foreground,Centre,"spinner-background.png",320,262 S,0,679469,,0.625 F,0,679469,679669,0,1 F,0,679926,680326,1,0
Sprite,Foreground,Centre,"spinner-circle.png",320,262 F,0,679469,,0,1 S,0,679469,,0.625 R,0,679669,679926,0,8 F,0,679926,680326,1,0
Sprite,Foreground,Centre,"spinner-approachcircle.png",320,262 F,0,679469,679669,0,1 S,0,679669,679926,1.1,0 F,0,679926,680326,1,0
Sprite,Foreground,Centre,"hit300g.png",320,262 F,0,679926,,0,1 S,0,679926,680026,0.28,0.48 F,0,680591,680991,1,0
//Storyboard Sound Samples
//Background Colour Transformations
3,100,0,0,0

[TimingPoints]
-1144,400,4,1,0,100,1,0
455.470898039537,-77.7777777777775,4,1,1,100,0,0
1056,200,4,1,1,100,1,0
1194,-77.5193798449612,4,1,1,100,0,0
1856,400,4,1,1,100,1,0
1994,-77.5193798449612,4,1,1,100,0,0
6056,200,4,1,1,100,1,0
6194,-77.5193798449612,4,1,1,100,0,0
6856,400,4,1,1,100,1,0
6944,-77.5193798449612,4,1,1,100,0,0
8056,200,4,1,1,100,1,0
8344,-77.5193798449612,4,1,1,100,0,0
8656,400,4,1,1,100,1,0
8744,-77.5193798449612,4,1,1,100,0,0
9856,200,4,1,1,100,1,0
9944,-77.5193798449612,4,1,1,100,0,0
12856,400,4,1,1,100,1,0
12944,-77.5193798449612,4,1,1,100,0,0
13256,400,4,1,1,100,1,0
16456,-77.5193798449612,4,1,1,100,0,0
28944,-155.52099533437,4,1,1,100,0,0
31644,-77.7777950617322,4,1,1,100,0,0
67656,-77.5193798449612,4,2,1,100,0,0
71256,600,4,2,1,100,1,0
71556,-77.5193798449612,4,2,1,100,0,0
72456,400,4,2,1,100,1,0
72656,-77.5193798449612,4,2,1,100,0,0
74056,-77.5193798449612,4,1,1,100,0,0
74744,-156.25,4,1,1,100,0,0
75644,-77.5193798449612,4,1,1,100,0,0
78856,-77.5193798449612,4,2,1,100,0,0
80456,-77.5193798449612,4,1,1,100,0,0
80944,-156.25,4,1,1,100,0,0
82044,-77.5193798449612,4,1,1,100,0,0
85656,-77.5193798449612,4,2,1,100,0,0
86856,-77.5193798449612,4,1,1,100,0,0
91656,-77.5193798449612,4,2,1,100,0,0
93256,-77.5193798449612,4,1,1,100,0,0
98456,-77.5193798449612,4,2,1,100,0,0
99656,-77.5193798449612,4,1,1,100,0,0
101944,-156.25,4,1,1,100,0,0
102744,-77.5193798449612,4,1,1,100,0,0
154055,389.61038961039,4,1,0,100,1,0
194502,379.746835443038,3,2,0,100,1,0
217286,253.164556962025,4,2,0,100,1,0
219564,379.746835443038,3,2,0,100,1,0
221842,-100,4,1,0,100,0,0
230957,375,4,1,0,100,1,0
264707,250,4,1,0,100,1,0
266207,375,4,1,0,100,1,0
266957,375,3,1,0,100,1,0
314957,-100,4,2,0,100,0,0
332957,365.853658536585,4,1,0,100,1,0
379786,357.142857142857,4,1,0,100,1,0
452643,-100,4,2,0,100,0,0
474071,352.941176470588,4,2,0,100,1,0
635012,342.857142857143,4,2,0,100,1,0
641697,-50,4,2,0,100,0,0
645812,-100,4,2,0,100,0,0
654212,-100,4,1,0,100,0,0
656954,-100,4,2,0,100,0,0
667926,-100,4,1,0,100,0,0
679240,-100,4,2,0,0,0,0
679931,-100,4,2,0,100,0,0
718669,-100,4,1,0,100,0,0
735126,-100,4,2,0,100,0,0
740269,-100,4,1,0,100,0,0
746097,-100,4,2,0,100,0,0
763754,-50,4,2,0,100,0,0
765469,-100,4,2,0,100,0,0
811926,375,4,2,0,100,1,0

[HitObjects]
112,48,456,2,0,B|321:48,1,180,0|4
382,48,1056,1,0
336,128,1256,6,0,B|128:128,1,180,0|4
160,254,1656,2,0,B|384:254,1,180
272,192,2056,6,0,B|224:192,2,45,4|0|4
362,193,2456,1,8
92,190,3056,6,0,B|92:238,2,45,0|0|0
90,99,3456,1,0
171,61,3656,2,0,B|331:61,1,135,0|4
440,63,4256,1,0
441,152,4456,2,0,B|441:264,1,90,0|4
359,281,4856,2,0,B|247:281,1,90,0|0
178,281,5256,2,0,B|114:281,2,45,4|0|4
222,202,5656,1,8
401,202,6056,5,0
435,118,6256,2,0,B|243:118,1,180,0|0
164,117,6656,1,4
74,115,6856,1,0
116,194,7056,2,0,B|116:265,2,45,0|0|0
206,195,7456,1,4
256,336,7856,5,0
400,192,8056,1,0
256,48,8256,1,0
128,192,8456,2,0,B|336:192,1,180,0|0
397,192,8856,2,0,B|477:192,2,45,0|0|4
227,254,9456,5,4
139,232,9656,2,4,C|90:206|76:142,1,90,8|4
80,83,10056,2,0,B|272:83,1,180,0|4
349,83,10456,1,8
438,85,10656,1,4
435,264,10856,6,0,B|227:264,1,180,0|4
165,266,11256,1,8
75,267,11456,1,4
75,87,11656,6,0,B|299:87,1,180,0|4
344,87,12056,1,12
433,86,12256,1,4
368,272,12456,5,0
144,272,12656,1,8
256,80,12856,1,8
256,176,13056,6,0,B|256:224,2,45,0|0|4
473,199,16456,5,0
427,276,16656,1,4
339,298,16856,1,8
272,237,17056,1,4
239,153,17256,5,0
171,93,17456,1,4
82,109,17656,1,8
38,187,17856,1,4
143,311,18056,5,0
228,283,18256,2,0,B|213:223|131:218,1,90,4|8
143,310,18656,1,4
372,75,18856,5,0
287,103,19056,2,0,B|302:163|384:168,1,90,4|8
372,76,19456,1,4
120,79,19856,5,4
171,152,20056,2,4,B|241:248,1,90,8|4
383,308,20656,5,4
340,228,20856,2,4,B|276:134,1,90,8|4
236,80,21256,5,0
146,82,21456,2,4,B|89:92|83:150,1,90,4|8
85,229,21856,1,4
243,314,22256,5,4
332,316,22456,2,8,B|399:311|403:235,1,90,8|4
400,175,22856,1,0
310,172,23056,1,4
310,172,23256,2,0,C|313:121|365:77,1,90,8|4
160,96,23856,5,4
70,97,24056,2,8,C|76:148|119:191,1,90,8|4
175,228,24456,1,0
102,281,24656,1,4
102,281,24856,2,0,C|136:310|203:310,1,90,8|4
360,311,25456,5,4
430,254,25656,1,8
363,193,25856,1,4
183,194,26256,5,4
116,133,26456,1,8
184,74,26656,1,4
363,74,27056,6,0,C|475:74,2,90,4|8|4
273,76,27656,1,0
273,76,27756,1,0
240,159,27956,1,8
277,240,28156,1,8
277,240,28256,1,4
255,327,28456,5,0
128,192,28656,1,0
384,192,28856,1,8
256,64,29056,1,4
256,64,29156,1,0
256,64,29256,6,0,B|315:157|195:191|256:288,1,225,4|4
335,306,30456,5,8
383,230,30656,5,4
383,230,30756,1,0
334,154,30956,5,0
334,154,31056,1,4
380,77,31256,5,8
380,77,31356,1,0
380,77,31456,1,4
151,78,31856,5,4
90,144,32056,2,8,C|91:190|141:240,1,90,8|4
187,281,32456,1,0
187,281,32556,1,0
321,279,32856,5,8
391,222,33056,1,0
391,222,33156,1,4
115,87,33456,6,4,C|175:90|214:131,1,90,4|8
260,174,33856,1,4
324,238,34056,1,0
324,238,34156,1,0
443,173,34456,5,8
441,83,34656,1,0
441,83,34756,1,4
306,75,35056,5,4
216,75,35256,2,0,B|152:75,2,45,8|0|4
174,154,35656,6,4,B|78:154,2,90,0|4|8
263,155,36256,1,4
263,155,36356,1,0
353,255,36656,5,4
263,257,36856,2,8,B|202:257,2,45,8|0|4
307,177,37256,6,0,C|337:140|393:138,1,90
468,140,37656,1,8
420,63,37856,1,4
420,63,37956,1,0
160,64,38256,6,4,C|113:81|83:133,1,90,4|8
176,147,38656,1,4
352,320,39056,6,4,C|399:303|429:251,1,90,4|8
336,237,39456,1,4
257,75,39856,6,0,C|200:77|150:113,1,90,4|8
122,167,40256,1,4
80,246,40456,6,0,C|49:292,2,45,0|4|0
170,246,40856,2,0,C|199:292,2,45,8|4|0
123,168,41256,5,8
192,110,41456,1,4
192,110,41556,1,4
281,110,41756,5,4
281,110,41856,1,4
370,109,42056,1,4
397,40,48456,6,0,C|446:65|464:121,1,90,0|4
372,123,48856,1,8
336,299,49256,2,0,C|252:333|172:296,1,180,0|8
257,189,49856,1,8
339,82,50056,2,0,C|254:52|162:84,1,180,0|8
150,260,50856,1,0
122,345,51056,2,0,C|79:322|64:267,1,90,4|8
181,143,51656,6,0,C|222:123|260:146|295:124|343:156,2,180,0|8|0
98,179,52656,1,4
39,110,52856,2,0,C|93:33,1,90,8|4
144,109,53256,2,0,C|259:120,1,90,0|4
195,199,53656,2,0,C|219:290,1,90,8|4
131,259,54056,2,0,C|32:315,1,90,0|12
131,260,54456,1,8
240,48,54856,6,0,C|352:48,1,90,0|4
419,50,55256,1,8
484,112,55456,1,4
417,173,55656,1,0
348,114,55856,1,4
258,114,56056,2,0,C|147:113,1,90,8|4
78,116,56456,5,0
14,180,56656,1,4
77,244,56856,1,8
141,181,57056,1,4
230,179,57256,2,0,C|345:180,1,90,0|12
409,179,57656,1,8
400,336,58056,5,0
304,48,58456,1,8
240,336,58856,1,0
144,48,59256,1,8
64,336,59656,2,0,C|31:156,1,180,0|8
117,186,60256,2,0,B|94:63,1,90,4|0
179,54,60656,1,12
268,52,60856,1,8
411,117,61256,6,0,B|459:165|468:241|385:301,2,180,0|8|0
256,192,62256,1,4
96,280,62456,2,0,B|48:232|39:156|122:96,2,180,8|0|8
256,192,63456,5,4
215,272,63656,2,0,C|261:282|314:267,1,90,0|12
256,192,64056,1,8
413,104,64456,5,0
345,44,64656,1,4
276,102,64856,2,0,C|351:174,1,90,8|4
401,231,65256,5,0
335,292,65456,1,4
269,229,65656,2,0,C|191:149,1,90,8|4
139,103,66056,5,8
42,197,66356,1,8
139,290,66656,1,8
224,288,66856,1,4
403,287,67256,5,8
447,112,67656,6,2,B|393:27|334:113|283:15,2,180
420,244,68756,2,0,B|346:259|304:176,1,135,0|2
193,47,69456,6,0,B|138:18|88:63,1,90,0|2
53,120,69856,1,2
86,203,70056,2,0,B|147:259|227:190,1,135,0|2
324,134,70656,1,0
396,80,70856,6,0,C|441:43,2,45,2|2|2
324,134,71256,1,2
252,188,71456,1,0
252,188,71556,2,2,C|205:235|201:312,2,135
341,184,72656,5,2
406,121,72856,5,2
406,121,72956,1,0
406,121,73056,1,2
339,60,73256,5,0
339,60,73356,1,2
339,60,73456,1,0
272,121,73656,5,2
272,121,73756,1,0
272,121,73856,1,2
203,62,74056,6,0,B|159:50|126:109,1,90,0|4
186,172,74456,2,0,B|181:234|115:238,1,90,8|4
46,211,74856,2,0,B|30:246|50:282,2,67.5,0|8|0
201,302,75856,5,4
290,300,76056,1,8
339,224,76256,2,0,L|293:193|243:192,1,90,4|0
122,178,76756,2,0,L|202:178|231:124,1,135,0|0
256,48,77256,5,0
400,192,77456,1,4
256,336,77656,1,8
112,192,77856,1,4
256,192,78056,2,0,C|332:267,2,90,0|4|8
191,113,78656,5,4
128,48,78856,1,2
128,48,78956,1,0
128,48,79056,1,2
64,112,79256,5,0
64,112,79356,1,2
64,112,79456,1,0
124,178,79656,5,2
124,178,79756,1,0
124,178,79856,1,2
124,267,80056,2,2,L|220:267,1,90,6|2
393,266,80456,6,4,L|281:266,1,90,4|4
257,187,80856,1,8
198,118,81056,5,0
198,118,81156,1,0
198,118,81256,2,0,L|141:56,2,67.5,4|8|4
370,65,82256,6,0,B|427:72|460:121,2,90,4|8|4
308,130,82856,2,0,B|347:201|432:186,1,135,0|0
465,193,83256,6,0,B|467:260|372:268,1,90,0|0
328,279,83656,5,0
257,223,83856,1,4
189,282,84056,1,8
122,221,84256,5,4
122,221,84356,1,0
65,150,84556,1,0
65,150,84656,1,4
123,81,84856,1,8
211,75,85056,5,4
211,75,85156,1,0
300,73,85356,1,0
300,73,85456,1,4
365,134,85656,5,2
365,134,85756,1,0
365,134,85856,1,2
296,192,86056,5,0
296,192,86156,1,2
296,192,86256,1,0
370,242,86456,5,2
370,242,86556,1,0
370,242,86656,1,2
294,291,86856,6,0,C|262:312|199:313,1,90,0|4
120,309,87256,2,0,C|85:273|87:206,1,90,8|4
167,197,87656,2,0,C|186:165|171:135|188:109|164:70,2,135,0|8|4
347,200,88456,5,0
409,134,88656,1,4
344,70,88856,1,8
254,69,89056,2,0,C|208:74|165:111,1,90,4|0
146,136,89356,5,0
89,206,89556,1,0
89,206,89656,1,0
89,296,89856,5,0
178,296,90056,1,0
336,298,90256,6,0,C|391:293|427:262,2,90,4|8|4
175,71,90856,6,0,C|120:76|84:107,2,90,0|4|8
175,161,91456,5,4
219,239,91656,1,2
219,239,91756,1,0
219,239,91856,1,2
261,159,92056,5,0
311,233,92256,1,2
311,233,92356,1,0
311,233,92456,1,2
359,157,92656,5,0
405,79,92856,1,2
405,79,92956,1,0
405,79,93056,1,2
315,78,93256,5,0
225,78,93456,6,0,C|114:78,1,90,4|8
224,79,93856,1,4
226,168,94056,6,0,C|322:168,1,90,0|4
226,168,94456,1,8
221,257,94656,6,0,C|93:257,1,90,4|0
221,258,95056,1,4
310,257,95256,1,8
399,257,95456,6,0,C|469:257,2,45,4|0|0
455,186,95856,2,0,C|343:186,1,90,4|8
274,183,96256,1,4
274,183,96456,1,0
108,111,96856,6,0,C|77:201|108:296,2,180,8|0|8
184,63,97856,2,0,C|230:48|283:67,1,90,12|0
352,95,98256,5,4
423,149,98456,1,2
423,149,98556,1,0
423,149,98656,1,2
348,199,98856,5,0
348,199,98956,1,2
348,199,99056,1,0
419,253,99256,5,2
419,253,99356,1,0
419,253,99456,1,2
345,304,99656,6,0,B|249:304,1,90,0|4
186,246,100056,2,0,B|151:196|210:140,1,90,8|4
251,96,100456,2,0,B|411:96,2,135,0|8|4
249,186,101256,2,0,B|249:282,3,90,0|4|8|4
159,276,102056,2,0,B|79:276,2,67.5,0|8|4
198,193,102856,6,0,C|253:124|195:37,1,180,0|8
294,43,103456,1,12
383,51,103656,2,0,C|332:133|386:207,1,180,0|8
432,271,104256,5,4
351,311,104456,5,0
351,311,104556,1,0
351,311,104656,1,4
298,237,104856,5,8
298,237,104956,1,0
246,310,105156,5,8
194,236,105356,5,8
194,236,105456,1,4
141,309,105656,5,8
141,309,105756,1,0
141,309,105856,1,4
89,235,106056,6,0,C|48:150|100:64,1,180,0|8
417,80,106856,2,0,C|458:165|406:251,1,180,0|8
325,238,107456,1,0
145,236,107856,5,4
84,169,108056,1,8
143,101,108256,1,4
143,101,108356,1,0
143,101,108456,1,0
201,169,108656,5,0
201,169,108756,1,0
290,168,108956,1,0
290,168,109056,1,0
341,94,109256,6,0,B|245:24|162:106,3,180,0|8|0|8
174,273,110856,2,0,B|256:351|353:261,3,180,0|8|0|8
416,64,112456,5,0
96,320,112856,1,8
416,320,113256,1,0
96,64,113656,1,8
236,61,114056,6,0,B|157:118,1,90,0|4
93,170,114456,1,8
141,245,114656,1,4
218,198,114856,6,0,B|297:137,1,90,0|4
364,92,115256,1,8
423,159,115456,1,0
429,248,115656,6,0,C|372:315|260:323,1,180,0|8
83,136,116456,2,0,C|140:69|252:61,1,180,0|8
256,192,117056,12,0,118856
288,32,128456,6,0,C|80:32,1,180,0|8
224,352,129256,2,0,C|432:352,1,180,0|8
449,177,130056,5,0
359,175,130256,5,4
359,175,130456,1,8
269,177,130656,5,4
179,174,130856,5,0
179,174,131056,1,4
89,173,131256,5,8
220,296,131656,6,0,C|308:289|394:213,1,180,0|8
433,160,132256,1,12
288,52,132456,2,0,C|194:61|122:137,1,180,0|8
86,197,133056,1,4
89,286,133256,1,0
250,286,133456,1,4
252,124,133656,1,8
413,127,133856,5,4
413,288,134056,1,0
251,287,134256,1,4
253,125,134456,1,8
73,126,134856,6,0,C|60:181|86:230,1,90,0|4
133,278,135256,1,8
217,307,135456,1,4
306,311,135656,2,0,C|352:293|385:240,1,90,0|4
399,172,136056,5,8
368,87,136256,1,4
289,42,136456,1,0
199,38,136656,1,4
122,88,136856,1,8
108,176,137056,1,4
166,244,137256,1,0
252,217,137456,1,4
246,127,137656,5,8
246,127,137756,1,0
246,127,137856,1,4
246,127,138056,6,0,B|361:152,1,90,0|4
422,166,138456,1,8
422,166,138556,1,0
422,166,138656,1,0
406,258,138856,6,0,B|303:285,1,90
231,300,139256,1,8
231,300,139356,1,0
231,300,139456,1,4
143,280,139656,5,0
143,280,139856,1,4
110,196,140056,1,8
110,196,140156,1,0
110,196,140256,1,4
140,111,140456,5,0
140,111,140556,2,0,C|184:78|243:75,1,90
308,75,140956,1,0
308,75,141056,1,4
378,130,141256,6,0,C|399:173|387:226,1,90,0|4
339,288,141656,1,8
249,284,141856,1,4
249,284,141956,1,0
249,284,142056,2,0,C|196:282|147:250,1,90,0|4
94,206,142456,1,8
273,187,142856,5,0
338,124,143056,1,4
338,124,143156,1,0
271,63,143356,1,0
271,63,143456,1,4
271,63,143556,1,0
271,63,143656,2,0,C|159:63,1,90
90,63,144056,1,8
78,242,144456,5,0
145,301,144656,1,4
210,239,144856,1,8
275,300,145056,1,4
275,300,145156,1,0
275,300,145256,1,0
340,238,145456,1,4
429,237,145656,1,8
435,57,146056,5,0
355,99,146256,1,4
355,99,146356,1,0
275,56,146556,1,0
275,56,146656,1,4
275,56,146756,1,0
275,56,146856,2,0,C|163:56,1,90,0|0
94,58,147256,1,8
245,155,147656,5,0
155,155,147856,2,0,C|117:189|115:241,1,90,4|8
128,314,148256,1,4
128,314,148356,1,0
128,314,148456,2,0,C|182:311|223:269,1,90,0|4
261,214,148856,1,8
350,214,149056,1,0
439,213,149256,5,0
440,123,149456,1,4
440,123,149556,1,0
360,77,149756,1,0
360,77,149856,1,4
360,77,149956,1,0
360,77,150056,2,0,C|232:77,1,90,0|4
179,79,150456,1,8
89,80,150656,1,0
85,169,150856,6,0,C|110:214|165:217|162:220,1,90,0|4
237,221,151256,1,8
237,221,151356,1,0
237,221,151456,1,4
326,218,151656,5,0
400,168,151856,1,4
325,117,152056,1,8
325,117,152156,1,0
325,117,152256,1,4
256,64,152456,5,0
112,192,152656,1,4
256,320,152856,1,8
400,192,153056,1,4
256,192,153256,12,0,154056
376,56,163405,6,0,C|472:64,1,70
336,112,163795,2,0,C|392:176,1,70,8|8
264,128,164184,2,0,C|264:216,1,70
200,112,164574,2,0,C|136:192,1,70,8|4
160,56,164964,2,0,C|72:80,1,70
35,136,165353,5,8
34,220,165548,1,8
111,253,165743,1,0
163,187,165938,1,0
120,114,166132,1,8
94,181,166327,5,4
157,236,166522,1,0
234,203,166717,1,0
217,120,166912,1,8
134,107,167106,1,8
166,169,167301,5,0
249,156,167496,1,0
291,228,167691,1,8
235,290,167886,1,4
160,252,168080,1,0
222,222,168275,5,0
285,277,168470,1,8
363,246,168665,1,8
345,163,168860,1,0
262,150,169055,1,0
294,210,169249,5,8
377,198,169444,1,4
423,267,169639,1,0
364,327,169834,1,0
287,292,170029,1,8
347,260,170223,1,8
347,260,170418,5,0
385,185,170613,6,0,C|465:185,1,70,0|8
336,120,171003,5,4
256,88,171197,6,0,C|256:16,1,70
176,120,171587,5,8
128,184,171782,6,0,C|56:184,1,70,8|0
168,256,172171,5,0
245,289,172366,6,0,C|233:335,2,35,8|4|8
272,208,172756,6,0,C|296:120,1,70
208,152,173145,2,0,C|120:120,1,70,8|0
136,208,173535,2,0,C|104:288,1,70,0|0
192,264,173925,2,4,C|280:296,1,70,8|0
288,192,174314,6,0,C|248:104,1,70,0|0
344,136,174704,2,0,C|416:104,1,70,8|0
408,192,175093,2,0,C|448:272,1,70
352,256,175483,2,0,C|280:296,1,70,8|4
88,256,175873,6,0,C|136:320,1,70
144,208,176262,2,0,C|216:240,1,70,8|0
160,136,176652,2,0,C|256:136,1,70
144,64,177042,2,4,C|216:24,1,70,8|0
324,39,177431,5,0
404,63,177626,1,0
433,141,177821,1,8
393,215,178016,1,0
311,231,178210,1,0
247,175,178405,1,0
253,91,178600,1,8
324,134,178795,6,4,C|367:158,2,35
160,72,179184,5,0
80,99,179379,1,8
49,177,179574,1,0
91,248,179769,1,0
173,263,179964,1,0
234,206,180158,1,8
233,121,180353,1,4
311,62,180548,6,0,C|388:41,1,70,0|0
359,125,180938,2,0,C|415:67,1,70,8|0
428,156,181327,2,0,C|444:84,1,70
365,120,181717,6,4,C|325:160,2,35,8|0|0
425,61,182106,1,4
80,320,182496,1,8
144,264,182691,2,4,C|184:224,2,35
80,208,183080,6,8,C|80:288,1,70,0|8
160,248,183470,2,0,C|96:304,1,70,8|0
184,320,183860,2,0,C|104:320,1,70,0|8
157,248,184249,5,0
224,200,184444,2,4,C|179:240,2,35
304,176,184834,5,8
304,176,185029,6,0,C|306:213|328:248,1,70
400,208,185418,2,0,C|437:206|472:184,1,70,0|8
432,112,185808,2,0,C|430:75|408:40,1,70,8|0
336,72,186197,2,0,C|299:74|264:96,1,70,0|8
120,248,186587,5,4
120,248,186782,6,0,C|81:257|32:240,1,70
88,168,187171,2,0,C|79:129|96:80,1,70,8|8
168,136,187561,2,0,C|207:127|256:144,1,70
200,216,187951,2,0,C|209:255|192:304,1,70,8|4
384,288,188340,6,0,B|464:240,1,70
336,224,188730,2,0,B|392:136,1,70,8|8
256,200,189119,2,0,B|256:128,1,70
176,224,189509,2,0,B|120:152,1,70,8|4
128,280,189899,2,0,B|48:240,1,70
56,160,190288,5,8
81,126,190386,1,0
152,160,190580,5,0
177,126,190678,1,0
203,93,190775,1,0
287,93,190970,5,0
287,93,191067,1,0
287,93,191165,1,0
287,93,191262,1,0
287,93,191360,1,0
287,93,191457,1,4
96,56,194502,6,0,B|191:63|240:152,1,140,0|2
256,192,195071,1,2
296,264,195261,2,0,B|351:344|472:320,2,140,2|0|2
336,192,196210,5,2
416,192,196400,1,2
408,48,196780,6,0,B|312:48|280:144,1,140,0|2
256,192,197350,1,2
256,192,197539,1,0
208,256,197729,2,0,B|161:319|72:328,1,140,2|0
56,248,198299,5,2
48,160,198489,1,0
88,88,198679,1,2
160,48,198869,1,2
200,120,199058,6,0,B|246:219|344:224,1,140,0|2
376,240,199628,1,2
456,256,199818,1,2
368,112,200198,6,0,B|332:198|208:224,1,140,0|2
192,240,200767,1,2
112,264,200957,1,2
184,112,201337,6,0,B|218:43|336:56,1,140
344,216,202096,6,0,B|290:287|200:264,1,140,0|0
96,320,203615,6,0,B|168:312|216:240,1,140,0|2
256,176,204185,1,2
256,176,204375,1,2
416,320,204755,6,0,B|323:302|288:224,1,140,0|2
256,176,205324,1,2
256,176,205514,1,2
256,320,205894,6,0,B|256:168,1,140,0|0
256,24,206653,6,0,C|256:112,1,70,0|0
409,164,207223,5,0
376,241,207413,1,2
300,278,207603,5,0
217,276,207793,1,2
141,238,207983,5,2
101,164,208172,1,0
184,40,208552,6,2,C|384:40,1,140,2|2
256,192,209312,1,0
328,344,209691,2,2,C|144:344,1,140,2|2
64,192,210451,5,2
256,32,210831,5,2
448,192,211210,5,2
256,352,211590,5,2
256,32,212729,6,0,C|112:32,2,140,2|8|2
400,192,213869,5,2
336,256,214058,1,8
256,192,214248,5,2
176,128,214438,5,8
112,192,214628,1,2
256,300,215008,5,2
255,215,215198,1,0
255,130,215388,1,10
104,64,215767,6,0,B|192:64,1,70,2|8
256,64,216147,1,2
408,160,216337,6,0,B|308:160,1,70,2|8
256,160,216717,1,2
104,256,216907,6,0,B|200:256,1,70,8|2
256,256,217286,1,2
352,256,217476,6,0,C|432:144,1,105,8|2
160,64,217856,2,0,C|80:160,1,105,2|8
336,64,218426,6,0,C|432:144,1,105,2|8
176,320,218805,2,0,C|80:240,1,105,2|2
256,192,219185,1,8
408,56,219564,5,2
416,320,219943,5,2
96,320,220323,5,2
96,56,220703,5,2
144,72,221842,5,0
96,144,222032,1,0
96,224,222222,1,0
144,296,222412,5,4
144,296,222507,1,4
352,296,222981,5,0
400,224,223171,1,0
400,144,223361,1,0
352,72,223551,5,4
352,72,223646,1,4
144,48,224120,5,0
56,48,224310,1,0
88,128,224500,5,4
104,160,224595,1,0
120,192,224690,1,0
168,264,224880,5,4
200,240,224975,1,0
232,216,225070,1,0
296,160,225260,6,0,B|368:104,2,70
296,240,225829,5,0
368,280,226019,1,0
440,240,226209,1,0
440,152,226399,1,0
376,96,226589,5,0
336,96,226684,1,0
296,96,226779,1,0
208,96,226969,5,8
120,96,227158,1,4
120,264,227538,5,0
200,264,227728,5,0
240,264,227823,1,0
280,264,227918,2,0,B|376:264,2,70,0|8|4
448,256,228677,5,0
376,208,228867,5,0
336,184,228962,1,0
296,160,229057,1,0
224,112,229247,6,0,B|136:112,2,70,8|0|8
294,65,229817,1,4
256,32,230956,5,0
384,320,231332,5,8
96,160,231707,5,2
416,160,232082,5,0
128,320,232457,5,8
256,32,232832,5,2
256,192,233207,5,8
256,192,233394,5,0
320,256,233582,5,0
320,256,233675,1,4
320,256,233769,1,0
192,256,233957,5,0
192,256,234050,1,4
192,256,234144,1,0
192,128,234332,5,0
192,128,234425,1,4
192,128,234519,1,0
320,128,234707,5,0
320,128,234800,1,4
320,128,234894,1,0
256,192,235082,5,8
256,192,235269,5,4
168,192,235457,6,0,B|24:192,2,140,8|0|8
256,192,236394,1,0
336,192,236582,2,0,B|480:192,2,140,8|0|8
256,192,237519,5,8
256,192,237707,12,8,238832
448,48,239957,5,8
376,96,240144,1,12
320,160,240332,5,0
320,160,240425,1,0
320,160,240519,1,0
280,232,240707,5,6
152,336,241082,5,8
96,272,241269,1,12
88,184,241457,5,0
88,184,241550,1,0
88,184,241644,1,0
104,104,241832,5,6
256,32,242207,5,0
328,72,242394,1,8
376,144,242582,5,0
376,144,242675,1,0
376,144,242769,1,4
400,224,242957,5,0
400,224,243050,1,0
400,224,243144,2,2,B|417:275|394:325,1,70,2|8
360,368,243519,1,2
280,344,243707,6,0,B|223:332|207:284,1,70,2|2
160,256,244082,1,8
160,256,244269,1,2
120,176,244457,5,8
120,176,244550,1,0
120,176,244644,1,0
80,104,244832,6,0,B|103:72|163:55,1,70,2|8
216,40,245207,1,2
280,192,245582,5,8
352,224,245769,5,0
352,224,245863,1,0
352,224,245957,1,2
432,192,246144,5,8
488,128,246332,1,2
344,40,246707,5,8
272,80,246894,5,0
272,80,246988,1,0
272,80,247082,2,0,B|217:102|205:143,1,70,2|2
162,185,247457,1,8
123,259,247644,5,2
203,235,247832,1,8
284,214,248019,5,8
284,214,248207,2,0,B|323:200|369:201,2,70,2|8|2
128,288,248957,6,0,L|192:256,1,70,8|8
400,208,249332,2,2,L|320:176,1,70,2|0
128,112,249707,2,0,L|208:80,1,70,2|0
400,80,250082,6,8,L|320:112,1,70,8|8
128,176,250457,2,2,L|208:208,1,70,2|0
400,272,250832,2,0,L|320:304,1,70,2|0
250,302,251207,5,8
166,301,251394,2,0,B|102:301,2,35,0|0|0
208,228,251769,1,0
264,165,251957,1,8
312,88,252144,2,0,B|368:88,2,35
224,88,252519,6,0,L|136:88,1,70,2|8
104,152,252894,1,2
48,216,253082,1,8
104,280,253269,1,2
184,280,253457,2,0,L|240:224,1,70,8|8
296,176,253832,1,2
352,112,254019,1,8
296,176,254207,1,2
152,88,254582,6,0,L|120:64|80:64,2,70,8|8|2
224,136,255144,1,8
288,88,255332,1,2
256,192,255519,12,0,256832
65,49,257957,6,0,B|169:49,1,70,8|8
219,47,258332,5,0
260,47,258425,1,0
302,47,258519,1,0
386,48,258707,5,2
441,110,258894,1,0
489,178,259082,6,0,B|417:240,1,70,8|12
373,280,259457,5,0
340,306,259550,1,0
307,332,259644,1,0
222,332,259832,5,2
154,282,260019,1,0
95,221,260207,5,8
118,186,260300,1,0
144,153,260394,1,0
195,86,260582,5,8
236,86,260675,1,0
278,86,260769,1,0
362,86,260957,6,0,B|458:86,2,70,8|8|0
310,152,261519,5,0
251,212,261707,1,8
188,268,261894,6,0,B|113:339,2,70,2|8|2
252,212,262457,1,8
317,160,262644,5,0
349,133,262738,1,0
380,104,262832,2,2,B|449:37,2,70,2|8|2
104,56,263582,5,8
160,120,263769,5,0
192,152,263863,1,0
224,184,263957,2,0,B|296:256,1,70,2|8
336,288,264332,1,2
177,324,264707,6,0,C|77:250,1,105,8|2
95,114,265082,2,0,C|188:25,1,105,8|8
318,45,265457,2,0,C|422:132,1,105,2|8
393,259,265832,2,2,C|298:337,1,105
249,270,266207,6,8,C|249:314,4,35,8|0|2|4|2
312,113,266957,6,0,L|284:128|251:111|219:128|168:97,2,140,0|8|0
411,319,268082,6,0,L|459:244|418:197,1,140,8|2
368,143,268644,1,4
309,82,268832,1,12
250,141,269019,1,0
302,204,269207,6,0,L|244:247|177:191,1,140,8|2
128,149,269769,1,8
67,207,269957,1,8
129,262,270144,1,2
192,206,270332,6,0,L|248:162|312:209,1,140,8|0
373,248,270894,1,8
441,296,271082,5,2
441,296,271175,1,0
441,296,271269,1,0
444,211,271457,6,0,L|444:115,2,70,8|2|8
368,240,272019,1,8
280,232,272207,5,0
280,232,272300,1,0
280,232,272394,1,0
205,192,272582,6,0,B|136:256,2,70,8|2|8
153,134,273144,2,0,B|221:68,1,70,8|0
308,86,273519,2,0,B|363:136,1,70,2|8
361,238,273894,2,0,B|296:183,2,70,0|8|8
256,192,274457,12,8,275582
416,136,275957,6,0,B|465:204|408:272,2,140,2|8|2
256,192,277082,1,2
104,264,277457,2,0,B|55:196|112:128,2,140,8|2|2
256,192,278582,5,8
256,192,278769,1,2
336,214,278957,6,0,B|412:159,1,70,8|8
322,125,279332,2,0,B|270:61,1,70,0|2
214,126,279707,2,0,B|123:147,1,70,8|0
182,217,280082,2,0,B|168:291,1,70,8|8
251,266,280457,2,0,B|314:314,1,70,0|2
384,280,280832,5,8
416,200,281019,1,8
395,118,281207,1,0
330,64,281394,1,2
249,49,281582,1,8
174,88,281769,5,2
138,162,281957,1,0
179,235,282144,1,2
254,263,282332,1,8
329,225,282519,1,2
315,141,282707,5,0
232,127,282894,1,2
258,192,283082,5,8
258,192,283175,1,0
258,192,283269,1,12
256,192,283457,12,0,284582
40,344,284957,5,0
112,256,285332,1,8
176,344,285707,1,0
240,256,286082,1,8
312,344,286457,1,0
376,256,286832,1,8
440,344,287207,1,0
504,256,287582,2,8,B|456:176,1,70,8|8
467,196,287957,1,0
472,40,288332,5,8
400,128,288707,1,0
336,40,289082,1,8
272,128,289457,1,0
200,40,289832,1,8
136,128,290207,1,0
64,264,290582,2,8,B|136:328,1,70,8|8
176,344,290957,5,0
240,328,291144,1,0
304,312,291332,2,0,B|392:280,1,70,0|0
432,312,291707,1,0
464,248,291894,1,0
408,208,292082,1,8
424,136,292269,2,0,B|392:72,1,70,0|0
328,48,292644,2,0,B|248:48,1,70,0|0
232,112,293019,2,0,B|224:208,1,70,0|0
192,248,293394,2,0,B|120:272,1,70,0|8
56,240,293769,5,0
88,176,293957,1,0
112,112,294144,2,0,B|176:80,1,70,0|0
224,128,294519,2,0,B|272:200,1,70
272,256,294894,1,0
200,264,295082,2,0,B|152:192,1,70,8|0
120,144,295457,1,0
184,112,295644,1,0
248,88,295832,2,0,B|296:160,1,70,0|0
216,160,296207,2,0,B|152:208,1,70,0|0
216,240,296582,2,0,B|272:312,1,70,8|0
304,240,296957,5,4
360,200,297144,1,0
408,248,297332,1,8
352,296,297519,1,0
304,240,297707,1,0
248,192,297894,1,0
200,240,298082,1,8
248,288,298269,6,0,B|248:368,1,70,0|0
184,336,298644,2,0,B|104:296,1,70,0|8
56,272,299019,1,0
112,232,299207,1,0
48,200,299394,1,0
104,160,299582,1,8
40,128,299769,6,0,B|120:80,1,70,0|0
160,56,300144,1,0
192,120,300332,2,0,B|232:208,1,70,8|0
160,216,300707,1,0
96,248,300894,2,0,B|96:328,1,70,0|8
160,336,301269,5,0
160,336,301457,1,0
224,320,301644,1,0
224,320,301832,1,8
288,304,302019,1,0
288,304,302207,1,0
352,288,302394,1,0
352,288,302582,1,8
416,264,302769,6,0,B|408:176,1,70,8|4
360,144,303144,2,0,B|272:144,1,70,0|8
304,216,303519,1,0
320,280,303707,1,0
256,304,303894,2,0,B|176:336,1,70,0|8
184,256,304269,2,0,B|152:184,1,70,8|4
104,240,304644,2,0,B|16:280,1,70,0|8
96,312,305019,5,0
152,344,305207,1,0
200,296,305394,2,0,B|200:216,1,70,0|8
200,152,305769,1,8
264,120,305957,1,4
320,160,306144,2,0,B|392:216,1,70,0|8
336,256,306519,1,0
296,312,306707,1,0
240,264,306894,2,0,B|176:208,1,70,0|8
256,192,307269,12,4,308957
112,104,314957,6,0,B|26:206|128:312,2,210
400,288,316457,2,0,B|486:186|384:80,2,210
256,360,317957,1,0
144,280,318332,1,0
264,208,318707,1,0
176,96,319082,1,0
304,32,319457,2,0,B|408:96|416:235|296:345|152:264,1,420,0|0
96,168,320957,6,0,B|101:69|208:88,1,140,4|0
248,104,321519,2,0,B|300:180|204:242|272:320,1,210,2|0
400,280,322457,1,2
472,160,322832,1,0
368,64,323207,1,0
240,112,323582,1,0
264,248,323957,2,0,C|214:292|136:280,1,140,2|0
96,184,324707,2,0,C|128:120|216:112,1,140,2|0
328,136,325457,2,0,C|387:167|400:248,3,140,2|2|2|2
96,112,332957,6,0,C|192:80,1,70,0|2
240,112,333322,2,0,C|240:184,1,70,0|2
280,256,333688,2,0,C|376:232,1,70,0|2
408,184,334054,2,0,C|424:88,1,70,0|2
352,64,334420,2,2,C|208:40,1,140,2|2
256,192,334969,1,0
160,320,335152,2,2,C|304:344,1,140,2|2
256,192,335700,1,0
64,152,335883,6,0,C|32:232,1,70,0|2
120,240,336249,2,0,C|192:288,1,70,0|2
208,200,336615,2,0,C|264:136,1,70,0|2
176,120,336981,2,0,C|120:72,1,70,0|2
80,144,337347,2,2,C|57:211|80:288,1,140,2|2
256,192,337896,1,0
432,264,338078,2,2,C|455:197|432:120,1,140,2|2
256,192,338627,1,0
112,280,338810,6,0,C|144:360,1,70,0|2
216,328,339176,1,0
296,304,339359,1,0
304,216,339542,2,0,C|312:128,1,70,0|2
376,96,339908,2,0,C|456:72,1,70
464,160,340274,2,0,C|464:256,1,70,0|2
408,296,340639,2,0,C|320:264,1,70
264,248,341005,2,0,C|192:296,1,70,0|2
128,328,341371,2,0,C|96:248,1,70
80,184,341737,6,2,C|136:120|200:160,1,140
248,200,342286,1,0
312,256,342469,2,2,C|376:312|424:264,1,140,2|2
456,200,343017,1,0
408,128,343200,2,2,C|361:75|272:72,1,140,2|2
256,192,343749,1,0
104,256,343932,2,2,C|151:309|240:312,2,140,2|2|4
64,184,344847,5,2
112,120,345030,2,0,C|168:64,1,70,0|0
248,64,345396,2,0,C|344:64,1,70,0|2
312,144,345761,2,0,C|384:216,1,70,0|0
288,240,346127,2,0,C|288:328,1,70,0|2
208,272,346493,2,0,C|136:312,1,70,0|0
136,224,346859,2,0,C|72:184,1,70,0|2
144,136,347225,2,0,C|144:56,1,70,0|0
224,80,347591,6,2,C|272:104|288:200,1,140
288,272,348139,1,0
368,256,348322,2,2,C|416:240|432:152,1,140,2|2
408,72,348871,1,0
320,80,349054,2,2,C|240:96|224:160,1,140,2|2
216,320,349786,2,2,C|144:342|96:280,1,140
24,144,350517,5,4
176,64,350883,1,8
336,112,351249,1,0
384,272,351615,1,0
240,360,351981,2,0,C|104:296,1,140,0|8
272,24,352713,2,0,C|408:88,1,140,0|8
256,192,353444,12,4,356005
256,192,356371,6,0,C|256:120,1,70,4|0
184,168,356737,2,0,C|104:168,1,70,0|0
152,240,357103,2,0,C|152:320,1,70,0|0
224,272,357469,2,0,C|296:272,1,70,0|0
256,192,357835,2,2,C|256:121|320:80,1,140,2|2
392,56,358383,1,0
416,136,358566,2,2,C|416:207|352:248,1,140,2|2
280,272,359115,1,0
208,224,359298,2,2,C|200:196|210:160|200:128|224:88,3,140,2|2|2|2
144,64,360578,1,0
80,112,360761,2,2,C|48:174|80:264,1,140,2|2
432,272,361493,2,2,C|464:210|432:120,1,140,2|2
304,72,362225,6,0,C|208:72,1,70,4|8
272,144,362591,2,0,C|368:144,1,70,0|8
304,216,362957,2,0,C|208:216,1,70,0|8
256,296,363322,2,0,C|104:296,1,140
117,296,363871,5,8
56,240,364054,2,0,C|56:152,1,70,0|8
112,104,364420,2,0,C|200:104,1,70,0|8
152,184,364786,2,0,C|296:184,1,140
292,184,365335,5,8
368,216,365517,2,8,C|408:304,1,70,0|8
456,216,365883,2,0,C|416:144,1,70,0|8
352,128,366249,2,0,C|256:168,1,70,0|0
336,216,366615,2,0,C|376:288,1,70,0|8
288,280,366981,2,8,C|208:320,1,70,0|0
200,232,367347,2,0,C|163:164|88:128,1,140
344,40,368078,6,0,B|355:172|496:160,2,210,4|0|8
280,168,369542,2,0,B|356:189|368:288,1,140,0|8
296,280,370091,2,0,B|140:297|208:136,1,210,0|8
256,24,371005,1,0
480,192,371371,1,8
256,360,371737,1,0
32,192,372103,1,8
144,104,372469,2,0,C|280:208,1,140,0|8
312,232,373017,2,0,B|306:315|384:360,1,140,0|0
440,352,373566,2,0,C|448:264,1,70,8|8
400,232,373932,6,0,B|280:274|184:184,2,210,4|0|0
424,96,375396,2,0,B|330:22|216:64,2,210,4|0|0
432,336,376859,1,4
80,48,377225,1,0
432,48,377591,1,4
80,336,377957,1,0
216,304,378322,2,0,C|304:352|360:272|424:272|431:196|408:120,1,420,4|0
32,40,379786,6,2,C|112:40,1,70
160,96,380143,1,0
120,168,380321,2,0,C|88:232,2,70,0|2|2
200,200,380857,1,0
280,168,381036,2,0,C|360:128,2,70,0|2|2
304,248,381571,1,2
240,296,381750,2,2,C|168:304,2,70,2|2|2
320,288,382286,1,0
400,280,382464,2,0,C|424:208,1,70,2|2
392,136,382821,6,0,C|360:56,1,70,0|2
280,64,383178,2,0,C|216:128,1,70,0|2
304,152,383536,2,0,C|352:208,1,70,0|2
349,206,383893,1,0
384,280,384071,2,2,C|232:280,1,140,2|2
184,192,384607,1,0
128,104,384786,2,2,C|280:104,1,140,2|2
432,104,385500,5,0
432,272,385857,1,8
264,272,386214,1,0
264,104,386571,1,8
96,104,386928,1,0
96,272,387286,1,8
232,176,387643,1,0
368,80,388000,6,8,B|424:152,1,70,8|8
411,135,388357,1,0
272,224,388714,1,8
152,104,389071,1,0
16,208,389428,1,8
128,336,389786,1,0
248,216,390143,1,8
368,96,390500,1,0
472,224,390857,1,8
416,288,391036,1,8
328,288,391214,6,0,C|240:288,1,70,6|2
208,216,391571,1,0
128,248,391750,1,0
184,312,391928,2,0,C|264:312,1,70,2|2
304,248,392286,1,0
240,192,392464,1,0
304,144,392643,2,0,C|304:64,1,70,2|2
216,88,393000,1,2
136,104,393178,1,2
56,120,393357,2,0,C|32:200,1,70,2|2
80,256,393714,1,0
128,320,393893,1,2
208,296,394071,6,2,B|249:229|208:144,1,140,2|2
168,96,394607,1,0
104,152,394786,2,2,B|48:206|80:296,1,140,2|2
120,352,395321,1,0
192,320,395500,2,2,B|260:288|344:328,3,140,2|2|2|2
384,256,396750,5,0
440,192,396928,2,0,B|384:48,1,140,0|8
304,80,397464,1,0
224,104,397643,2,0,B|280:248,1,140,0|8
200,272,398178,1,0
120,304,398357,2,0,B|64:160,3,140,0|8|0|8
69,173,399607,1,0
69,173,399786,5,0
224,112,400143,1,8
288,264,400500,1,0
448,208,400857,1,8
384,48,401214,1,4
56,96,401571,1,12
136,352,401928,1,4
448,280,402286,1,12
296,128,402643,6,0,C|256:192,1,70,2|0
192,272,403000,1,2
192,272,403089,1,0
192,272,403178,1,0
104,216,403357,2,0,C|96:128,1,70,2|0
176,72,403714,1,2
176,72,403803,1,0
176,72,403893,1,0
264,128,404071,6,0,B|336:184,1,70,2|0
400,232,404428,1,2
400,232,404518,1,0
400,232,404607,1,0
320,296,404786,2,0,B|240:296,1,70,2|0
160,232,405143,1,2
160,232,405232,1,0
160,232,405321,1,0
256,192,405500,6,2,B|300:116|240:64,1,140,2|8
48,144,406214,2,2,B|48:296,1,140,2|8
280,352,406928,1,0
456,64,407286,2,2,B|456:208,2,140,10|0|10
248,80,408357,6,0,B|168:88,1,70,0|8
104,160,408714,2,0,B|88:232,1,70,0|8
192,240,409071,2,0,B|192:320,1,70,0|8
96,344,409428,2,0,B|88:184,1,140,0|0
72,32,409964,1,8
176,32,410143,6,0,B|272:32,1,70,0|8
216,136,410500,2,0,B|312:136,1,70,0|8
376,80,410857,2,0,B|424:232,1,140,0|0
256,352,411393,1,8
160,312,411571,6,0,B|152:224,1,70,0|8
248,192,411928,2,0,B|320:224,1,70,0|8
312,112,412286,2,0,B|168:48,1,140,0|0
32,192,413000,5,8
256,376,413357,1,0
256,8,413714,1,8
488,192,414071,5,4
384,168,414250,1,2
288,208,414428,2,0,B|272:288,1,70,0|2
184,328,414786,1,0
152,224,414964,2,0,B|120:136,1,70,2|0
96,56,415321,1,2
192,24,415500,2,0,B|264:40,1,70,0|2
352,88,415857,1,0
448,136,416036,2,0,B|456:208,1,70,2|0
400,296,416393,2,0,B|320:304,1,70,2|0
264,216,416750,2,0,B|344:208,1,70,2|0
332,210,417107,5,0
264,128,417286,2,2,B|209:75|128:80,1,140,2|0
160,184,417821,1,0
72,240,418000,2,2,B|84:316|176:368,1,140,2|0
248,320,418536,1,0
272,216,418714,2,2,B|299:179|245:128|288:64,2,140,2|0|2
448,328,419786,5,0
448,56,420143,1,8
256,328,420500,1,0
256,56,420857,1,8
64,328,421214,1,0
64,56,421571,2,0,B|144:104,1,70,8|0
40,160,421928,2,0,B|168:240,1,140,0|8
464,56,422643,6,0,B|464:160,1,70,0|0
360,120,423000,2,0,B|360:224,1,70,8|0
416,280,423357,2,0,B|480:344,1,70
360,352,423714,2,0,B|296:296,1,70,8|0
256,216,424071,2,0,B|256:136,1,70,0|0
160,192,424428,2,0,B|160:280,1,70,8|0
64,216,424786,2,0,B|64:64,1,140,0|0
64,77,425232,1,0
64,77,425321,1,0
160,32,425500,6,0,B|232:72,1,70,6|0
328,56,425857,1,0
400,136,426036,1,0
392,240,426214,1,2
312,312,426393,1,0
208,328,426571,1,0
112,280,426750,1,0
72,184,426928,1,2
112,88,427107,1,0
200,32,427286,1,0
304,64,427464,1,0
328,168,427643,1,2
272,256,427821,1,0
168,232,428000,1,0
168,128,428178,1,0
264,80,428357,5,0
264,80,428446,1,0
264,80,428536,1,0
312,176,428714,2,2,B|344:256,1,70
256,304,429071,1,0
256,304,429161,1,0
256,304,429250,1,0
160,264,429428,1,2
64,216,429607,1,2
88,112,429786,1,0
88,112,429875,1,0
88,112,429964,1,0
184,64,430143,2,2,B|272:64,1,70,2|2
328,136,430500,2,2,B|289:201|336:288,1,140,2|2
208,344,431214,5,0
104,248,431571,1,8
200,144,431928,1,0
296,240,432286,1,8
208,344,432643,1,0
104,248,433000,1,8
200,144,433357,1,0
296,240,433714,1,8
472,48,434071,2,0,B|472:200,1,140,0|8
40,336,434786,2,0,B|40:184,1,140,0|8
336,192,435500,2,4,B|184:192,3,140,4|12|4|12
112,80,436928,5,0
248,120,437286,1,8
312,136,437464,2,0,B|392:160,2,70
248,120,438000,1,8
168,232,438357,5,0
88,344,438714,1,8
152,328,438893,2,0,B|248:304,1,70,0|0
288,296,439250,1,0
352,280,439428,2,0,C|352:192|304:144,1,140,8|0
200,80,440143,5,8
128,200,440500,2,0,C|115:251|176:320,1,140,0|8
304,264,441214,1,0
432,208,441571,2,0,C|445:157|384:88,2,140,8|0|8
256,192,442643,12,0,443714
256,192,444071,12,0,445143
88,64,445500,5,4
424,320,445857,1,4
88,320,446214,1,4
424,64,446571,1,4
424,192,446750,1,0
424,320,446928,1,4
88,64,447286,1,0
256,192,447643,12,0,448178
48,336,454071,5,0
48,336,454250,1,2
120,336,454428,1,0
120,336,454607,1,2
192,336,454786,1,0
192,336,454964,1,2
264,336,455143,1,0
264,336,455321,1,2
336,336,455500,6,0,B|416:336,1,70,0|2
376,272,455857,2,0,B|296:272,1,70,0|2
336,208,456214,2,0,B|432:208,1,70,0|2
376,144,456571,2,0,B|296:144,1,70,0|2
232,144,456928,5,0
160,144,457107,1,2
88,144,457286,2,0,B|88:224,1,70,0|2
88,280,457643,1,0
160,280,457821,1,2
232,280,458000,2,0,B|232:200,1,70,0|2
296,240,458357,6,0,B|296:168,2,70,0|2|0
296,168,458893,1,2
232,200,459071,2,0,B|232:128,2,70,0|2|0
232,128,459607,1,2
168,160,459786,6,0,B|168:240,1,70,4|2
168,232,460143,1,0
240,232,460321,2,0,B|336:232,2,70,2|0|2
272,168,460857,2,0,B|272:88,1,70,0|2
336,128,461214,6,0,B|416:128,1,70,0|2
368,192,461571,1,0
296,192,461750,2,0,B|200:192,2,70,2|0|2
264,256,462286,2,0,B|344:256,1,70,0|2
296,320,462643,5,0
232,280,462821,1,2
296,248,463000,1,0
232,208,463178,1,2
296,176,463357,1,0
232,136,463536,1,2
296,104,463714,1,0
232,64,463893,1,2
176,104,464071,5,0
176,176,464250,1,2
232,136,464428,1,0
232,208,464607,1,2
232,280,464786,1,0
176,248,464964,1,2
176,320,465143,1,0
232,352,465321,1,2
288,312,465500,5,4
168,240,465857,1,0
240,120,466214,1,0
360,192,466571,1,0
48,192,466928,5,0
256,360,467286,1,0
464,192,467643,1,0
256,24,468000,1,0
256,192,468357,12,0,471214
88,160,474071,6,0,B|176:152,1,70,0|2
232,144,474423,1,0
264,216,474600,1,2
256,288,474776,2,0,B|240:360,1,70,0|2
160,344,475129,2,0,B|72:336,1,70,0|2
168,320,475482,5,0
168,320,475571,1,0
168,320,475659,1,2
240,344,475835,1,0
240,344,475923,1,0
240,344,476012,1,2
312,328,476188,1,0
312,328,476276,1,0
312,328,476365,1,2
384,344,476541,1,0
384,344,476629,1,0
384,344,476718,1,2
400,272,476894,6,0,B|488:272,1,70,0|2
408,224,477247,2,0,B|328:200,1,70,0|2
408,160,477600,2,0,B|456:80,3,70,0|2|0|2
488,168,478306,5,0
488,168,478394,1,0
488,168,478482,1,2
424,208,478659,1,0
424,208,478747,1,0
424,208,478835,1,2
352,176,479012,1,0
352,176,479100,1,0
352,176,479188,1,2
280,208,479365,1,0
280,208,479453,1,0
280,208,479541,1,2
216,168,479718,5,0
168,224,479894,1,2
192,296,480071,1,0
256,336,480247,1,2
328,320,480423,1,0
376,256,480600,1,2
344,184,480776,1,0
288,136,480953,1,2
216,168,481129,6,0,B|288:232,1,70,0|2
216,272,481482,2,0,B|136:328,1,70,0|2
104,256,481835,2,0,B|104:168,1,70,0|2
176,152,482188,2,0,B|256:120,1,70,0|2
312,96,482541,5,0
312,96,482629,1,0
312,96,482718,1,2
360,152,482894,1,0
360,152,482982,1,0
360,152,483071,1,2
312,208,483247,1,0
312,208,483335,1,0
312,208,483423,1,2
256,264,483600,1,0
256,264,483688,1,0
256,264,483776,1,2
256,192,483953,12,4,485365
88,32,491012,6,0,B|232:32,1,140
424,360,491718,2,0,B|256:360,1,140
272,96,492423,2,0,C|254:131|266:160|254:194|272:224,3,140,0|0|0|0
368,352,493835,5,0
480,248,494188,1,0
368,136,494541,1,0
264,248,494894,1,0
368,352,495247,5,0
480,248,495600,1,0
368,136,495953,5,0
288,136,496129,1,0
208,136,496306,1,0
128,136,496482,1,0
128,136,496571,1,0
128,136,496659,6,0,B|136:224,1,70,4|2
128,136,497012,1,0
184,80,497188,2,0,B|280:96,1,70,2|0
184,80,497541,1,2
104,72,497718,1,0
40,120,497894,5,2
40,120,497982,2,0,B|24:186|56:240,1,105,0|2
96,280,498423,2,0,B|176:280,1,70,0|2
224,224,498776,2,0,B|258:150|224:72,1,140,0|0
152,88,499306,5,2
72,88,499482,2,0,B|43:170|96:248,1,140
160,224,500012,1,2
232,224,500188,2,0,B|259:153|224:72,1,140,0|0
456,88,500806,5,0
456,88,500894,2,0,B|432:176,1,70,0|2
408,224,501247,2,0,B|312:192,1,70,0|2
408,224,501600,1,0
336,200,501776,2,0,B|336:296,1,70,2|0
336,200,502129,1,2
328,112,502306,6,0,B|256:80|168:128,1,140,0|0
192,192,502835,1,2
200,272,503012,2,0,B|270:296|360:264,1,140,0|0
336,192,503541,1,2
408,208,503718,6,0,B|488:232,1,70,0|2
432,288,504071,2,0,B|448:368,1,70,0|2
368,336,504423,2,0,B|296:360,1,70,0|2
368,336,504776,1,0
312,280,504953,6,0,B|312:200,2,70,2|0|2
232,280,505482,1,0
152,280,505659,2,0,B|152:192,1,70,2|0
472,56,506365,5,2
392,56,506541,1,0
392,56,506718,1,2
312,56,506894,1,0
232,56,507071,1,2
232,56,507247,1,0
152,56,507423,1,2
72,56,507600,1,0
72,56,507776,1,2
72,256,507953,6,0,B|72:352,1,70,4|2
152,328,508306,1,0
224,328,508482,2,0,B|304:328,1,70,2|0
464,40,509012,6,0,B|418:82|344:64,1,105,6|0
362,68,509365,2,0,B|362:148,1,70,0|2
360,216,509718,2,0,B|272:192,1,70,0|2
216,184,510071,2,0,B|189:254|216:328,1,140,0|4
288,320,510600,5,0
360,320,510776,1,0
216,64,511129,2,0,B|120:64,1,70,4|2
64,64,511482,1,0
448,64,511835,1,4
344,120,512100,5,0
344,120,512188,2,2,B|377:200|336:280,1,140
192,256,512894,1,0
192,176,513071,1,2
264,176,513247,1,0
264,256,513423,6,0,B|352:256,1,70,2|0
336,176,513776,1,2
416,176,513953,1,0
416,248,514129,2,0,B|416:336,1,70,2|0
338,318,514482,1,2
258,318,514659,2,0,B|146:318,1,105,0|0
152,320,515012,6,0,B|152:248,1,70,0|2
152,168,515365,2,0,B|222:133|304:176,1,140,0|0
360,192,515894,1,2
432,160,516071,1,0
432,240,516247,6,0,B|432:320,1,70,2|0
432,240,516600,1,2
360,240,516776,1,0
288,240,516953,2,0,C|288:328,1,70,2|0
288,240,517306,1,2
216,240,517482,6,0,B|216:360,1,105,0|0
216,344,517835,1,0
320,136,518188,2,0,B|320:24,1,105,0|0
320,32,518541,1,0
248,48,518718,1,0
176,64,518894,1,0
176,96,518982,1,0
176,128,519071,1,0
176,160,519159,1,0
176,160,519247,5,4
56,152,527718,5,0
96,312,528070,1,0
264,280,528423,1,0
224,112,528776,1,0
264,280,529129,1,0
96,312,529482,1,0
56,152,529835,2,0,B|112:96|200:112,2,140
96,312,530894,2,0,B|183:326|240:256,2,140,0|0|0
152,144,531953,5,0
224,104,532129,1,0
256,192,532306,1,0
176,224,532482,1,0
152,144,532659,1,0
224,104,532835,1,0
288,224,533012,5,0
288,224,533100,1,0
288,224,533188,1,0
288,224,533276,1,0
288,224,533365,1,0
288,224,533453,1,0
288,224,533541,1,0
288,224,533629,1,0
288,224,533718,1,0
288,224,533806,1,0
288,224,533894,1,0
288,224,533982,1,0
288,224,534070,1,0
256,192,534159,12,0,535129
256,312,535394,5,0
256,312,535482,1,0
256,312,535570,1,0
256,240,535747,1,0
256,208,535835,1,0
256,176,535923,1,0
256,136,536012,1,0
256,104,536100,1,0
256,72,536188,6,0,B|191:120|200:200,1,140,4|0
200,280,536718,2,0,C|128:304,1,70,2|0
368,64,537423,5,2
368,64,537512,1,0
368,64,537600,2,0,C|288:64,1,70,0|2
211,64,537953,2,0,C|131:64,1,70,0|2
139,64,538306,1,0
136,320,538835,5,2
216,320,539012,1,0
296,320,539188,1,2
296,232,539365,1,0
216,232,539541,1,2
216,232,539629,2,0,B|190:175|224:112,1,105,0|2
240,48,540070,1,0
312,96,540247,5,2
312,96,540335,1,0
312,96,540423,2,0,C|232:160,1,70,0|2
312,96,540776,1,0
320,168,540953,2,0,C|368:232,1,70,2|0
320,168,541306,1,2
288,232,541482,2,0,B|214:262|216:344,1,140,0|0
64,192,542365,5,2
64,192,542541,1,0
448,192,543070,5,2
448,192,543159,2,0,B|473:127|432:64,1,105,0|2
424,24,543600,2,0,B|320:24,1,70,0|2
352,24,543953,1,0
168,128,544482,5,2
168,128,544659,1,0
296,296,545188,5,2
296,296,545365,1,0
40,344,545718,6,0,B|88:360|152:328,1,105,0|0
142,332,546070,2,0,B|160:256,1,70,0|2
88,288,546423,2,0,B|0:256,1,70,0|2
80,224,546776,2,0,B|128:152,1,70,0|2
144,232,547129,2,0,B|216:264,1,70,0|2
280,296,547482,5,0
320,224,547659,1,2
248,184,547835,1,8
208,256,548012,1,2
280,296,548188,1,0
320,224,548365,1,2
248,184,548541,1,8
176,144,548718,5,2
176,144,548806,2,0,B|120:256,1,105,0|2
88,312,549247,2,0,B|176:336,1,70,8|2
240,312,549600,2,0,B|312:288,1,70,0|2
384,264,549953,2,0,B|360:192,1,70,8|2
328,120,550306,5,0
248,144,550482,1,2
280,224,550659,1,8
360,200,550835,1,2
328,120,551012,1,0
248,144,551188,1,2
280,224,551365,1,8
360,200,551541,5,2
360,200,551629,1,0
360,200,551718,2,0,B|448:200,1,70,0|2
344,200,552070,1,8
256,200,552247,2,0,B|256:280,1,70,2|0
176,232,552600,2,0,B|176:144,1,70,2|8
176,248,552953,1,2
176,328,553129,6,0,B|256:336,1,70,0|2
160,328,553482,1,8
72,320,553659,1,2
72,320,553747,1,0
72,320,553835,2,0,B|56:240,1,70,0|2
40,168,554188,1,8
80,96,554365,5,2
80,96,554453,2,0,B|135:71|208:104,1,105,0|2
264,120,554894,1,8
208,184,555070,2,0,B|288:224,1,70,2|0
208,272,555423,1,2
208,352,555600,2,0,B|128:320,1,70,8|2
64,288,555953,5,0
128,232,556129,2,0,B|192:184,1,70,2|8
248,136,556482,2,0,B|328:144,1,70,2|0
400,152,556835,2,0,B|392:232,1,70,2|8
402,137,557188,1,2
408,48,557365,5,0
320,48,557541,1,2
232,48,557718,1,8
144,48,557894,1,2
56,48,558070,1,0
72,128,558247,1,2
96,208,558423,1,8
104,240,558512,1,0
112,272,558600,1,2
120,304,558688,1,0
128,336,558776,6,0,B|208:304|248:232|256:168,1,210,0|0
256,176,559482,1,0
144,48,559835,1,8
224,48,560012,1,0
224,48,560100,2,0,B|344:48,1,105
344,128,560541,2,0,B|192:128,1,140,8|0
32,128,561247,6,0,B|14:184|40:240,1,105,8|0
36,231,561600,2,0,B|132:223,1,70
192,216,561953,2,0,B|192:288,1,70,8|0
192,368,562306,2,0,B|104:384,1,70,0|0
40,368,562659,2,0,B|8:293|48:224,1,140,8|0
208,200,563365,2,0,B|240:275|200:344,1,140,8|0
204,336,564070,1,8
368,336,564423,5,0
368,336,564776,2,0,B|348:268|376:184,2,140,8|0|8
472,264,565747,1,0
472,264,565835,2,0,B|495:191|456:120,1,140,0|8
296,152,566541,2,0,B|273:225|312:296,1,140,0|8
448,192,567247,5,0
280,192,567600,1,8
280,192,567688,1,0
192,192,567865,2,0,B|192:272|192:304,1,105
104,296,568306,1,8
104,296,568394,1,0
104,208,568570,2,0,B|104:80,1,105,0|0
184,80,569012,2,0,B|251:45|328:80,2,140,8|0|8
112,120,569894,1,0
176,168,570070,5,0
256,168,570247,1,2
336,168,570423,1,8
256,168,570600,1,2
344,336,570953,1,2
256,336,571129,1,8
168,336,571306,1,2
168,48,571659,1,2
256,48,571835,1,8
344,48,572012,1,2
424,192,572365,5,2
336,192,572541,1,8
248,192,572718,1,2
160,192,572894,2,0,B|120:272,1,70,0|0
128,256,573247,1,8
88,328,573423,5,2
88,328,573512,1,0
88,328,573600,1,0
168,352,573776,2,0,B|176:264,1,70,2|8
176,200,574129,1,2
176,200,574218,1,0
176,200,574306,6,0,B|248:176,1,70,0|2
304,232,574659,2,0,B|232:256,1,70,8|2
296,312,575012,2,0,B|376:288,1,70,0|2
280,320,575365,1,8
200,344,575541,1,2
184,264,575718,6,0,B|168:176,1,70,0|2
152,112,576070,5,8
152,112,576159,1,0
232,96,576335,2,0,B|344:80,1,105,0|2
416,64,576776,1,8
416,64,576865,1,0
432,144,577041,6,0,B|464:280,1,105,0|2
472,328,577482,1,8
440,328,577570,1,0
408,328,577659,1,2
376,328,577747,1,0
344,328,577835,2,0,B|248:328,1,70,0|2
272,328,578100,1,0
272,328,578188,1,8
224,256,578365,5,2
224,256,578453,1,0
224,256,578541,1,0
280,192,578718,1,2
280,192,578806,1,0
280,192,578894,1,8
224,128,579070,1,2
224,128,579159,1,0
224,128,579247,1,0
280,64,579423,1,2
280,64,579512,1,0
280,64,579600,1,8
280,64,579688,5,0
256,192,579865,12,4,581365
96,80,581718,6,0,B|184:80,1,70,2|0
336,80,582247,1,0
464,192,582600,1,0
336,304,582953,1,0
256,304,583129,2,0,B|136:304,1,70,2|0
16,312,583659,1,0
128,192,584012,1,2
208,192,584188,6,0,B|288:192,1,70,0|2
424,104,584718,1,2
424,280,585070,1,2
424,104,585423,1,2
336,104,585600,2,0,B|248:104,1,70,0|2
264,104,586129,1,2
136,88,586482,1,2
88,104,586659,1,0
56,144,586835,1,0
48,192,587012,2,0,B|144:192,1,70,2|0
288,192,587541,5,0
288,192,587894,1,0
440,272,588247,1,0
360,272,588423,2,0,B|288:272,1,70,2|0
120,272,588953,1,0
120,272,589306,1,0
256,368,589659,1,0
256,288,589835,2,0,B|256:200,1,70,2|0
256,48,590365,1,0
256,48,590718,1,0
88,144,591070,5,2
88,144,591247,1,2
256,144,591600,1,2
384,144,591865,1,2
384,144,591953,1,2
440,208,592129,1,2
384,272,592306,1,2
328,208,592482,1,0
328,208,592570,1,0
328,208,592659,1,4
64,64,623718,6,0,B|224:64,1,140
376,192,624423,2,0,B|224:192,1,140
64,320,625129,1,0
136,320,625306,1,0
208,320,625482,1,0
352,320,625835,2,0,B|440:312|488:248,1,140
488,120,626541,6,0,B|336:120,1,140
176,256,627247,2,0,B|336:256,1,140
440,192,627953,1,0
368,192,628129,1,0
296,192,628306,1,0
224,192,628482,2,0,B|120:192|96:112,1,140
80,64,629012,1,0
256,40,629365,5,0
422,136,629717,1,0
322,309,630070,1,0
156,213,630423,1,0
48,40,630776,2,0,B|140:40|200:104,1,140
312,112,631482,2,0,B|274:155|181:155,1,140
256,40,632188,5,0
90,136,632540,1,0
190,309,632893,1,0
356,213,633246,1,0
440,72,633600,2,0,B|440:224,1,140
440,336,634306,1,0
328,336,634570,1,0
328,336,634659,1,0
328,336,634747,1,0
328,336,634835,1,0
328,336,634923,1,0
328,336,635012,1,4
256,32,640497,5,0
56,192,640840,1,0
256,352,641183,1,0
456,192,641526,1,0
120,72,641869,2,0,B|424:72,1,280,0|0
392,312,642554,2,0,B|88:312,1,280
384,72,643240,5,0
384,312,643583,1,0
104,312,643926,1,0
104,72,644269,1,0
384,312,644612,2,0,B|80:312,1,280
104,72,645297,6,0,B|408:72,1,280
464,344,645983,6,0,B|464:256,1,70,4|2
392,280,646326,2,0,B|296:288,1,70,0|2
296,216,646669,2,0,B|280:136,1,70,0|2
352,144,647012,2,0,B|440:144,1,70,0|2
408,208,647354,2,0,B|384:296,1,70,0|2
320,288,647697,2,0,B|224:296,1,70,0|2
176,296,648040,2,0,B|160:216,1,70,0|2
88,224,648383,2,0,B|0:224,1,70,0|2
0,152,648726,5,0
72,152,648897,1,2
144,152,649069,1,0
216,152,649240,1,2
288,152,649412,1,0
360,152,649583,1,2
432,152,649754,1,0
504,152,649926,1,2
512,232,650097,5,0
440,232,650269,1,2
368,232,650440,1,0
296,232,650612,1,2
224,232,650783,1,0
152,232,650954,1,2
80,232,651126,1,0
8,232,651297,1,2
64,272,651469,6,0,B|136:312,1,70,0|2
192,328,651812,1,0
192,256,651983,1,2
232,200,652154,2,0,B|272:128,1,70,0|2
296,72,652497,1,0
368,64,652669,1,2
400,128,652840,2,0,B|440:208,1,70,0|2
376,232,653183,2,0,B|304:288,1,70,0|2
256,312,653526,2,0,B|184:272,1,70,0|2
232,216,653869,2,0,B|272:144,1,70,0|2
304,96,654212,5,0
408,192,654554,1,0
312,296,654897,1,0
208,200,655240,1,0
128,88,655583,1,0
24,184,655926,1,0
104,296,656269,1,0
208,200,656612,1,0
208,200,656783,1,0
208,200,656954,6,2,B|276:153|368:208,1,140,6|2
408,224,657469,1,0
344,264,657640,2,2,B|276:311|184:256,1,140,2|2
144,296,658154,1,0
96,240,658326,2,2,B|34:176|96:80,1,140,2|2
112,48,658840,1,0
168,88,659012,2,10,B|224:151|176:248,1,140,2|2
248,256,659526,1,0
296,208,659697,2,2,B|234:144|296:48,3,140,2|2|2|2
312,16,660897,1,0
368,56,661069,2,2,B|424:119|376:216,1,140,2|2
144,328,661754,2,2,B|88:265|136:168,1,140,2|2
368,56,662440,6,0,B|456:64,1,70,4|2
448,128,662783,2,0,B|464:208,1,70,0|2
396,196,663126,2,2,B|228:188,1,140,0|0
256,188,663640,1,2
240,256,663812,2,0,B|224:328,1,70,0|2
167,279,664154,2,0,B|103:223,1,70,0|2
56,192,664497,2,2,B|176:96,1,140,0|0
166,106,665012,1,2
224,144,665183,2,0,C|240:178|228:211|243:249|224:280,3,140,2|2|2|2
184,320,666383,1,0
248,352,666554,5,2
464,192,666897,1,0
264,32,667240,1,2
48,192,667583,1,0
256,192,667926,5,4
248,360,673412,6,0,B|104:360,1,140
256,24,674097,2,0,B|424:24,1,140
184,192,674783,2,0,B|344:192,3,140
256,344,676154,1,0
256,40,676497,1,0
464,192,676840,1,0
48,192,677183,1,0
152,192,677440,5,0
152,192,677526,1,0
288,192,677869,1,0
344,280,678126,5,0
344,280,678212,1,0
272,280,678383,1,0
200,280,678554,1,0
128,280,678726,1,0
128,280,678812,1,0
256,192,678897,12,0,679583
256,88,680269,5,0
352,192,680440,1,2
256,296,680612,1,0
160,192,680783,1,2
56,48,681126,2,0,B|128:48,1,70,2|0
136,120,681469,2,0,B|144:216,1,70,2|0
160,256,681812,2,0,B|80:272,1,70,2|0
92,269,682154,1,2
24,280,682326,2,4,B|-4:210|32:128,1,140,4|4
360,64,683012,6,0,B|416:120,1,70,0|2
360,160,683354,1,0
408,208,683526,1,2
256,320,683869,2,0,B|176:336,1,70,2|0
188,335,684212,1,2
112,320,684383,1,2
400,64,684726,1,2
400,320,685069,1,2
112,64,685412,2,0,B|200:64,1,70,2|0
152,128,685754,5,2
184,192,685926,2,0,B|88:192,2,70,2|0|2
472,192,686612,2,0,B|472:288,1,70,2|0
400,264,686954,1,2
328,264,687126,1,0
256,264,687297,1,2
184,264,687469,1,0
112,264,687640,1,2
40,264,687812,2,0,B|40:168,3,70,0|2|0|2
106,164,688497,6,0,B|171:123|250:172,1,140,0|0
240,165,689012,1,2
440,344,689354,1,2
400,280,689526,1,0
368,344,689697,1,2
328,280,689869,1,0
256,280,690040,1,2
288,344,690212,1,0
216,344,690383,1,2
184,280,690554,1,0
144,344,690726,1,2
112,280,690897,1,0
72,344,691069,1,2
64,272,691240,6,0,B|56:192,3,70,4|2|0|2
256,312,692097,2,0,B|344:336,1,70,2|0
323,331,692440,1,2
320,256,692612,2,0,B|320:176,1,70,0|2
248,184,692954,2,0,B|168:184,1,70,0|2
104,184,693297,2,2,B|69:260|104:344,2,140,2|2|4
144,24,694326,5,0
144,24,694497,1,2
256,120,694840,1,2
256,192,695012,1,0
256,264,695183,1,2
256,336,695354,1,4
464,192,695697,1,4
48,192,696040,1,4
256,32,696383,5,4
208,88,696554,1,2
256,144,696726,1,4
312,192,696897,1,2
368,240,697069,1,0
416,288,697240,1,2
256,352,697583,1,2
304,296,697754,1,0
256,240,697926,1,2
200,192,698097,1,0
144,144,698269,1,2
96,96,698440,1,0
40,48,698612,1,2
40,48,698783,1,4
256,48,699126,1,4
472,48,699469,5,4
384,192,699812,2,0,B|280:200,1,70,0|2
144,208,700326,1,2
144,280,700497,1,0
144,352,700669,1,2
72,352,700840,1,4
72,48,701183,1,4
440,48,701526,2,0,B|440:160,1,105,4|0
443,155,701869,1,4
376,128,702040,1,0
376,128,702126,1,0
376,128,702212,6,0,B|320:192,1,70,0|2
280,232,702554,2,0,B|336:280,1,70,8|2
392,312,702897,2,0,B|440:248,1,70,0|2
472,200,703240,2,0,B|400:152,1,70,8|2
352,128,703583,2,0,B|304:192,1,70,0|2
272,248,703926,2,0,B|336:288,1,70,8|2
392,312,704269,2,4,B|441:239|392:152,1,140,4|12
64,48,704954,6,0,B|112:120,1,70,0|2
112,176,705297,2,0,B|64:104,1,70,8|2
66,260,705812,2,0,B|106:324,1,70,2|8
103,318,706154,1,2
136,256,706326,2,4,B|181:184|120:96,1,140,4|12
376,256,707012,2,4,B|331:184|392:96,1,140,4|12
472,40,707697,5,0
400,40,707869,1,2
328,40,708040,1,8
256,40,708212,1,2
280,104,708383,2,0,B|304:184,1,70,0|2
320,240,708726,2,0,B|232:272,1,70,8|2
184,280,709069,2,0,B|184:376,1,70,0|2
112,352,709412,2,0,B|32:352,1,70,8|2
16,288,709754,2,4,B|-19:225|24:136,1,140,4|12
264,144,710440,6,0,B|312:216,1,70,0|2
240,240,710783,2,0,B|192:168,1,70,8|2
256,192,711297,12,4,713183
144,144,718669,5,0
200,304,719012,1,8
360,248,719354,1,0
304,88,719697,1,8
144,144,720040,1,0
200,304,720383,1,8
360,248,720726,1,0
304,88,721069,1,8
184,296,721412,6,0,B|344:296,1,140,0|8
320,88,722012,1,0
320,88,722097,2,0,B|248:96,1,70,0|0
185,104,722440,2,0,B|177:184,1,70,8|0
181,176,722697,1,0
256,192,722783,12,4,724154
256,192,724669,5,0
94,296,725354,1,0
96,296,725697,1,0
96,296,725869,1,0
256,192,726554,5,0
96,72,726897,1,0
416,72,727412,1,0
256,336,728097,5,0
392,336,728440,1,0
392,192,728783,1,0
256,192,729126,1,0
256,192,729297,1,0
112,192,729640,5,0
112,48,729983,1,8
184,48,730154,1,0
256,48,730326,1,8
256,256,730840,5,0
392,256,731183,1,0
464,256,731354,1,0
464,112,731697,1,8
320,112,732040,5,0
176,112,732383,1,0
32,112,732726,1,8
32,184,732897,1,0
32,256,733069,1,8
480,256,733412,5,8
480,184,733583,1,0
336,184,733926,1,0
256,296,734269,1,0
256,224,734440,1,8
256,152,734612,1,0
256,80,734783,1,0
120,112,735126,6,0,B|-28:143|64:264,1,210,4|0
184,192,735983,1,0
184,192,736154,1,2
256,192,736326,1,0
256,192,736497,1,0
328,192,736669,1,0
328,192,736840,1,2
400,192,737012,1,0
400,192,737183,2,2,B|496:272|461:365|296:344,1,280,2|2
64,336,738212,5,2
64,336,738383,1,2
64,48,738726,1,0
136,48,738897,1,2
208,48,739069,1,0
280,48,739240,2,0,B|280:136,1,70,2|0
208,120,739583,2,0,B|208:200,1,70,2|0
280,192,739926,2,0,B|280:280,1,70,2|0
208,264,740269,2,0,B|180:192|216:112,1,140,0|0
208,128,741126,5,0
296,128,741812,2,0,B|315:201|288:288,1,140,0|0
296,264,742326,1,0
256,368,742669,1,8
256,32,743012,1,0
64,288,743354,2,0,B|20:188|72:64,1,210,0|0
448,128,744554,5,0
448,128,744726,2,0,B|478:196|440:288,1,140
344,264,745326,1,0
344,264,745412,1,0
272,264,745583,1,0
288,192,745754,1,0
256,192,745840,1,0
224,192,745926,1,0
192,192,746012,1,0
160,192,746097,6,0,B|160:272,1,70,0|2
160,344,746440,2,0,B|232:344,1,70,8|2
312,344,746783,2,0,B|312:264,1,70,0|2
312,192,747126,2,0,B|232:192,1,70,8|2
160,192,747469,2,0,B|160:280,1,70,0|2
160,344,747812,2,0,B|240:344,1,70,8|2
312,344,748154,2,4,B|346:275|312:200,1,140,4|12
200,40,748840,6,0,B|166:109|200:184,1,140,2|10
256,112,749354,2,0,B|301:181|248:264,1,140,2|2
200,312,749869,2,0,B|112:312,1,70,8|2
88,240,750212,2,0,B|248:240,1,140,2|8
424,144,750897,2,0,B|264:144,1,140,2|8
392,344,751583,5,0
304,344,751754,1,2
216,344,751926,1,8
128,344,752097,1,2
128,40,752440,2,0,B|208:40,1,70,2|8
200,40,752783,1,2
284,40,752954,2,0,B|260:128,1,70,0|2
266,109,753297,1,8
280,192,753469,2,0,B|296:280,1,70,2|4
48,304,753983,1,12
114,58,754326,2,0,B|188:35|266:66,1,140,0|8
252,62,754840,1,0
256,192,755183,12,4,757069
56,192,762554,5,0
192,192,762897,5,8
328,192,763240,1,0
464,192,763583,1,8
400,32,763926,2,0,B|112:32,1,280,0|8
120,352,764612,2,0,B|416:352,1,280,0|8
488,192,765297,5,0
344,192,765640,2,0,B|232:192,1,105,8|0
240,191,765983,1,0
168,192,766154,1,0
96,192,766326,1,8
24,192,766497,1,0
24,192,766583,1,0
256,192,766669,12,0,768040
360,288,768383,5,8
256,192,768726,5,0
160,88,769069,5,8
88,136,769240,1,2
152,192,769412,1,0
80,240,769583,1,2
144,296,769754,1,8
200,352,769926,2,0,B|264:312,1,70,2|0
328,264,770269,1,2
264,200,770440,1,8
328,144,770612,1,2
256,96,770783,6,0,B|168:40,1,70,0|2
136,120,771126,1,8
200,176,771297,1,2
136,224,771469,2,0,B|136:304,1,70,0|2
216,296,771812,1,8
296,296,771983,1,2
376,296,772154,2,0,B|376:216,1,70,0|2
296,224,772497,1,8
216,224,772669,1,2
136,224,772840,2,0,B|136:144,1,70,0|2
216,160,773183,1,8
296,160,773354,1,2
376,160,773526,6,0,B|401:234|368:312,2,140,4|8|0
344,80,774383,1,2
256,80,774554,1,8
168,80,774726,1,2
168,80,774812,1,0
168,80,774897,2,0,B|128:144,1,70,0|2
80,208,775240,1,8
80,208,775326,1,0
80,208,775412,2,0,B|177:241|312:208,1,210,2|8
368,192,776097,5,2
368,192,776183,1,0
368,192,776269,1,0
296,144,776440,1,2
296,144,776526,1,0
296,144,776612,1,8
208,144,776783,1,2
208,144,776869,1,0
208,144,776954,1,0
136,192,777126,5,2
136,192,777212,1,0
136,192,777297,1,8
104,272,777469,1,2
104,272,777554,1,0
104,272,777640,2,0,B|160:336,1,70,0|2
232,328,777983,1,8
304,280,778154,1,2
304,280,778240,2,0,B|263:192|312:104,1,175,0|8
144,88,779012,6,0,B|256:133|182:294|304:320,1,280,4|0
368,336,779869,1,2
440,296,780040,1,8
440,208,780212,1,2
376,152,780383,1,0
296,184,780554,1,2
280,264,780726,1,8
360,248,780897,1,2
360,248,780983,1,0
360,248,781069,1,0
272,248,781240,5,2
184,248,781412,1,8
96,248,781583,1,2
96,248,781669,1,0
96,248,781754,2,0,B|164:292|232:250|297:205|384:272,1,280
424,200,782612,1,2
368,136,782783,1,8
424,72,782954,1,2
352,24,783126,2,0,B|264:32,1,70,0|2
200,40,783469,2,0,B|208:128,1,70,8|2
288,104,783812,2,0,B|296:192,2,70,0|2|8
216,152,784326,5,2
216,152,784412,1,0
216,152,784497,2,0,B|150:346|360:328,1,280
344,240,785354,2,0,B|344:160,1,70,2|8
344,88,785697,2,0,B|274:56|192:96,1,140,2|2
128,120,786212,1,8
48,152,786383,1,2
48,152,786469,2,0,B|34:209|56:264,1,105,0|2
131,286,786897,2,0,B|227:302,1,70,8|2
200,296,787154,2,0,B|208:176,1,105,0|2
208,104,787583,5,8
288,96,787754,1,2
392,112,787926,1,0
392,112,788012,1,0
392,112,788097,1,2
392,112,788183,1,0
392,112,788269,1,8
392,112,788354,1,0
392,112,788440,1,2
392,112,788526,1,0
392,112,788612,1,0
256,192,788697,12,0,789983
128,48,820926,5,6
206,77,821113,1,0
238,154,821301,1,2
70,154,821676,5,2
88,235,821863,1,0
154,286,822051,1,2
258,154,822426,5,2
313,91,822613,1,0
397,90,822801,1,2
446,157,822988,1,0
430,239,823176,1,2
353,273,823363,1,0
274,241,823551,1,2
147,130,823926,5,2
82,183,824113,1,0
82,267,824301,1,2
233,338,824676,5,2
308,301,824863,1,0
309,216,825051,1,2
304,48,825426,5,2
220,47,825613,1,0
171,114,825801,1,2
187,196,825988,1,0
264,230,826176,1,2
343,198,826363,1,0
359,111,826551,1,2
194,75,826926,6,0,B|127:71|116:124,1,70,2|0
193,178,827301,1,2
193,178,827394,2,0,B|245:172|277:224,1,70,0|2
256,200,827676,2,0,B|228:240|261:298,2,70,2|0|2
432,88,828426,6,0,B|455:121|436:182,1,70
360,216,828801,1,2
360,216,828894,1,0
280,152,829082,1,0
280,152,829176,1,0
176,152,829363,2,0,B|96:152,2,70
256,64,829926,5,4
256,64,830113,1,0
408,272,830676,5,2
432,192,830863,1,2
408,112,831051,1,8
256,192,831426,1,4
104,272,831801,5,2
80,192,831988,1,2
104,112,832176,1,8
256,192,832551,1,4
384,296,832926,6,0,L|384:216,1,70,2|2
384,144,833301,1,8
384,144,833394,1,0
320,88,833582,1,0
320,88,833676,1,4
232,88,833863,2,0,L|144:88,2,70,0|2|2
280,160,834426,5,8
160,40,834801,1,4
40,160,835176,5,2
97,220,835363,1,2
159,276,835551,1,8
40,160,835926,1,4
208,160,836301,5,2
272,104,836488,1,2
328,40,836676,1,8
208,160,837051,1,4
320,288,837426,5,2
376,224,837613,1,0
320,160,837801,5,2
320,160,837894,1,2
320,160,837988,1,2
256,104,838176,6,0,L|200:64|120:120,1,140,2|2
80,160,838738,5,2
80,240,838926,1,8
80,72,839301,1,4
248,64,839676,5,2
328,64,839863,1,2
408,64,840051,1,8
248,64,840426,1,4
248,232,840801,6,0,L|328:232,1,70,2|0
400,232,841176,2,2,L|456:232,2,35,10|0|2
352,160,841551,1,6
296,96,841738,6,0,L|232:40,1,70,2|2
160,64,842113,2,0,L|128:152,1,70,0|10
192,184,842488,2,0,L|288:160,1,70,0|6
320,224,842863,2,0,L|296:296,1,70,0|0
216,304,843238,2,0,L|152:256,2,70,0|8|2
336,80,844176,5,2
248,80,844363,1,2
160,80,844551,1,8
336,80,844926,1,4
184,152,845301,5,2
256,192,845488,1,2
328,232,845676,2,0,L|384:264,2,35,10|0|2
328,152,846051,1,6
256,104,846238,1,0
184,152,846426,1,2
192,232,846613,2,0,L|152:256,2,35,2|0|10
368,264,847926,5,0
304,320,848113,1,0
224,280,848301,1,8
216,192,848488,1,0
280,136,848676,1,0
360,168,848863,1,0
296,224,849051,5,8
216,192,849238,1,0
224,104,849426,1,0
296,56,849613,1,0
368,88,849801,1,8
368,168,849988,1,0
288,136,850176,5,0
224,80,850363,1,0
152,120,850551,1,8
128,200,850738,1,0
192,256,850926,1,0
272,224,851113,1,0
208,168,851301,5,8
128,200,851488,1,0
120,280,851676,1,0
184,336,851863,1,0
264,312,852051,1,8
272,224,852238,1,0
192,256,852426,6,0,B|256:296,1,70,4|0
296,200,852801,2,0,B|384:160,1,70,8|0
288,96,853176,2,0,B|296:0,1,70
192,56,853551,2,0,B|112:16,1,70,8|0
112,128,853926,2,0,B|24:152,1,70
96,240,854301,2,0,B|32:320,1,70,8|0
136,360,854676,5,0
216,296,854863,1,0
152,208,855051,1,8
72,272,855238,1,0
136,360,855426,1,0
216,296,855613,1,0
296,232,855801,5,8
384,176,855988,1,0
320,96,856176,1,0
232,152,856363,1,0
296,232,856551,1,8
384,176,856738,1,0
320,96,856926,6,0,C|240:96,1,70,4|0
288,192,857301,2,0,C|376:192,1,70,8|0
328,288,857676,2,0,C|232:288,1,70
64,288,858051,2,0,C|144:288,1,70,8|0
96,192,858426,2,0,C|8:192,1,70
56,96,858801,2,0,C|152:96,1,70,8|0
232,96,859176,5,0
328,128,859363,1,0
344,232,859551,1,8
272,312,859738,1,0
176,272,859926,1,0
160,168,860113,1,0
232,96,860301,5,8
328,128,860488,1,0
344,232,860676,1,0
272,312,860863,1,0
176,272,861051,1,8
160,168,861238,1,0
256,200,861426,6,0,C|272:280,1,70
160,264,861801,2,0,C|72:288,1,70,8|0
96,176,862176,2,0,C|72:80,1,70
184,112,862551,2,0,C|272:80,1,70,8|0
256,192,862926,2,0,C|296:272,1,70
360,184,863301,2,0,C|448:144,1,70,8|0
344,80,863676,6,0,C|312:8,1,70
240,88,864051,2,0,C|160:120,1,70,8|0
248,184,864426,2,0,C|288:256,1,70
176,264,864801,2,0,C|88:320,1,70,8|0
88,200,865176,2,0,C|48:136,2,70
464,176,865926,6,0,B|482:268|408:328,1,140,4|0
328,208,866676,1,0
192,240,867051,2,0,B|174:148|248:88,1,140,2|0
328,208,867801,1,0
192,176,868176,6,0,B|174:268|248:328,1,140,0|0
328,208,868926,1,0
464,240,869301,2,0,B|482:148|408:88,1,140,0|0
328,208,870051,2,0,B|176:208,1,140,0|4
48,40,870801,6,0,B|208:40,1,140,0|0
456,352,871551,2,0,B|304:352,2,140,2|0|0
168,176,872676,2,0,B|344:176,1,140,0|0
80,304,873426,5,0
432,80,873801,1,0
80,80,874176,1,0
432,304,874551,1,0
480,200,874926,5,4
256,200,875301,1,8
32,200,875676,1,0
96,352,876051,5,8
176,352,876238,1,0
256,352,876426,1,0
336,352,876613,1,0
416,352,876801,1,8
480,184,877176,5,0
256,184,877551,1,8
32,184,877926,1,0
96,32,878301,5,8
176,32,878488,1,0
256,32,878676,1,0
336,32,878863,1,0
416,32,879051,1,8
416,288,879426,6,0,C|400:368,1,70
320,288,879801,2,0,C|304:368,1,70,8|0
224,288,880176,2,0,C|208:368,1,70,0|0
304,96,880551,6,0,C|288:16,1,70,8|0
208,96,880926,2,0,C|192:16,1,70,0|0
112,96,881301,2,0,C|96:16,1,70,8|0
48,288,881676,6,0,C|64:368,1,70,0|0
144,288,882051,2,0,C|160:368,1,70,8|0
240,288,882426,2,0,C|256:368,1,70
256,96,882801,6,0,C|272:16,1,70,8|0
352,96,883176,2,0,C|368:16,2,70
464,336,883926,5,4
392,288,884113,1,2
320,336,884301,1,8
248,288,884488,1,2
184,336,884676,1,0
112,288,884863,1,2
40,336,885051,5,8
112,288,885238,1,2
72,208,885426,1,0
0,256,885613,1,2
40,336,885801,1,8
112,288,885988,1,2
72,208,886176,5,0
128,144,886363,1,2
80,72,886551,1,8
152,32,886738,1,2
200,104,886926,1,0
128,144,887113,1,2
200,104,887301,5,8
240,176,887488,1,2
280,248,887676,1,0
352,208,887863,1,2
312,128,888051,1,8
240,176,888238,1,2
168,216,888426,6,0,B|152:304,1,70,4|2
240,264,888801,2,0,B|296:336,1,70,8|2
320,240,889176,2,2,B|400:248,1,70,0|0
360,168,889551,2,0,B|432:104,1,70,8|2
336,88,889926,2,0,B|328:16,1,70,0|2
256,64,890301,2,0,B|160:24,1,70,8|2
256,160,890676,6,0,B|344:184,1,70,0|2
272,272,891051,2,0,B|288:352,1,70,8|2
184,328,891426,2,0,B|104:384,1,70,0|2
88,272,891801,2,0,B|16:272,1,70,8|2
56,176,892176,2,0,B|16:112,1,70,0|2
120,88,892551,2,0,B|144:8,1,70,8|2
280,24,892926,5,0
368,80,893113,1,2
384,184,893301,1,8
304,248,893488,1,2
208,200,893676,1,0
192,96,893863,1,2
288,136,894051,5,8
192,168,894238,1,2
152,264,894426,1,0
216,344,894613,1,2
320,320,894801,1,8
352,224,894988,1,2
248,248,895176,5,0
144,272,895363,1,2
72,192,895551,1,8
88,88,895738,1,2
192,72,895926,1,0
264,144,896113,1,2
248,248,896301,5,8
288,344,896488,1,2
392,368,896676,1,0
472,304,896863,1,2
432,208,897051,1,8
328,184,897238,1,2
208,88,897426,5,4
104,112,897613,1,2
48,200,897801,1,0
72,304,897988,1,2
152,368,898176,1,0
256,368,898363,1,2
344,312,898551,1,4
368,208,898738,1,2
312,120,898926,1,0
216,160,899113,1,2
272,248,899301,1,0
368,208,899488,1,2
256,192,899676,12,0,901738
