osu file format v5

[General]
AudioFilename: VISTA.mp3
AudioLeadIn: 0
PreviewTime: -1
Countdown: 1
SampleSet: Normal
StackLeniency: 0.7
Mode: 0

[Metadata]
Title:VISTA
Artist:Going Under Ground
Creator:Saturio
Version:Normal

[Difficulty]
HPDrainRate:4
CircleSize:6
OverallDifficulty:4
SliderMultiplier:1
SliderTickRate:2

[Events]
//Background and Video events
//Break Periods
2,37604,47654
2,74014,85114
2,112864,122574
//Storyboard Layer 0 (Background)
//Storyboard Layer 1 (Failing)
//Storyboard Layer 2 (Passing)
//Storyboard Layer 3 (Foreground)
//Storyboard Sound Samples
//Background Colour Transformations
3,100,163,162,255

[TimingPoints]
1536,346.820809248555,4,1,1,100

[HitObjects]
448,128,16796,5,0
352,32,17142,1,0
256,96,17489,2,0,B|224:64|192:64|160:64|96:96,1,150
160,240,18530,2,0,B|223:190|255:187|320:187|359:196|358:196|400:224,1,250
64,320,20611,5,0
64,160,20957,1,0
224,64,21651,1,0
392,72,22345,6,0,B|448:96|480:128|480:192,1,150
288,232,23732,2,0,B|352:256|384:288|384:344,1,150
64,320,25119,5,0
160,128,25640,1,0
224,224,25986,1,0
288,128,26333,1,0
352,224,26680,1,0
64,128,27894,5,0
160,32,28241,1,0
256,96,28588,2,0,B|288:64|320:64|352:64|416:96,1,150
352,224,29628,2,0,B|288:192|256:175|191:180|173:212|163:191|115:235,1,250
448,320,31709,5,0
448,160,32056,1,0
288,64,32749,1,4
128,64,33443,6,2,B|64:96|32:128|32:192,1,150
224,224,34830,2,2,B|160:256|128:288|128:352,1,150
352,256,35871,5,0
480,256,36218,1,6
352,96,36738,1,6
256,192,37085,1,2
160,96,37431,1,6
480,96,49397,6,2,B|448:32|256:32|192:96,1,300
128,64,50784,1,2
64,192,51304,1,2
64,320,51825,1,2
160,320,52171,2,2,B|224:352|288:352|368:320,1,200
448,320,53212,5,0
448,192,53559,1,4
448,64,53905,1,0
352,120,54252,1,4
256,160,54599,1,4
256,256,54946,5,6
160,160,55466,1,2
64,256,55986,1,6
320,352,57027,5,2
384,288,57374,1,2
352,224,57720,2,2,B|320:256|256:256|192:256|144:224,1,200
96,288,58761,1,2
192,352,59108,1,2
256,160,59801,1,2
480,96,60495,6,2,B|448:32|256:32|192:96,1,300
128,64,61882,1,2
64,192,62403,1,2
64,320,62923,1,2
160,320,63270,2,2,B|224:352|288:352|368:320,1,200
448,320,64310,5,0
448,192,64657,1,4
448,64,65004,1,0
352,112,65351,1,4
256,160,65697,1,4
160,224,66044,5,4
32,224,66564,1,4
96,120,67085,2,4,B|119:78|146:48|192:24|224:24|256:24|296:47|320:88|320:120|320:152|320:224,1,387.5
256,192,68819,12,0,73675
304,64,86853,5,0
400,128,87200,1,0
496,192,87547,1,0
304,192,88067,1,0
208,192,88588,2,0,B|160:224|96:224|64:224|0:192,1,200
0,64,89628,5,0
208,64,90148,1,0
304,64,90668,2,0,B|352:32|416:32|448:32|512:64,1,200
496,192,91709,5,0
304,192,92229,1,0
208,192,92749,2,0,B|160:224|96:224|64:224|0:192,1,200
0,64,93790,5,0
208,64,94310,1,0
320,64,94830,2,0,B|352:32|416:32|448:32|512:64,1,200
416,128,95871,5,0
320,128,96218,1,0
320,224,96564,2,0,B|288:256|224:256|176:224,1,150
128,96,97605,1,0
224,96,97952,1,0
424,160,98472,6,0,B|379:275|347:339|283:371|219:371|155:339|96:152,1,525
64,96,100726,1,4
192,128,101420,1,4
288,160,101767,1,4
352,224,102114,6,2,B|286:264|222:262|152:224,2,200
480,128,104021,1,0
448,288,104541,1,0
352,320,104888,6,2,B|288:352|224:352|147:318,1,200
64,320,105929,5,0
64,192,106275,1,4
64,64,106622,1,0
160,112,106969,1,4
256,160,107316,1,4
256,256,107663,5,6
352,160,108183,1,2
448,256,108703,1,6
160,352,109744,5,0
92,287,110090,1,0
160,224,110437,2,2,B|256:256|255:251|352:216,2,187.5
256,32,112518,1,4
320,224,124310,6,0,B|288:256|224:256|177:223,2,150
256,160,125697,1,0
96,192,126218,1,0
64,320,126738,1,0
160,320,127085,2,2,B|224:352|288:352|368:320,1,200
448,320,128125,5,0
448,192,128472,1,4
448,64,128819,1,0
354,117,129166,1,4
256,160,129512,1,4
256,256,129859,6,4,B|224:256|192:224|160:192|160:144,2,150
320,224,131940,5,2
384,160,132287,1,2
352,96,132634,2,2,B|320:128|256:128|192:128|160:96,1,200
96,160,133674,1,2
192,224,134021,1,2
256,32,134715,1,2
200,232,135408,6,0,B|239:263|272:264|336:224,2,137.5
256,160,136796,1,0
416,192,137316,1,0
448,320,137836,1,0
368,320,138183,2,2,B|288:352|224:352|160:320,1,200
64,320,139223,5,0
64,192,139570,1,4
64,64,139917,1,0
160,112,140264,1,4
256,160,140611,1,4
352,224,140957,5,4
480,224,141478,1,4
416,120,141998,2,4,B|384:88|360:51|324:23|288:24|256:24|224:56|192:88|192:120|185:153|192:240,1,400
256,192,143732,12,0,148587
