osu file format v5

[General]
AudioFilename: VISTA.mp3
AudioLeadIn: 0
PreviewTime: -1
Countdown: 1
SampleSet: Normal
StackLeniency: 0.7
Mode: 0

[Metadata]
Title:VISTA
Artist:Going Under Ground
Creator:Saturio
Version:Easy

[Difficulty]
HPDrainRate:3
CircleSize:5
OverallDifficulty:3
SliderMultiplier:0.5
SliderTickRate:1

[Events]
//Background and Video events
//Break Periods
2,37844,47574
2,73934,84944
2,112864,122314
//Storyboard Layer 0 (Background)
//Storyboard Layer 1 (Failing)
//Storyboard Layer 2 (Passing)
//Storyboard Layer 3 (Foreground)
//Storyboard Sound Samples
//Background Colour Transformations
3,100,163,162,255

[TimingPoints]
1536,173.410404624277,4,1,1,100

[HitObjects]
480,192,16796,1,0
256,192,17489,1,0
32,192,18183,1,0
32,352,18877,2,0,C|256:352,1,200
480,320,20611,5,0
480,224,20957,1,0
480,96,21651,1,0
256,64,22345,5,4
256,320,23732,1,4
64,128,25120,2,4,C|480:128,1,400
64,192,27894,5,0
256,192,28588,1,0
448,192,29281,1,0
448,352,29975,2,4,C|224:352,1,200
32,352,31709,5,0
32,256,32056,1,4
32,96,32749,1,4
64,160,33443,6,4,B|238:224|480:160,3,400
448,96,49397,6,0,B|256:-26|64:96,2,400
64,192,53212,5,2
192,192,53559,1,2
320,192,53905,1,2
448,192,54252,1,2
416,352,54946,6,0,B|96:352,1,300
32,192,57720,5,4
192,192,58414,1,0
256,192,58761,1,0
320,192,59108,1,4
480,192,59801,1,4
448,96,60496,6,4,B|277:-22|64:96,2,400
64,192,64310,5,0
192,192,64657,1,4
320,192,65004,1,0
448,192,65351,1,4
256,352,66044,6,4,B|416:352,1,150
448,256,67085,2,4,B|32:256,1,400
256,192,68819,12,0,73674
32,64,86853,1,0
32,288,87547,2,4,B|544:288,1,500
512,192,89628,6,4,B|0:192,1,500
32,288,91709,6,4,B|544:288,1,500
512,192,93790,6,4,B|0:192,1,500
448,256,96564,6,2,B|144:256,1,300
64,256,97952,1,2
64,352,98645,6,6,B|480:352,1,400
128,160,100726,5,2
288,160,101420,1,2
384,160,101767,1,2
448,96,102114,6,4,B|256:-26|64:96,2,400
64,192,105929,5,2
192,192,106275,1,6
320,192,106622,1,2
448,192,106969,1,6
96,352,107663,6,6,B|416:352,1,300
480,192,110437,5,6
320,192,111131,1,2
256,192,111478,1,0
192,192,111825,1,6
32,192,112518,1,6
416,192,124310,6,0,B|96:192,1,300
128,96,125697,2,0,B|448:96,1,300
416,192,127085,6,0,B|96:192,1,300
32,192,128472,1,2
32,352,129166,1,2
192,352,129859,6,6,B|512:352,1,300
32,256,132634,5,6
192,256,133327,1,2
256,256,133674,1,2
320,256,134021,1,6
480,256,134715,1,6
416,192,135408,6,2,B|96:192,1,300
128,96,136795,2,2,B|448:96,1,300
416,192,138183,6,2,B|96:192,1,300
32,192,139570,1,6
32,352,140265,1,6
288,352,140957,6,6,B|448:352,1,150
480,192,141998,2,6,B|64:192,1,400
256,192,143905,12,0,148588
