osu file format v5

[General]
AudioFilename: 09. Start Wearing Purple.mp3
AudioLeadIn: 0
PreviewTime: -1
Countdown: 1
SampleSet: Normal
StackLeniency: 0.7
Mode: 0
LetterboxInBreaks: 1

[Metadata]
Title:Start Wearing Purple
Artist:Gogol Bordello
Creator:loserface
Version:Normal
Source:
Tags:

[Difficulty]
HPDrainRate:4
CircleSize:7
OverallDifficulty:5
SliderMultiplier:1.4
SliderTickRate:2

[Events]
//Background and Video events
0,0,"purple.jpg"
//Break Periods
2,50735,57850
2,127994,153749
2,184707,194146
2,205332,211911
//Storyboard Layer 0 (Background)
//Storyboard Layer 1 (Failing)
//Storyboard Layer 2 (Passing)
//Storyboard Layer 3 (Foreground)
//Storyboard Sound Samples
//Background Colour Transformations
3,100,171,14,167

[TimingPoints]
-190,609.075220789768,4,1,0,60
45054,615.250545034845,4,1,0,60
45054,609.013398294763,4,1,0,60
45054,609.075220789768,4,1,0,60
60913,615.250545034845,4,1,0,60
78673,594.201218653588,4,1,0,60
97316,609.075220789768,4,1,0,60
117593,609.075220789768,4,1,0,60
158859,661.994421786041,4,1,0,60
179088,602.179898074411,4,1,0,60

[Colours]
Combo1 : 171,92,241
Combo2 : 218,21,223
Combo3 : 243,1,104
Combo4 : 147,19,143

[HitObjects]
96,64,4987,1,0
160,64,5748,1,0
192,64,6053,1,0
256,64,6966,1,0
288,64,7271,1,0
320,64,7575,1,0
352,64,7880,1,4
416,64,10012,5,0
352,64,10621,1,0
320,64,10925,1,0
256,64,11382,1,0
224,64,11686,1,0
160,96,12600,2,0,B|256:96,1,70
256,192,14427,5,0
288,192,14732,1,0
320,192,15036,2,0,B|384:192,1,35
352,224,15950,1,0
352,256,16255,1,0
256,256,16864,1,0
224,256,17168,1,0
192,256,17473,1,0
160,256,17777,1,4
352,224,18539,5,0
352,192,18843,1,0
352,160,19148,1,0
256,32,20214,5,0
256,64,20518,1,0
256,96,20823,1,0
256,160,21279,5,0
256,192,21584,2,0,B|130:189|128:64,1,186.666666666667
256,192,24325,5,0
320,192,24782,1,0
384,192,25543,1,0
384,224,25847,1,0
320,224,26711,5,0
320,256,27015,1,0
320,288,27370,2,0,B|256:288,1,46.6666666666667
192,224,28588,6,0,B|256:224,4,35
256,64,30060,5,0
256,96,30416,1,2
256,108,30568,1,0
256,192,30872,1,0
352,192,31481,5,0
352,224,31786,1,0
352,256,32090,2,0,B|226:371|128:192,1,280
160,32,34070,5,0
160,64,34375,1,0
160,96,34679,2,0,B|209:93,2,35
256,96,35593,5,0
256,128,35897,1,0
256,160,36202,1,0
256,192,36506,1,0
256,224,36811,1,0
256,256,37115,1,0
256,320,38029,5,0
256,320,38334,1,0
256,320,38638,1,0
96,64,39856,6,0,B|160:64,3,35
96,128,41074,2,0,B|150:231|288:128,1,210
256,96,44424,5,0
352,128,45358,2,0,B|320:192|192:160,1,140
96,64,47185,5,0
128,96,47490,1,0
160,128,47794,1,0
192,160,48099,1,2
224,192,48403,1,0
256,224,48708,1,0
288,256,49012,1,0
352,256,49317,2,0,B|288:320|64:288,1,280
256,64,59050,5,0
256,128,59512,1,0
256,192,60127,1,0
416,32,61358,5,0
384,96,61973,1,0
352,96,62281,1,0
320,96,62604,1,0
288,96,62963,1,0
256,96,63220,5,0
224,96,63527,1,0
192,96,63835,1,0
160,96,64143,1,0
96,160,65065,6,0,B|64:192,4,35
128,224,66604,5,0
160,224,66911,1,0
224,224,67373,1,0
256,224,67834,1,0
352,96,68757,2,0,B|416:192|352:320|256:320,1,280
160,64,70603,5,0
192,96,70910,1,0
224,128,71218,2,0,B|256:160,2,35
256,160,72141,1,0
288,128,72448,1,0
320,96,72756,1,0
352,64,73064,1,0
384,32,73371,1,0
416,32,73679,2,0,B|416:128,1,70
448,160,74602,6,0,B|256:288|160:224,1,280
128,128,76448,2,0,B|160:96,3,35
192,64,77678,2,0,B|256:64|320:96|384:160,1,210
96,320,81049,5,0
96,288,81346,1,0
96,224,81941,2,0,B|160:224,2,35
192,224,82535,1,0
160,64,83723,2,0,L|256:64|256:160|352:160|352:160|352:320,1,420
416,288,85803,2,4,B|352:352|256:288,1,140
128,256,88477,6,0,B|64:160|128:64|224:32|384:64|448:160|352:256|313:284|288:320,1,560
256,256,91745,2,0,B|256:160,1,70
256,128,92636,1,0
256,64,93082,2,0,L|256:96|288:96|288:128|320:128|320:160|352:160|352:192,1,210
320,224,94419,2,0,L|320:192|288:192|289:160|256:160|256:128|224:128|224:96,1,210
64,64,97925,5,0
128,64,98381,1,0
160,64,98686,1,0
192,64,98990,1,0
224,64,99295,1,0
256,64,99600,5,0
288,64,99955,1,0
320,64,100209,1,0
352,64,100513,1,0
320,160,101579,6,0,L|256:160,4,35
128,288,102797,5,0
128,224,103254,1,0
128,192,103559,1,0
128,128,104015,1,0
128,108,104320,1,0
192,64,104624,1,0
288,64,105233,2,0,L|384:128|384:224|288:224,1,280
128,96,107061,6,0,L|192:96,1,35
192,96,107670,2,0,B|256:96,1,35
288,96,108583,5,0
320,96,108888,1,0
352,96,109192,1,0
384,96,109497,1,0
416,96,109802,1,0
416,128,110106,1,0
416,160,110411,1,0
320,160,111020,5,0
288,160,111324,1,0
256,160,111629,1,0
160,64,112847,2,0,B|224:64,1,35
224,64,113304,1,0
288,64,114065,2,0,B|384:96|384:192|288:224,1,210
96,64,115588,5,0
128,64,115892,1,0
160,64,116197,1,0
192,64,116501,1,0
224,64,116806,1,4
256,64,117110,1,0
384,64,117593,5,0
384,96,118049,2,0,B|288:96,1,70
320,128,118658,2,0,B|224:128,1,70
256,160,119267,6,0,B|160:160,1,70
192,192,119877,2,0,B|96:192,1,70
160,256,121551,6,0,B|224:256,2,35
32,352,122617,1,0
32,320,122922,1,0
32,288,123226,1,0
32,256,123531,1,0
32,224,123836,1,0
64,32,124901,6,0,B|224:32,1,140
192,64,126120,2,0,B|320:64,1,105
288,96,127185,2,0,B|448:96,1,140
256,192,154949,12,0,157588
128,64,158937,5,0
192,64,159646,1,0
256,64,160293,1,0
320,64,160955,1,0
384,64,161587,1,0
448,64,162322,1,0
448,128,162951,5,0
384,128,163581,1,0
320,128,164211,1,0
256,128,164840,1,0
192,128,165470,1,0
128,128,166100,1,0
64,128,166729,6,0,B|64:224|256:160,1,210
288,64,168126,2,0,B|416:96|480:192|416:288|192:320|96:192|160:128|288:160|320:160,1,536.666666666667
352,160,170940,1,0
384,160,171271,1,0
416,160,171602,1,0
448,160,171933,1,0
448,224,172429,2,0,B|448:288|256:224|256:192,1,210
320,96,174415,6,0,B|256:96,3,35
416,64,175574,2,0,B|320:32|224:96|256:160|288:160,1,210
384,128,177063,6,0,B|288:128,1,70
320,160,177725,2,0,B|224:160,1,70
256,192,178387,2,0,B|160:192,1,70
96,224,178884,6,0,B|160:288|320:320|384:256|416:192,1,350
352,96,181797,5,0
352,96,181948,5,0
352,96,182098,5,0
352,96,182249,5,0
352,96,182399,5,0
352,96,182550,5,0
352,96,182701,5,0
352,96,182851,5,0
352,96,183002,5,0
352,96,183152,5,0
352,96,183303,5,0
256,96,183905,6,0,B|256:160,4,35
96,128,195346,5,0
96,32,195949,1,0
192,96,196551,1,0
224,128,196852,1,0
256,160,197153,1,0
288,192,197454,1,0
320,224,197755,5,0
352,256,198056,1,0
384,288,198357,1,0
416,320,198658,1,0
448,224,199562,6,0,B|448:160,5,35
128,64,201067,1,0
160,64,201368,1,0
192,64,201669,1,0
224,64,201970,1,0
256,64,202271,1,0
288,64,202573,1,0
256,192,203325,12,0,205132
256,192,213111,5,0
