osu file format v9

[General]
AudioFilename: 86818e5a738b7f4056ab5a230c1b1255.mp3
AudioLeadIn: 0
PreviewTime: 44636
Countdown: 0
SampleSet: Normal
StackLeniency: 0.7
Mode: 0
LetterboxInBreaks: 1

[Editor]
DistanceSpacing: 1
BeatDivisor: 3
GridSize: 4

[Metadata]
Title:Team Plasma Appears!
Artist:Go Ichinose
Creator:Kurai
Version:vs. Kurosanyan
Source:Pokemon: Black/White
Tags:Junichi Masuda Shota Kageyama Hitomi Sato Morikazu Aoki Minako Adachi Satoshi Nohara ost Noob_Man Noob Man Kuroneko-sHerald _Gezo_ Gezo Kurosanyan

[Difficulty]
HPDrainRate:5
CircleSize:4
OverallDifficulty:6
ApproachRate:7
SliderMultiplier:1.4
SliderTickRate:1

[Events]
//Background and Video events
0,0,"Plasma BG.png"
//Break Periods
2,81160,84925
//Storyboard Layer 0 (Background)
//Storyboard Layer 1 (Fail)
//Storyboard Layer 2 (Pass)
//Storyboard Layer 3 (Foreground)
//Storyboard Sound Samples
//Background Colour Transformations
3,100,163,162,255

[TimingPoints]
528,324.324324324324,4,1,0,70,1,0

[Colours]
Combo1 : 240,38,124
Combo2 : 4,206,19
Combo3 : 230,24,252
Combo4 : 235,114,41

[HitObjects]
64,76,3122,2,0,B|108:56|172:92,1,93.3333333333333,8|0
160,128,3446,2,0,B|204:108|268:144,1,93.3333333333333,2|0
256,180,3771,2,0,B|300:160|364:196,1,93.3333333333333,8|0
356,232,4095,2,0,B|352:320|456:336,4,140,2|8|0|8|0
448,76,5717,6,0,B|404:56|340:92,1,93.3333333333333,8|0
352,128,6041,2,0,B|308:108|244:144,1,93.3333333333333,2|0
256,180,6365,2,0,B|212:160|148:196,1,93.3333333333333,8|0
156,232,6690,2,0,B|160:320|56:336,4,140,2|8|0|8|0
92,108,8311,6,0,B|44:116,2,46.6666666666667,6|0|0
136,96,8636,2,0,B|224:84|288:76|372:164|368:292|240:344,1,420,8|2
136,264,9933,1,0
252,188,10257,1,8
252,188,10473,2,2,B|376:108,1,140,2|0
384,68,10906,6,0,B|432:76,2,46.6666666666667,6|0|0
340,56,11230,2,0,B|252:44|188:36|104:124|108:252|212:284,1,373.333333333333,8|2
212,300,12203,2,0,B|228:344,2,46.6666666666667,8|0|0
248,268,12528,1,8
324,320,12744,1,0
356,232,12960,1,8
428,292,13176,2,0,B|464:256|464:200,1,93.3333333333333,0|0
444,168,13500,6,0,B|404:20|272:112|172:184|112:76,1,373.333333333333,6|0
104,52,14473,1,8
44,180,14798,2,0,B|108:272|264:232,1,233.333333333333,2|0
292,204,15446,2,0,B|372:148,1,93.3333333333333,2|0
388,192,15771,2,0,B|484:244,1,93.3333333333333,2|0
480,192,16095,6,0,B|504:144|456:96,1,93.3333333333333,8|0
465,106,16419,2,0,B|332:29|303:188|283:309|165:275,1,373.333333333333,2|0
136,300,17392,2,0,B|88:272|72:228,1,93.3333333333333,8|0
28,220,17717,2,0,B|-4:92|128:28,1,233.333333333333,2|0
168,48,18365,2,0,B|200:16,2,46.6666666666667,8|0|0
212,60,18690,6,0,B|300:16|440:40|452:188|352:264,1,373.333333333333,2|0
384,300,19663,1,8
324,172,19987,2,0,B|304:288|144:292,1,233.333333333333,2|0
108,316,20636,2,0,B|36:248,1,93.3333333333333,2|0
80,228,20960,2,0,B|80:136,1,93.3333333333333,2|0
124,148,21284,6,0,B|188:72,1,93.3333333333333,8|0
184,76,21609,2,0,B|317:-1|346:158|366:279|484:245,1,373.333333333333,2|0
496,284,22582,2,0,B|484:336|420:352,1,93.3333333333333,8|0
388,332,22906,2,0,B|208:360|168:184,1,280,2|4
44,152,23879,6,0,B|48:40|148:0|264:16|316:120,1,373.333333333333,2|0
352,144,24852,1,8
480,88,25176,2,0,B|484:236|356:280,1,233.333333333333,2|0
324,260,25825,2,0,B|260:344,1,93.3333333333333,2|0
244,292,26149,2,0,B|152:348,1,93.3333333333333,2|0
152,296,26473,6,0,B|52:288,1,93.3333333333333,8|0
80,248,26798,2,0,B|144:128|236:164|344:200|392:80,1,373.333333333333,2|0
432,72,27771,2,0,B|484:104|488:176,1,93.3333333333333,8|0
436,152,28095,2,0,B|469:202|442:269,1,93.3333333333333,2|0
408,224,28419,2,0,B|416:284|364:333,1,93.3333333333333,8|0
348,280,28744,2,0,B|330:338|262:361,1,93.3333333333333,0|0
256,316,29068,5,2
256,68,29392,1,2
220,216,29717,1,2
308,184,29933,1,0
384,128,30149,1,8
308,184,30365,1,2
220,152,30581,1,0
144,96,30797,1,8
220,152,31014,1,2
308,120,31230,1,0
384,64,31446,1,8
256,68,31663,5,2
256,316,31987,1,2
292,168,32312,1,2
204,200,32528,1,0
128,256,32744,1,8
204,200,32960,1,2
292,232,33176,1,0
368,288,33392,1,8
292,232,33609,1,2
204,264,33825,1,0
128,320,34041,1,8
256,316,34257,6,0,B|292:344|352:336,1,93.3333333333333,2|0
352,292,34582,2,0,B|396:282|429:231,1,93.3333333333333,2|0
404,196,34906,2,0,B|432:152|492:148,2,93.3333333333333,2|0|8
248,92,35555,2,0,B|220:48|160:44,2,93.3333333333333,2|0|8
108,216,36203,2,0,B|80:260|20:264,2,93.3333333333333,2|0|8
256,68,36852,6,0,B|292:40|352:48,1,93.3333333333333,2|0
352,92,37177,2,0,B|396:101|429:152,1,93.3333333333333,2|0
404,188,37501,2,0,B|432:232|492:236,2,93.3333333333333,2|0|8
248,292,38150,2,0,B|220:336|160:340,2,93.3333333333333,2|0|8
108,168,38798,2,0,B|80:124|20:120,2,93.3333333333333,2|0|8
256,192,39446,12,8,41717
256,192,42041,12,8,44311
68,216,44636,6,0,B|108:364|240:272|340:200|400:308,1,373.333333333333,6|0
408,332,45609,1,8
468,204,45934,2,0,B|404:112|248:152,1,233.333333333333,2|0
220,180,46582,2,0,B|140:236,1,93.3333333333333,2|0
124,192,46907,2,0,B|28:140,1,93.3333333333333,2|0
32,192,47231,6,0,B|8:240|56:288,1,93.3333333333333,8|0
47,278,47555,2,0,B|180:355|209:196|229:75|347:109,1,373.333333333333,2|0
376,84,48528,2,0,B|424:112|440:156,1,93.3333333333333,8|0
484,164,48853,2,0,B|516:292|384:356,1,233.333333333333,2|0
344,356,49500,1,0
208,324,49826,6,0,B|88:300|40:184|155:59|240:92,1,373.333333333333,2|0
276,72,50799,1,8
144,28,51123,2,0,B|128:176|300:180,1,233.333333333333,2|0
320,156,51772,2,0,B|408:92,1,93.3333333333333,2|0
400,148,52096,2,0,B|440:236,1,93.3333333333333,2|0
388,236,52420,6,0,B|324:312,1,93.3333333333333,8|0
328,308,52745,2,0,B|195:385|166:226|146:105|28:139,1,373.333333333333,2|0
16,100,53718,2,0,B|28:48|92:32,1,93.3333333333333,8|0
124,52,54042,2,0,B|304:24|344:200,1,280,2|4
468,232,55015,6,0,B|464:344|364:384|248:368|196:264,1,373.333333333333,2|0
160,240,55988,1,8
32,296,56312,2,0,B|28:148|156:104,1,233.333333333333,2|0
188,124,56961,2,0,B|252:40,1,93.3333333333333,2|0
268,92,57285,2,0,B|360:36,1,93.3333333333333,2|0
360,88,57609,6,0,B|460:96,1,93.3333333333333,8|0
432,136,57934,2,0,B|368:256|276:220|168:184|120:304,1,373.333333333333,2|0
80,312,58907,2,0,B|28:280|24:208,1,93.3333333333333,8|0
76,232,59231,2,0,B|43:182|70:115,1,93.3333333333333,2|0
104,160,59555,2,0,B|96:100|148:51,1,93.3333333333333,8|0
164,104,59880,2,0,B|182:46|250:23,1,93.3333333333333,0|0
268,88,60203,6,0,B|300:56|360:48,2,93.3333333333333,2|0|0
344,144,60852,1,2
416,204,61068,1,0
452,292,61284,1,0
368,256,61500,2,0,B|328:216|272:220,2,93.3333333333333,2|0|0
288,304,62149,1,2
204,340,62365,1,0
112,328,62581,1,0
184,268,62798,6,0,B|224:252|256:200,2,93.3333333333333,2|0|0
168,176,63447,1,2
180,84,63663,1,0
260,36,63879,1,0
252,128,64095,2,0,B|240:192|288:232,2,93.3333333333333,2|0|0
340,164,64744,2,0,B|416:248,1,93.3333333333333,2|0
360,252,65068,2,0,B|308:352,1,93.3333333333333,2|0
272,348,65392,6,0,B|80:352|12:184|120:24|308:72,1,513.333333333333,2|0
296,28,66690,2,0,B|424:40|448:184|392:280|264:240,1,373.333333333333,2|0
228,244,67663,2,0,B|184:272,2,46.6666666666667
260,208,67987,6,0,B|182:32|1:41|-97:207|25:357,1,513.333333333333,2|0
48,312,69284,2,0,B|80:348|148:348,1,93.3333333333333,2|0
168,320,69609,2,0,B|212:339|273:310,1,93.3333333333333,2|0
280,276,69933,2,0,B|328:274|371:222,1,93.3333333333333,2|0
356,188,70257,2,0,B|399:166|416:100,1,93.3333333333333,2|0
364,108,70582,6,0,B|243:-41|71:14|18:199|175:312,1,513.333333333333,2|0
104,312,71879,2,0,B|195:402|321:328|358:223|245:151,1,373.333333333333,2|0
212,144,72852,2,0,B|180:104,2,46.6666666666667
168,164,73176,6,0,B|164:356|332:424|491:315|443:128,1,513.333333333333,2|0
480,136,74473,1,2
384,36,74798,1,2
292,144,75122,1,2
200,36,75446,2,0,B|152:60|132:120,1,93.3333333333333,2|0
92,116,75771,6,0,B|79:168|112:222,1,93.3333333333333,2|0
128,248,76095,2,0,B|120:296,2,46.6666666666667,8|0|0
168,272,76419,2,0,B|199:315|262:324,1,93.3333333333333,0|0
272,280,76744,2,0,B|325:283|372:241,1,93.3333333333333,8|0
352,208,77068,6,0,B|388:169|387:105,1,93.3333333333333,2|0
360,84,77392,2,0,B|372:40,2,46.6666666666667,8|0|0
316,68,77717,2,0,B|262:64|215:106,1,93.3333333333333,0|0
244,140,78041,2,0,B|207:178|208:242,1,93.3333333333333,8|0
256,236,78365,6,0,B|262:289|311:328,1,93.3333333333333,2|0
344,324,78690,2,0,B|356:368,2,46.6666666666667,8|0|0
388,316,79014,2,0,B|437:296|463:238,1,93.3333333333333,0|0
428,216,79338,2,0,B|444:165|416:108,1,93.3333333333333,8|0
256,192,79663,12,4,80960
40,192,85825,6,0,B|32:256,2,46.6666666666667,8|0|0
72,228,86149,2,0,B|78:281|127:320,1,93.3333333333333,2|0
160,316,86473,2,0,B|203:363,2,46.6666666666667,8|0|0
208,314,86797,2,0,B|252:343|314:330,1,93.3333333333333,2|0
316,292,87122,6,0,B|380:288,2,46.6666666666667,8|0|0
345,254,87446,2,0,B|396:238|426:183,1,93.3333333333333,2|0
388,164,87771,2,0,B|426:112,2,46.6666666666667,8|0|0
378,116,88095,2,0,B|399:66|376:7,1,93.3333333333333,2|0
340,44,88419,6,0,B|296:-3,2,46.6666666666667,8|0|0
292,46,88743,2,0,B|247:16|185:29,1,93.3333333333333,2|0
168,55,89067,2,0,B|103:58,2,46.6666666666667,8|0|0
139,93,89391,2,0,B|87:108|57:163,1,93.3333333333333,2|0
104,180,89716,6,0,B|118:242,2,46.6666666666667,8|0|0
146,200,90040,2,0,B|169:248|229:268,1,93.3333333333333,2|0
242,226,90365,2,0,B|299:255,2,46.6666666666667,8|0|0
287,210,90689,2,0,B|339:222|393:189,1,93.3333333333333,2|0
372,152,91014,6,0,B|420:148,2,46.6666666666667,8|0|0
376,104,91338,2,0,B|368:56|320:36,1,93.3333333333333,6|0
296,76,91663,2,0,B|240:24|156:36,2,140,8|0|8
220,132,92527,1,0
220,132,92636,2,0,B|176:152|176:232,1,93.3333333333333
176,209,92960,2,0,B|88:160,1,93.3333333333333,8|0
116,304,93500,5,0
116,304,93609,2,0,B|40:296|8:212,2,140,8|0|8
188,244,94473,1,0
188,244,94582,2,0,B|232:252|264:304,1,93.3333333333333
256,344,94906,2,0,B|324:352|392:288,1,140,8|0
436,220,95446,5,0
436,220,95555,2,0,B|424:168|380:144,1,93.3333333333333,8|0
348,176,95879,2,0,B|328:132|268:132,1,93.3333333333333,8|0
236,164,96203,2,0,B|188:136|132:180,1,93.3333333333333,8|0
108,144,96527,1,4
