osu file format v9

[General]
AudioFilename: 86818e5a738b7f4056ab5a230c1b1255.mp3
AudioLeadIn: 0
PreviewTime: 44636
Countdown: 0
SampleSet: Normal
StackLeniency: 0.7
Mode: 0
LetterboxInBreaks: 1

[Editor]
DistanceSpacing: 0.9
BeatDivisor: 3
GridSize: 8

[Metadata]
Title:Team Plasma Appears!
Artist:Go Ichinose
Creator:Kurai
Version:vs. Kuro
Source:Pokemon: Black/White
Tags:Junichi Masuda Shota Kageyama Hitomi Sato Morikazu Aoki Minako Adachi Satoshi Nohara ost Noob_Man Noob Man Kuroneko-sHerald _Gezo_ Gezo Kurosanyan

[Difficulty]
HPDrainRate:5
CircleSize:4
OverallDifficulty:6
ApproachRate:6
SliderMultiplier:1.2
SliderTickRate:1

[Events]
//Background and Video events
0,0,"Plasma BG.png"
//Break Periods
2,60403,64342
2,81160,84991
//Storyboard Layer 0 (Background)
//Storyboard Layer 1 (Fail)
//Storyboard Layer 2 (Pass)
//Storyboard Layer 3 (Foreground)
//Storyboard Sound Samples
//Background Colour Transformations
3,100,163,162,255

[TimingPoints]
528,324.324324324324,4,1,0,70,1,0
65284,-133.333333333333,4,1,0,70,0,0
75663,-100,4,1,0,70,0,0
91879,-100,4,1,0,60,0,0
92527,-100,4,1,0,50,0,0
93176,-100,4,1,0,40,0,0
93825,-100,4,1,0,30,0,0
94473,-100,4,1,0,20,0,0
95122,-100,4,1,0,10,0,0
95338,-100,4,1,0,30,0,0
95663,-100,4,1,0,50,0,0
95987,-100,4,1,0,70,0,0

[Colours]
Combo1 : 240,38,124
Combo2 : 4,206,19
Combo3 : 230,24,252
Combo4 : 235,114,41

[HitObjects]
48,56,3122,1,4
68,160,3446,2,0,B|132:143|148:79,2,120
100,264,4419,2,0,B|180:240|244:160|252:88,1,240
464,56,5717,5,4
365,79,6041,2,0,B|380:142|444:159,2,120
261,92,7014,2,0,B|268:159|332:239|412:263,1,240
208,328,8311,5,4
256,48,9609,5,4
304,328,10473,5,0
256,192,10906,1,4
480,32,12203,5,0
480,136,12527,2,0,B|400:80,3,80,4|0|4|0
312,104,13500,6,0,B|224:160|152:152|80:88,1,240,4|0
112,200,14473,1,0
184,288,14798,2,0,B|272:232|344:240|416:304,1,240
400,184,15771,1,0
480,112,16095,2,0,B|464:80|416:64|368:80,1,120
256,192,17392,12,4,18690
256,192,19663,5,0
296,96,19987,2,0,B|376:136|376:256|296:288,1,240
192,248,20960,2,0,B|152:192|192:136,2,120,0|0|4
256,192,22582,12,4,23879
256,192,24852,5,0
176,120,25176,2,0,B|256:48|336:120,2,180
256,192,26473,1,0
256,264,26690,2,0,B|256:320,1,40,0|4
32,192,27771,5,0
104,192,27987,2,0,B|144:192,1,40
216,32,29068,5,4
296,32,29392,1,0
352,88,29717,2,0,B|320:128|280:120,3,80,4|0|4|0
228,120,30582,2,0,B|191:127|159:87,4,80,4|0|4|0|4
256,168,31663,6,0,B|256:296,1,120
336,304,32311,2,0,B|328:360|272:352,3,80,4|0|4|0
228,352,33176,2,0,B|184:360|176:304,4,80,4|0|4|0|4
256,304,34257,5,0
320,136,34798,1,0
256,48,35122,1,0
256,192,35555,1,0
184,192,35771,2,0,B|104:248,4,80,4|0|4|0|4
256,192,36852,5,0
312,24,37392,1,0
200,24,37717,1,0
256,160,38149,1,0
328,192,38365,2,0,B|408:248,4,80,4|0|4|0|4
256,192,39446,12,0,41717
256,192,42041,12,0,44311
200,128,44636,6,0,B|168:152|144:152|144:152|96:120,2,120,4|0|0
312,128,45609,2,0,B|344:152|368:152|368:152|416:120,2,120
256,224,46582,2,0,B|352:304,1,120
248,344,47230,1,0
192,296,47446,2,0,B|152:264,1,40,0|4
256,192,48527,12,4,49825
256,32,50798,5,0
328,112,51122,1,0
184,272,51771,1,0
256,352,52095,1,0
256,248,52419,2,0,B|256:120,1,120,0|4
256,192,53717,12,4,55014
256,192,55987,5,0
152,168,56311,2,0,B|144:248|192:288|256:288,2,180
240,112,57609,2,0,B|296:104|320:128|344:168,1,120
256,192,58906,12,4,60203
176,40,65392,6,0,B|16:24|0:224|168:232,1,329.999990165234,4|0
152,200,66690,2,0,B|240:176|296:312|168:344,1,239.999992847443,4|0
149,340,67663,2,0,B|109:340,3,29.9999991059304,4|0|4|0
368,128,69284,6,0,B|328:200|240:208|192:112|256:40,1,269.999991953373
336,40,70582,6,0,B|496:24|512:224|344:232,1,329.999990165234,4|0
360,200,71880,2,0,B|272:176|216:312|344:344,1,239.999992847443,4|0
363,340,72853,2,0,B|403:340,3,29.9999991059304,4|0|4|0
144,128,74473,6,0,B|184:200|272:208|320:112|256:40,1,269.999991953373,4|0
256,192,75771,12,0,79663
256,192,80960,5,4
448,80,86041,6,0,B|416:120|376:64|376:64|336:120|296:64|296:64|256:176|216:64|216:64|176:120|136:64|136:64|96:120|64:80,1,520,4|0
256,192,88095,1,0
448,288,88744,2,0,B|416:248|376:304|376:304|336:248|296:304|296:304|256:248|216:304|216:304|176:248|136:304|136:304|96:248|64:288,1,480,4|0
424,56,91338,5,0
256,192,91987,1,0
88,56,92636,1,0
304,56,93284,1,0
256,264,93933,1,0
208,56,94582,1,0
256,192,95230,12,4,96527
