osu file format v14

[General]
AudioFilename: Lake - Pokemon DPP.mp3
AudioLeadIn: 0
PreviewTime: 574
Countdown: 0
SampleSet: Soft
StackLeniency: 0.7
Mode: 2
LetterboxInBreaks: 0
WidescreenStoryboard: 0

[Editor]
Bookmarks: 2449,17449,32449,47449,62449,67449
DistanceSpacing: 1.4
BeatDivisor: 4
GridSize: 4
TimelineZoom: 1.4

[Metadata]
Title:Mizuumi
TitleUnicode:みずうみ
Artist:Go Ichinose
ArtistUnicode:一之瀬剛
Creator:Sinnoh
Version:Salad
Source:ポケットモンスター ダイヤモンド・パール
Tags:JBHyperion Lake Pokemon Diamond Pearl Platinum Nintendo Game Freak
BeatmapID:1147780
BeatmapSetID:516118

[Difficulty]
HPDrainRate:4
CircleSize:2.5
OverallDifficulty:7
ApproachRate:7
SliderMultiplier:2
SliderTickRate:1

[Events]
//Background and Video events
0,0,"poke sunset.jpg",0,0
//Break Periods
//Storyboard Layer 0 (Background)
//Storyboard Layer 1 (Fail)
//Storyboard Layer 2 (Pass)
//Storyboard Layer 3 (Foreground)
//Storyboard Sound Samples

[TimingPoints]
574,937.5,4,2,1,20,1,0
1511,-50,4,2,1,30,0,0
2449,937.5,4,2,1,50,1,0
2449,-50,4,2,1,50,0,0
47449,312.5,4,2,1,80,1,1
47449,-166.666666666667,4,2,1,80,0,1
67449,937.5,4,2,1,40,1,0
68386,-144.927536231884,4,2,1,20,0,0
69324,-144.927536231884,4,2,1,10,0,0
70261,-144.927536231884,4,2,1,5,0,0

[Colours]
Combo1 : 255,57,57
Combo2 : 228,228,0
Combo3 : 187,93,0

[HitObjects]
224,280,574,5,0,0:0:0:0:
159,170,886,1,0,0:0:0:0:
218,57,1199,1,4,0:0:0:0:
352,276,1511,1,0,0:0:0:0:
417,166,1823,1,0,0:0:0:0:
358,53,2136,1,4,0:0:0:0:
98,49,2449,6,0,P|62:121|146:145,1,133.333333333333,8|0,0:0|0:0,0:0:0:0:
252,156,3074,1,0,0:0:0:0:
412,156,3386,2,0,P|440:228|400:284,1,133.333333333333,4|0,0:0|0:0,0:0:0:0:
256,272,4011,1,8,0:0:0:0:
80,268,4324,6,0,L|40:216,2,33.3333333333333,2|0|0,0:0|0:0|0:0,0:0:0:0:
320,168,5261,1,4,0:0:0:0:
80,160,5574,1,8,0:0:0:0:
428,36,6199,6,0,P|468:60|396:120,1,133.333333333333,8|0,0:0|0:0,0:0:0:0:
280,132,6824,1,0,0:0:0:0:
120,132,7136,2,0,P|76:168|152:204,1,133.333333333333,4|0,0:0|0:0,0:0:0:0:
276,216,7761,1,8,0:0:0:0:
32,224,8074,5,2,0:0:0:0:
192,220,8386,2,0,P|272:180|288:120,2,133.333333333333,0|8|4,0:0|0:0|0:0,0:0:0:0:
48,228,9324,2,0,P|4:180|60:140,1,133.333333333333,8|0,0:0|0:0,0:0:0:0:
152,136,9792,1,0,0:0:0:0:
320,136,9949,6,0,P|380:176|416:240,1,133.333333333333,8|0,0:0|0:0,0:0:0:0:
476,248,10574,1,0,0:0:0:0:
389,242,10886,2,0,P|364:180|308:140,1,133.333333333333,4|0,0:0|0:0,0:0:0:0:
148,144,11511,1,8,0:0:0:0:
328,132,11824,6,0,L|367:89,2,33.3333333333333,2|0|0,0:0|0:0|0:0,0:0:0:0:
92,132,12761,1,4,0:0:0:0:
360,132,13074,1,8,0:0:0:0:
98,137,13699,6,0,L|74:65,1,66.6666666666667,8|8,0:0|0:0,0:0:0:0:
244,188,14167,2,0,L|272:120,1,66.6666666666667,8|8,0:0|0:0,0:0:0:0:
100,252,14636,2,0,P|64:208|56:128,1,133.333333333333,4|0,0:0|0:0,0:0:0:0:
212,144,15261,1,8,0:0:0:0:
376,144,15574,6,0,L|404:96,2,33.3333333333333,2|0|0,0:0|0:0|0:0,0:0:0:0:
184,162,16199,2,0,P|135:204|136:268,1,133.333333333333,8|4,0:0|0:0,0:0:0:0:
304,244,16824,2,0,B|400:216|356:348|344:368,1,133.333333333333,8|4,0:0|0:0,0:0:0:0:
120,328,17449,6,0,P|108:248|182:236,1,133.333333333333,8|0,0:0|0:0,0:0:0:0:
304,268,18074,1,0,0:0:0:0:
464,268,18386,2,0,P|496:328|452:396,1,133.333333333333,4|0,0:0|0:0,0:0:0:0:
312,376,19011,1,8,0:0:0:0:
140,376,19324,6,0,L|112:324,2,33.3333333333333,2|0|0,0:0|0:0|0:0,0:0:0:0:
384,212,20261,1,4,0:0:0:0:
128,208,20574,1,8,0:0:0:0:
440,280,21199,6,0,P|428:204|336:220,1,133.333333333333,8|0,0:0|0:0,0:0:0:0:
220,188,21824,1,0,0:0:0:0:
60,184,22136,2,0,P|3:211|20:276,1,133.333333333333,4|0,0:0|0:0,0:0:0:0:
161,280,22761,1,8,0:0:0:0:
427,273,23074,6,0,L|451:225,2,33.3333333333333,6|0|0,0:0|0:0|0:0,0:0:0:0:
272,271,23542,2,0,L|216:210,1,66.6666666666667,8|8,0:0|0:0,0:0:0:0:
384,173,24011,1,4,0:0:0:0:
129,167,24324,1,8,0:0:0:0:
408,200,24949,6,0,P|433:148|432:72,1,133.333333333333,8|0,0:0|0:0,0:0:0:0:
344,72,25417,2,0,L|292:152,1,66.6666666666667,8|8,0:0|0:0,0:0:0:0:
136,80,25886,2,0,P|88:124|77:198,1,133.333333333333,4|0,0:0|0:0,0:0:0:0:
232,176,26511,1,8,0:0:0:0:
400,168,26824,6,0,L|424:124,2,33.3333333333333,2|0|0,0:0|0:0|0:0,0:0:0:0:
124,172,27761,1,4,0:0:0:0:
372,164,28074,1,8,0:0:0:0:
36,216,28699,6,0,P|52:149|104:106,1,133.333333333333,8|0,0:0|0:0,0:0:0:0:
256,132,29324,1,0,0:0:0:0:
416,132,29636,2,0,P|412:200|352:208,1,133.333333333333,4|0,0:0|0:0,0:0:0:0:
219,208,30261,1,8,0:0:0:0:
468,208,30574,6,0,L|484:168,2,33.3333333333333,6|0|0,0:0|0:0|0:0,0:0:0:0:
136,40,31511,2,0,P|97:194|205:342,1,333.333333333333,4|0,0:0|0:0,0:0:0:0:
280,300,32449,6,0,P|340:272|340:196,1,133.333333333333,8|0,0:0|0:0,0:0:0:0:
204,204,33074,1,0,0:0:0:0:
44,212,33386,2,0,P|16:152|68:96,1,133.333333333333,4|0,0:0|0:0,0:0:0:0:
212,96,34011,1,8,0:0:0:0:
392,84,34324,6,0,L|416:44,2,33.3333333333333,2|0|0,0:0|0:0|0:0,0:0:0:0:
120,152,35261,1,4,0:0:0:0:
380,164,35574,1,8,0:0:0:0:
144,312,36199,6,0,P|92:264|96:176,1,133.333333333333,8|0,0:0|0:0,0:0:0:0:
264,200,36824,1,0,0:0:0:0:
108,196,37136,2,0,P|112:136|192:108,1,133.333333333333,4|0,0:0|0:0,0:0:0:0:
324,100,37761,1,8,0:0:0:0:
78,98,38074,6,0,L|54:50,2,33.3333333333333,6|0|0,0:0|0:0|0:0,0:0:0:0:
228,96,38542,2,0,L|284:35,1,66.6666666666667,8|8,0:0|0:0,0:0:0:0:
128,158,39011,1,4,0:0:0:0:
381,154,39324,1,8,0:0:0:0:
105,315,39949,6,0,P|65:257|83:192,1,133.333333333333,8|0,0:0|0:0,0:0:0:0:
224,212,40574,1,0,0:0:0:0:
384,216,40886,2,0,P|400:152|344:96,1,133.333333333333,4|0,0:0|0:0,0:0:0:0:
204,116,41511,1,8,0:0:0:0:
372,112,41824,6,0,L|400:68,2,33.3333333333333,2|0|0,0:0|0:0|0:0,0:0:0:0:
132,168,42761,1,4,0:0:0:0:
400,168,43074,1,8,0:0:0:0:
124,308,43699,6,0,L|95:234,1,66.6666666666667,8|8,0:0|0:0,0:0:0:0:
292,337,44167,2,0,L|324:264,1,66.6666666666667,8|8,0:0|0:0,0:0:0:0:
493,311,44636,2,0,P|491:238|428:197,1,133.333333333333,4|8,0:0|0:0,0:0:0:0:
281,196,45261,1,8,0:0:0:0:
112,200,45574,6,0,L|85:152,2,33.3333333333333,2|0|8,0:0|0:0|0:0,0:0:0:0:
308,280,46199,2,0,B|376:280|376:280|360:228|360:228|341:180,1,133.333333333333,8|0,0:0|0:0,0:0:0:0:
276,197,46667,1,0,0:0:0:0:
213,176,46824,1,4,0:0:0:0:
172,122,46980,1,0,0:0:0:0:
192,55,47136,1,4,0:0:0:0:
260,30,47292,1,0,0:0:0:0:
416,172,47449,6,0,P|440:272|336:344,1,239.999992675781,8|0,0:0|0:0,0:0:0:0:
168,344,48386,2,0,P|117:276|181:134,1,239.999992675781,8|0,0:0|0:0,0:0:0:0:
320,168,49324,1,0,0:0:0:0:
176,164,49636,1,0,0:0:0:0:
416,200,49949,6,0,P|460:136|344:44,1,239.999992675781,8|0,0:0|0:0,0:0:0:0:
196,40,50886,1,8,0:0:0:0:
364,48,51199,2,0,P|376:148|256:204,1,239.999992675781
120,208,52136,1,0,0:0:0:0:
368,216,52449,6,0,P|432:120|336:56,1,239.999992675781,8|0,0:0|0:0,0:0:0:0:
184,56,53386,2,0,P|90:119|112:230,1,239.999992675781,8|0,0:0|0:0,0:0:0:0:
272,236,54324,1,0,0:0:0:0:
113,230,54636,1,0,0:0:0:0:
388,228,54949,6,0,P|480:204|496:64,1,239.999992675781,8|0,0:0|0:0,0:0:0:0:
336,64,55886,2,0,P|244:88|220:224,1,239.999992675781,8|0,0:0|0:0,0:0:0:0:
384,220,56824,2,0,P|431:185|411:123,1,119.999996337891
160,120,57449,6,0,P|128:240|232:292,1,239.999992675781,8|0,0:0|0:0,0:0:0:0:
380,292,58386,2,0,P|448:204|440:56,1,239.999992675781,8|0,0:0|0:0,0:0:0:0:
280,76,59324,2,0,P|228:100|212:164,1,119.999996337891
484,324,59949,6,0,P|484:227|376:140,1,239.999992675781,8|0,0:0|0:0,0:0:0:0:
212,144,60886,1,8,0:0:0:0:
72,144,61199,2,0,B|38:201|35:282|196:296,1,239.999992675781
328,296,62136,1,0,0:0:0:0:
72,288,62449,6,0,P|36:232|172:136,1,239.999992675781,8|0,0:0|0:0,0:0:0:0:
410,123,63386,2,0,P|421:219|293:287,1,239.999992675781,8|0,0:0|0:0,0:0:0:0:
164,292,64324,1,0,0:0:0:0:
316,292,64636,1,0,0:0:0:0:
71,300,64949,6,0,P|21:229|113:111,1,239.999992675781,8|0,0:0|0:0,0:0:0:0:
369,115,65886,2,0,P|433:179|341:299,1,239.999992675781,8|0,0:0|0:0,0:0:0:0:
79,299,66824,1,0,0:0:0:0:
56,262,66980,1,0,0:0:0:0:
77,208,67136,1,0,0:0:0:0:
256,192,67449,12,0,71199,0:0:0:0:
