osu file format v14

[General]
AudioFilename: Lake - Pokemon DPP.mp3
AudioLeadIn: 0
PreviewTime: 574
Countdown: 0
SampleSet: Soft
StackLeniency: 0.7
Mode: 2
LetterboxInBreaks: 0
WidescreenStoryboard: 1

[Editor]
Bookmarks: 2449,17449,32449,47449,67449
DistanceSpacing: 1.8
BeatDivisor: 6
GridSize: 4
TimelineZoom: 1.4

[Metadata]
Title:Mizuumi
TitleUnicode:みずうみ
Artist:Go Ichinose
ArtistUnicode:一之瀬剛
Creator:Sinnoh
Version:Hyperion's Cup
Source:ポケットモンスター ダイヤモンド・パール
Tags:JBHyperion Lake Pokemon Diamond Pearl Platinum Nintendo Game Freak
BeatmapID:1175992
BeatmapSetID:516118

[Difficulty]
HPDrainRate:3
CircleSize:2
OverallDifficulty:6
ApproachRate:6
SliderMultiplier:1.8
SliderTickRate:1

[Events]
//Background and Video events
0,0,"poke sunset.jpg",0,0
//Break Periods
//Storyboard Layer 0 (Background)
//Storyboard Layer 1 (Fail)
//Storyboard Layer 2 (Pass)
//Storyboard Layer 3 (Foreground)
//Storyboard Sound Samples

[TimingPoints]
574,937.5,4,2,1,20,1,0
574,-80,4,2,1,20,0,0
1511,-100,4,2,1,30,0,0
2449,937.5,4,2,1,50,1,0
5574,-100,4,2,1,35,0,0
6199,-80,4,2,1,50,0,0
7136,-100,4,2,1,50,0,0
17449,-80,4,2,1,50,0,0
18386,-100,4,2,1,50,0,0
47449,312.5,4,2,1,60,1,1
47449,-200,4,2,1,60,0,1
66824,-200,4,2,1,50,0,1
67449,937.5,4,2,1,30,1,0
68386,-100,4,2,1,20,0,0
69324,-100,4,2,1,10,0,0
70261,-100,4,2,1,5,0,0

[Colours]
Combo1 : 255,57,57
Combo2 : 228,228,0
Combo3 : 187,93,0

[HitObjects]
420,224,574,6,0,P|348:88|280:224,1,375
364,220,2449,6,0,L|416:192,2,60,8|0|0,0:0|0:0|0:0,0:0:0:0:
260,220,3386,1,4,0:0:0:0:
404,220,4011,1,8,0:0:0:0:
320,220,4324,5,2,0:0:0:0:
140,220,5261,2,0,L|136:148,1,60,4|8,0:0|0:0,0:0:0:0:
288,163,6199,6,0,P|384:208|336:287,1,225,8|4,0:0|0:0,0:0:0:0:
192,288,7761,1,8,0:0:0:0:
288,288,8074,6,0,L|336:236,2,60,2|0|8,0:0|0:0|0:0,0:0:0:0:
204,288,9011,1,4,0:0:0:0:
136,288,9324,1,8,0:0:0:0:
280,192,9949,6,0,L|352:192,2,60,8|0|0,0:0|0:0|0:0,0:0:0:0:
220,192,10886,1,4,0:0:0:0:
88,192,11511,1,8,0:0:0:0:
156,192,11824,5,2,0:0:0:0:
336,192,12761,2,0,L|328:124,1,60,4|8,0:0|0:0,0:0:0:0:
160,132,13699,6,0,L|96:132,2,60,8|0|8,0:0|0:0|0:0,0:0:0:0:
216,132,14636,1,4,0:0:0:0:
360,132,15261,1,8,0:0:0:0:
288,132,15574,5,2,0:0:0:0:
144,132,16199,1,4,0:0:0:0:
228,132,16511,1,12,0:0:0:0:
144,132,16824,1,4,0:0:0:0:
60,132,17136,1,4,0:0:0:0:
168,132,17449,6,0,P|236:208|168:288,1,225,8|4,0:0|0:0,0:0:0:0:
28,288,19011,1,8,0:0:0:0:
112,288,19324,5,2,0:0:0:0:
328,268,20261,2,0,L|332:204,1,60,4|8,0:0|0:0,0:0:0:0:
164,204,21199,6,0,P|172:128|260:76,1,180,8|4,0:0|0:0,0:0:0:0:
132,232,22761,1,8,0:0:0:0:
216,232,23074,6,0,L|332:192,1,120,2|8,0:0|0:0,0:0:0:0:
244,192,24011,2,0,L|240:128,1,60,4|8,0:0|0:0,0:0:0:0:
408,136,24949,6,0,L|464:96,2,60,8|0|8,0:0|0:0|0:0,0:0:0:0:
336,136,25886,1,4,0:0:0:0:
192,132,26511,1,8,0:0:0:0:
276,132,26824,5,2,0:0:0:0:
76,132,27761,2,0,L|72:200,1,60,4|8,0:0|0:0,0:0:0:0:
140,192,28386,1,0,0:0:0:0:
204,192,28699,6,0,L|264:168,2,60,8|0|0,0:0|0:0|0:0,0:0:0:0:
140,192,29636,1,4,0:0:0:0:
260,192,30261,1,8,0:0:0:0:
332,192,30574,6,0,P|388:216|408:268,1,120,2|8,0:0|0:0,0:0:0:0:
336,268,31511,1,4,0:0:0:0:
408,268,31824,1,8,0:0:0:0:
336,268,32136,1,0,0:0:0:0:
408,268,32449,6,0,L|488:244,1,60,8|0,0:0|0:0,0:0:0:0:
320,248,33386,1,4,0:0:0:0:
200,244,34011,1,8,0:0:0:0:
280,244,34324,5,2,0:0:0:0:
72,192,35261,2,0,L|64:120,1,60,4|8,0:0|0:0,0:0:0:0:
232,132,36199,6,0,L|312:132,2,60,8|0|0,0:0|0:0|0:0,0:0:0:0:
172,132,37136,1,4,0:0:0:0:
304,132,37761,1,8,0:0:0:0:
384,132,38074,6,0,P|356:192|276:208,1,120,2|8,0:0|0:0,0:0:0:0:
232,212,39011,1,4,0:0:0:0:
309,211,39324,1,8,0:0:0:0:
232,212,39636,1,0,0:0:0:0:
152,212,39949,6,0,L|96:192,1,60,8|0,0:0|0:0,0:0:0:0:
240,192,40886,1,4,0:0:0:0:
360,192,41511,1,8,0:0:0:0:
276,192,41824,5,2,0:0:0:0:
452,192,42761,2,0,L|456:124,1,60,4|8,0:0|0:0,0:0:0:0:
372,132,43386,1,0,0:0:0:0:
288,132,43699,6,0,B|228:132|228:132|196:80,1,120,8|8,0:0|0:0,0:0:0:0:
160,20,44636,1,4,0:0:0:0:
232,20,44949,2,0,B|296:20|296:20|236:20,1,120,8|2,0:0|0:0,0:0:0:0:
48,24,46199,6,0,L|138:76,2,90,8|4|12,0:0|0:0|0:0,0:0:0:0:
156,24,47449,6,0,P|228:44|268:144,1,180,8|0,0:0|0:0,0:0:0:0:
180,136,48386,1,8,0:0:0:0:
269,134,48699,2,0,L|361:174,1,90,4|0,0:0|0:0,0:0:0:0:
264,244,49324,2,0,L|181:208,1,90,4|4,0:0|0:0,0:0:0:0:
288,208,49949,6,0,P|360:188|400:88,1,180,8|4,0:0|0:0,0:0:0:0:
312,96,50886,1,8,0:0:0:0:
220,96,51199,2,0,L|304:56,1,90,4|0,0:0|0:0,0:0:0:0:
192,60,51824,1,4,0:0:0:0:
301,57,52136,1,0,0:0:0:0:
192,60,52449,6,0,P|132:72|76:176,1,180,8|0,0:0|0:0,0:0:0:0:
164,168,53386,1,8,0:0:0:0:
256,168,53699,2,0,L|344:192,1,90
252,264,54324,2,0,L|340:288,1,90
448,288,54949,6,0,P|488:252|492:204,2,90,8|0|0,0:0|0:0|0:0,0:0:0:0:
356,288,55886,1,8,0:0:0:0:
264,288,56199,2,0,L|180:252,1,90
288,252,56824,1,4,0:0:0:0:
181,252,57136,1,4,0:0:0:0:
72,248,57449,6,0,P|28:216|96:144,1,180,8|0,0:0|0:0,0:0:0:0:
184,144,58386,1,8,0:0:0:0:
276,144,58699,2,0,L|196:192,1,90
92,52,59324,1,4,0:0:0:0:
200,52,59636,1,4,0:0:0:0:
308,52,59949,6,0,L|400:52,1,90,8|0,0:0|0:0,0:0:0:0:
288,160,60574,2,0,L|188:160,1,90,4|8,0:0|0:0,0:0:0:0:
288,160,61199,2,0,L|272:248,1,90,4|0,0:0|0:0,0:0:0:0:
148,248,61824,1,4,0:0:0:0:
256,248,62136,1,4,0:0:0:0:
364,248,62449,6,0,L|436:192,2,90,8|4|4,0:0|0:0|0:0,0:0:0:0:
272,248,63386,1,8,0:0:0:0:
364,248,63699,2,4,L|456:248,1,90
364,248,64324,1,0,0:0:0:0:
256,248,64636,1,0,0:0:0:0:
148,248,64949,6,0,L|76:192,2,90,8|4|4,0:0|0:0|0:0,0:0:0:0:
240,248,65886,1,8,0:0:0:0:
148,248,66199,2,4,L|240:248,1,90
328,248,66824,1,4,0:0:0:0:
274,248,66980,1,0,0:0:0:0:
220,248,67136,1,0,0:0:0:0:
256,192,67449,12,0,71199,0:0:0:0:
