osu file format v14

[General]
AudioFilename: Lake - Pokemon DPP.mp3
AudioLeadIn: 0
PreviewTime: 574
Countdown: 0
SampleSet: Soft
StackLeniency: 0.7
Mode: 2
LetterboxInBreaks: 0
WidescreenStoryboard: 0

[Editor]
Bookmarks: 2449,17449,32449,47449,67449
DistanceSpacing: 2
BeatDivisor: 6
GridSize: 4
TimelineZoom: 1.7

[Metadata]
Title:Mizuumi
TitleUnicode:みずうみ
Artist:Go Ichinose
ArtistUnicode:一之瀬剛
Creator:Sinnoh
Version:Platter
Source:ポケットモンスター ダイヤモンド・パール
Tags:JBHyperion Lake Pokemon Diamond Pearl Platinum Nintendo Game Freak
BeatmapID:1147779
BeatmapSetID:516118

[Difficulty]
HPDrainRate:5
CircleSize:3
OverallDifficulty:8
ApproachRate:8
SliderMultiplier:2.4
SliderTickRate:1

[Events]
//Background and Video events
0,0,"poke sunset.jpg",0,0
//Break Periods
//Storyboard Layer 0 (Background)
//Storyboard Layer 1 (Fail)
//Storyboard Layer 2 (Pass)
//Storyboard Layer 3 (Foreground)
//Storyboard Sound Samples

[TimingPoints]
574,937.5,4,2,1,20,1,0
1511,-50,4,2,1,30,0,0
2449,937.5,4,2,1,50,1,0
2449,-50,4,2,1,50,0,0
5964,-50,4,2,1,5,0,0
6199,-50,4,2,1,50,0,0
13464,-50,4,2,1,5,0,0
13699,-50,4,2,1,50,0,0
20964,-50,4,2,1,5,0,0
21199,-50,4,2,1,50,0,0
24714,-50,4,2,1,5,0,0
24949,-50,4,2,1,50,0,0
28464,-50,4,2,1,5,0,0
28699,-50,4,2,1,50,0,0
35964,-50,4,2,1,5,0,0
36199,-50,4,2,1,50,0,0
39714,-50,4,2,1,5,0,0
39949,-50,4,2,1,50,0,0
43464,-50,4,2,1,5,0,0
43699,-50,4,2,1,50,0,0
45730,-50,4,2,1,30,0,0
46199,-50,4,2,1,50,0,0
47449,312.5,4,2,1,80,1,1
47449,-166.666666666667,4,2,1,80,0,1
50105,-125,4,2,1,80,0,1
50574,-166.666666666667,4,2,1,80,0,1
66824,-166.666666666667,4,2,1,50,0,1
67449,937.5,4,2,1,30,1,0
68386,-144.927536231884,4,2,1,20,0,0
69324,-144.927536231884,4,2,1,10,0,0
70261,-144.927536231884,4,2,1,5,0,0

[Colours]
Combo1 : 255,57,57
Combo2 : 228,228,0
Combo3 : 187,93,0

[HitObjects]
313,336,574,5,0,0:0:0:0:
377,296,730,1,0,0:0:0:0:
413,226,886,1,4,0:0:0:0:
414,147,1042,1,0,0:0:0:0:
369,80,1199,1,0,0:0:0:0:
305,32,1355,1,4,0:0:0:0:
196,336,1511,5,0,0:0:0:0:
129,295,1667,1,0,0:0:0:0:
89,226,1823,1,4,0:0:0:0:
88,147,1979,1,0,0:0:0:0:
120,80,2136,1,0,0:0:0:0:
180,32,2292,1,4,0:0:0:0:
356,40,2449,6,0,L|401:118,1,80,8|0,0:0|0:0,0:0:0:0:
251,120,2761,2,0,L|205:198,1,80
68,196,3074,2,0,L|113:274,1,80
252,276,3386,6,0,L|298:354,1,80,4|0,0:0|0:0,0:0:0:0:
436,340,3699,2,0,L|391:262,1,80
252,276,4011,2,0,L|206:354,1,80,8|0,0:0|0:0,0:0:0:0:
460,360,4324,6,0,L|492:328,2,40,2|0|0,0:0|0:0|0:0,0:0:0:0:
256,192,5183,12,0,5964,0:0:0:0:
104,36,6199,6,0,L|64:112,1,80,8|0,0:0|0:0,0:0:0:0:
208,120,6511,2,0,L|248:196,1,80
388,204,6824,2,0,L|348:280,1,80
208,280,7136,6,0,L|168:356,1,80,4|0,0:0|0:0,0:0:0:0:
316,356,7449,2,4,L|356:280,1,80,0|0,0:0|0:0,0:0:0:0:
496,288,7761,2,0,L|456:364,1,80,8|0,0:0|0:0,0:0:0:0:
192,304,8074,6,0,L|148:259,2,40,2|0|0,0:0|0:0|0:0,0:0:0:0:
312,308,8386,2,0,B|400:296|400:296|364:280|364:280|424:256,1,160,0|8,0:0|0:0,0:0:0:0:
216,184,9011,1,4,0:0:0:0:
132,184,9167,1,0,0:0:0:0:
64,372,9324,2,0,B|3:319|3:319|65:216,1,160,8|0,0:0|0:0,0:0:0:0:
162,223,9792,1,0,0:0:0:0:
387,268,9949,6,0,L|444:324,1,80,8|0,0:0|0:0,0:0:0:0:
293,331,10261,2,0,L|229:267,1,80
93,279,10574,2,0,L|157:343,1,80
293,339,10886,6,0,L|357:275,1,80,4|0,0:0|0:0,0:0:0:0:
485,335,11199,2,0,L|421:271,1,80
285,279,11511,2,0,L|221:343,1,80,8|0,0:0|0:0,0:0:0:0:
469,215,11824,6,0,L|501:187,2,40,2|0|0,0:0|0:0|0:0,0:0:0:0:
256,192,12683,12,0,13464,0:0:0:0:
448,56,13699,6,0,L|384:120,1,80,8|8,0:0|0:0,0:0:0:0:
248,120,14011,2,0,L|312:184,1,80,0|8,0:0|0:0,0:0:0:0:
448,180,14324,2,0,L|384:244,1,80,8|0,0:0|0:0,0:0:0:0:
232,112,14636,6,0,L|168:176,1,80,4|0,0:0|0:0,0:0:0:0:
32,176,14948,2,0,L|96:240,1,80
232,236,15261,2,0,L|168:300,1,80,8|0,0:0|0:0,0:0:0:0:
408,300,15574,6,0,L|440:268,2,40,2|0|0,0:0|0:0|0:0,0:0:0:0:
251,82,16042,1,0,0:0:0:0:
185,85,16199,6,0,P|153:137|193:229,1,160,8|4,0:0|0:0,0:0:0:0:
298,226,16667,1,4,0:0:0:0:
397,81,16824,2,0,P|453:93|397:85,1,160,8|4,0:0|0:0,0:0:0:0:
283,85,17292,1,0,0:0:0:0:
60,88,17449,6,0,L|60:188,1,80,8|0,0:0|0:0,0:0:0:0:
204,96,17761,2,0,L|204:196,1,80
348,92,18074,2,0,L|348:172,1,80
176,298,18386,6,0,L|176:218,1,80,4|0,0:0|0:0,0:0:0:0:
316,294,18699,2,0,L|316:194,1,80
460,298,19011,2,0,L|460:218,1,80,8|0,0:0|0:0,0:0:0:0:
188,198,19324,6,0,L|152:166,2,40,2|0|0,0:0|0:0|0:0,0:0:0:0:
256,192,20183,12,0,20964,0:0:0:0:
87,119,21199,6,0,L|87:39,1,80,8|0,0:0|0:0,0:0:0:0:
231,143,21511,2,0,L|231:63,1,80
87,199,21824,2,0,L|87:119,1,80
259,159,22136,6,0,L|259:239,1,80,4|0,0:0|0:0,0:0:0:0:
115,75,22449,2,0,L|115:155,1,80
253,77,22761,2,0,L|253:157,1,80,8|0,0:0|0:0,0:0:0:0:
478,138,23074,6,0,L|478:79,2,40,6|0|0,0:0|0:0|0:0,0:0:0:0:
256,192,23933,12,0,24714,0:0:0:0:
184,64,24949,6,0,L|184:160,1,80,8|0,0:0|0:0,0:0:0:0:
40,112,25261,2,0,L|40:208,1,80,0|8,0:0|0:0,0:0:0:0:
184,128,25574,2,0,L|184:224,1,80,8|0,0:0|0:0,0:0:0:0:
328,264,25886,6,0,L|328:184,1,80,4|0,0:0|0:0,0:0:0:0:
472,340,26198,2,0,L|472:260,1,80
328,324,26511,2,0,L|328:244,1,80,8|0,0:0|0:0,0:0:0:0:
104,244,26824,6,0,L|64:208,2,40,2|0|0,0:0|0:0|0:0,0:0:0:0:
256,192,27683,12,0,28464,0:0:0:0:
184,40,28699,6,0,L|184:136,1,80,8|0,0:0|0:0,0:0:0:0:
328,88,29011,2,0,L|328:184,1,80
184,128,29324,2,0,L|184:224,1,80
328,348,29636,6,0,L|328:268,1,80,4|0,0:0|0:0,0:0:0:0:
472,352,29949,2,0,L|472:272,1,80
328,304,30261,2,0,L|328:224,1,80,8|0,0:0|0:0,0:0:0:0:
72,216,30574,6,0,L|72:152,2,40,6|0|0,0:0|0:0|0:0,0:0:0:0:
322,48,31511,5,4,0:0:0:0:
386,91,31667,1,0,0:0:0:0:
397,165,31823,1,8,0:0:0:0:
344,237,31979,1,0,0:0:0:0:
220,242,32136,1,0,0:0:0:0:
167,241,32292,1,0,0:0:0:0:
413,313,32449,6,0,L|457:246,1,80,8|0,0:0|0:0,0:0:0:0:
297,240,32761,2,0,L|237:328,1,80
413,172,33073,2,0,L|353:260,1,80
209,56,33386,6,0,L|149:144,1,80,4|0,0:0|0:0,0:0:0:0:
325,136,33699,2,0,L|280:202,1,80
121,200,34011,2,0,L|75:266,1,80,8|0,0:0|0:0,0:0:0:0:
331,261,34324,6,0,L|371:221,2,40,2|0|0,0:0|0:0|0:0,0:0:0:0:
256,192,35183,12,0,35964,0:0:0:0:
224,256,36199,6,0,L|178:323,1,80,8|0,0:0|0:0,0:0:0:0:
340,264,36511,2,0,L|294:331,1,80
134,256,36824,2,0,L|180:323,1,80
340,132,37136,6,0,L|386:198,1,80,4|0,0:0|0:0,0:0:0:0:
224,132,37449,2,0,L|270:198,1,80
428,140,37761,2,0,L|382:206,1,80,8|0,0:0|0:0,0:0:0:0:
156,204,38074,6,0,L|156:152,2,40,6|0|0,0:0|0:0|0:0,0:0:0:0:
256,192,38933,12,0,39714,0:0:0:0:
268,276,39949,6,0,L|314:209,1,80,8|0,0:0|0:0,0:0:0:0:
152,200,40261,2,0,L|198:133,1,80
360,132,40574,2,0,L|406:65,1,80
244,60,40886,6,0,L|198:126,1,80,4|0,0:0|0:0,0:0:0:0:
360,132,41199,2,0,L|314:198,1,80
156,188,41511,2,0,L|110:254,1,80,8|0,0:0|0:0,0:0:0:0:
348,256,41824,6,0,L|388:220,2,40,2|0|0,0:0|0:0|0:0,0:0:0:0:
256,192,42683,12,0,43464,0:0:0:0:
296,116,43699,6,0,L|342:182,1,80,8|8,0:0|0:0,0:0:0:0:
184,188,44011,2,0,L|138:254,1,80,0|8,0:0|0:0,0:0:0:0:
300,256,44324,2,0,L|254:322,1,80,8|0,0:0|0:0,0:0:0:0:
100,328,44636,6,0,L|146:262,1,80,4|0,0:0|0:0,0:0:0:0:
300,256,44948,2,0,L|254:190,1,80,8|0,0:0|0:0,0:0:0:0:
96,192,45261,2,0,L|50:126,1,80,8|0,0:0|0:0,0:0:0:0:
292,116,45574,6,0,L|336:76,2,40,10|0|8,0:0|0:0|0:0,0:0:0:0:
79,96,46199,5,8,0:0:0:0:
46,156,46355,1,8,0:0:0:0:
61,221,46511,1,4,0:0:0:0:
114,266,46667,1,4,0:0:0:0:
344,232,46824,5,4,0:0:0:0:
378,250,46902,1,0,0:0:0:0:
380,288,46980,1,4,0:0:0:0:
348,312,47058,1,0,0:0:0:0:
248,152,47136,5,0,0:0:0:0:
215,170,47214,1,0,0:0:0:0:
212,208,47292,1,4,0:0:0:0:
243,231,47370,1,0,0:0:0:0:
344,232,47449,5,8,0:0:0:0:
452,236,47605,2,0,B|488:184|488:184|392:128,1,143.999995605469,8|0,0:0|0:0,0:0:0:0:
240,148,48074,2,0,B|171:188|171:188|207:240,1,143.999995605469,0|8,0:0|0:0,0:0:0:0:
356,240,48542,5,8,0:0:0:0:
448,240,48699,2,0,P|484:220|500:176,2,71.9999978027344
240,224,49324,6,0,P|208:252|208:296,1,71.9999978027344
328,284,49636,2,0,P|360:312|360:356,1,71.9999978027344
140,176,49949,5,8,0:0:0:0:
54,192,50105,2,0,B|49:127|49:127|34:114|34:114|140:111,1,192,8|0,0:0|0:0,0:0:0:0:
310,171,50574,2,0,B|388:171|388:171|344:173|344:173|390:174,1,143.999995605469,0|8,0:0|0:0,0:0:0:0:
241,237,51042,5,8,0:0:0:0:
137,245,51199,1,0,0:0:0:0:
77,198,51355,1,0,0:0:0:0:
67,127,51511,1,0,0:0:0:0:
124,77,51667,1,0,0:0:0:0:
303,198,51824,6,0,L|352:127,1,71.9999978027344
210,135,52136,2,0,L|154:63,1,71.9999978027344
456,88,52449,5,8,0:0:0:0:
465,159,52605,1,8,0:0:0:0:
336,166,52761,2,0,P|339:237|330:319,1,143.999995605469
27,297,53386,5,8,0:0:0:0:
19,242,53542,1,8,0:0:0:0:
149,240,53699,2,0,P|156:213|150:69,1,143.999995605469
424,244,54324,5,0,0:0:0:0:
472,144,54480,2,0,L|412:68,1,71.9999978027344
326,80,54792,1,0,0:0:0:0:
29,137,54949,5,8,0:0:0:0:
27,208,55105,1,8,0:0:0:0:
156,210,55261,2,0,P|161:159|168:54,1,143.999995605469
488,63,55886,5,8,0:0:0:0:
481,149,56042,1,8,0:0:0:0:
350,147,56199,2,0,P|349:176|351:296,1,143.999995605469
61,240,56824,6,0,P|91:259|123:278,1,71.9999978027344
224,232,57136,2,0,P|188:250|162:270,1,71.9999978027344
415,207,57449,6,0,B|514:158|459:127|355:79,1,215.999993408203,8|0,0:0|0:0,0:0:0:0:
187,73,58074,2,0,B|91:69|183:169,1,143.999995605469,0|8,0:0|0:0,0:0:0:0:
323,177,58542,5,8,0:0:0:0:
423,177,58699,2,0,L|483:129,2,71.9999978027344
166,175,59324,5,0,0:0:0:0:
74,158,59480,2,0,P|47:217|105:277,1,143.999995605469
323,261,59949,6,0,P|403:293|319:349,1,215.999993408203,8|0,0:0|0:0,0:0:0:0:
162,357,60574,2,0,P|114:317|166:269,1,143.999995605469,0|8,0:0|0:0,0:0:0:0:
274,273,61042,1,8,0:0:0:0:
390,276,61199,6,0,L|447:220,1,71.9999978027344
441,226,61511,2,0,L|390:277,1,71.9999978027344
163,250,61824,2,0,P|117:245|87:155,1,143.999995605469
379,209,62449,6,8,L|451:161,1,71.9999978027344
487,141,62761,2,0,P|452:239|409:249,1,143.999995605469
147,205,63386,6,8,L|79:145,1,71.9999978027344
39,137,63698,2,0,P|74:235|117:245,1,143.999995605469
360,140,64324,5,0,0:0:0:0:
460,140,64480,2,0,L|528:68,1,71.9999978027344
437,91,64792,1,0,0:0:0:0:
211,240,64949,6,8,L|179:152,1,71.9999978027344
315,168,65261,2,0,L|447:84,1,143.999995605469
163,176,65886,6,8,L|131:96,1,71.9999978027344
267,100,66199,2,0,L|399:16,1,143.999995605469
148,288,66824,5,0,0:0:0:0:
107,288,66902,1,0,0:0:0:0:
69,281,66980,1,4,0:0:0:0:
36,266,67058,1,0,0:0:0:0:
16,236,67136,1,0,0:0:0:0:
3,203,67214,1,0,0:0:0:0:
0,166,67292,1,4,0:0:0:0:
13,132,67370,1,0,0:0:0:0:
40,103,67449,5,4,0:0:0:0:
256,192,67605,12,0,71199,0:0:0:0:
