osu file format v14

[General]
AudioFilename: Team Magma Appears!.mp3
AudioLeadIn: 1500
PreviewTime: 2343
Countdown: 0
SampleSet: Soft
StackLeniency: 0.7
Mode: 0
LetterboxInBreaks: 0
WidescreenStoryboard: 0

[Editor]
DistanceSpacing: 1.5
BeatDivisor: 4
GridSize: 4
TimelineZoom: 2.2

[Metadata]
Title:Magma Dan Toujou!
TitleUnicode:マグマ団登場!
Artist:Go Ichinose
ArtistUnicode:一之瀬剛
Creator:Baraatje123
Version:Sunny Extra
Source:ポケットモンスター オメガルビー・アルファサファイア
Tags:Irreversible Nintendo Pocket Monsters Pokemon Pokémon Omega Ruby and Alpha Sapphire Team Magma Appears Hideaki Kuroda GAME FREAK Junichi Masuda Boss Maxie Admin Courtney Tabitha Grunts Primal Groudon Desolate Land
BeatmapID:714026
BeatmapSetID:320932

[Difficulty]
HPDrainRate:8
CircleSize:4
OverallDifficulty:9
ApproachRate:9
SliderMultiplier:1.6
SliderTickRate:1

[Events]
//Background and Video events
0,0,"Background.png",0,0
//Break Periods
//Storyboard Layer 0 (Background)
//Storyboard Layer 1 (Fail)
//Storyboard Layer 2 (Pass)
//Storyboard Layer 3 (Foreground)
//Storyboard Sound Samples

[TimingPoints]
-900,405.405405405405,4,2,0,70,1,0
8829,-66.6666666666667,4,2,0,70,0,1
15214,-66.6666666666667,4,2,0,70,0,0
15316,-66.6666666666667,4,2,0,70,0,1
15417,-66.6666666666667,4,2,0,70,0,0
16127,-100,4,2,0,70,0,0
16937,-66.6666666666667,4,2,0,70,0,1
17039,-66.6666666666667,4,2,0,70,0,0
18559,-66.6666666666667,4,2,0,70,0,1
18660,-66.6666666666667,4,2,0,70,0,0
19370,-100,4,2,0,70,0,0
20181,-66.6666666666667,4,2,0,70,0,1
20282,-66.6666666666667,4,2,0,70,0,0
21802,-83.3333333333333,4,2,0,70,0,0
23424,-76.9230769230769,4,2,0,70,0,0
29910,-66.6666666666667,4,2,0,70,0,1
36295,-66.6666666666667,4,2,0,70,0,0
36397,-66.6666666666667,4,2,0,70,0,1
36498,-66.6666666666667,4,2,0,70,0,0
37208,-100,4,2,0,70,0,0
38018,-66.6666666666667,4,2,0,70,0,1
38120,-66.6666666666667,4,2,0,70,0,0
39640,-66.6666666666667,4,2,0,70,0,1
39741,-66.6666666666667,4,2,0,70,0,0
40451,-100,4,2,0,70,0,0
41262,-66.6666666666667,4,2,0,70,0,1
41363,-66.6666666666667,4,2,0,70,0,0
42883,-83.3333333333333,4,2,0,70,0,0
44505,-76.9230769230769,4,2,0,70,0,0

[Colours]
Combo1 : 245,154,154
Combo2 : 192,192,192
Combo3 : 79,66,78

[HitObjects]
120,64,518,5,0,0:0:0:0:
120,64,620,1,0,0:0:0:0:
120,64,721,2,0,L|132:112,1,40,12|0,0:3|0:0,0:0:0:0:
212,120,924,2,0,L|202:81,1,40,0|0,0:0|0:0,0:0:0:0:
148,172,1127,2,0,P|188:200|236:196,1,80,8|0,0:3|0:0,0:0:0:0:
344,300,1532,1,12,0:3:0:0:
344,300,1633,1,0,0:0:0:0:
344,300,1735,2,0,P|356:344|332:400,2,80,0|12|0,0:0|0:3|0:0,0:0:0:0:
312,148,2342,6,0,P|304:96|324:52,1,80,12|0,0:3|0:0,0:0:0:0:
340,40,2647,2,0,L|236:16,2,80,0|0|0,0:0|0:0|0:0,0:0:0:0:
376,24,3154,2,0,L|388:128,1,80,8|0,0:3|0:0,0:0:0:0:
408,136,3458,1,0,0:0:0:0:
408,176,3559,1,10,0:3:0:0:
368,244,3762,6,0,L|292:264,1,60,0|0,0:0|2:2,0:0:0:0:
292,268,3964,6,0,L|276:164,1,80,12|0,0:3|0:0,0:0:0:0:
260,112,4370,1,10,0:3:0:0:
230,85,4471,1,0,0:0:0:0:
192,72,4572,1,0,0:0:0:0:
152,74,4674,1,0,0:0:0:0:
117,92,4775,5,8,0:3:0:0:
92,124,4877,2,0,L|96:144,2,20
220,164,5181,5,10,0:3:0:0:
236,200,5282,2,0,L|232:228,2,20
360,72,5586,6,0,P|359:110|376:168,1,80,12|0,0:3|0:0,0:0:0:0:
400,176,5890,2,0,L|308:232,1,80,0|0,0:0|0:0,0:0:0:0:
300,244,6194,1,0,0:0:0:0:
292,284,6295,1,0,0:0:0:0:
304,324,6397,2,0,P|344:356|400:360,1,80,8|0,0:3|0:0,0:0:0:0:
376,279,6802,1,10,0:3:0:0:
300,244,7005,6,0,L|240:232,1,60
220,236,7208,6,0,P|224:184|212:128,1,80,12|0,0:3|0:0,0:0:0:0:
184,84,7613,1,10,0:3:0:0:
147,68,7714,1,0,0:0:0:0:
107,64,7815,1,0,0:0:0:0:
68,71,7917,1,0,0:0:0:0:
32,88,8018,5,8,0:3:0:0:
16,124,8120,2,0,L|23:158,2,20
108,64,8424,5,10,0:3:0:0:
136,40,8525,2,0,L|136:12,2,20
220,156,8829,5,12,0:3:0:0:
220,276,9032,1,0,0:0:0:0:
323,215,9235,1,10,0:3:0:0:
220,156,9437,1,0,0:0:0:0:
161,143,9538,1,0,0:0:0:0:
104,159,9639,1,12,0:3:0:0:
60,199,9741,1,0,0:0:0:0:
40,255,9842,1,0,0:0:0:0:
40,316,9944,2,0,P|40:344|52:376,1,60.0000022888184,4|10,0:1|0:3,0:0:0:0:
168,284,10248,1,4,0:1:0:0:
256,100,10451,5,12,0:3:0:0:
340,185,10654,1,0,0:0:0:0:
256,269,10856,1,10,0:3:0:0:
216,188,11059,1,0,0:0:0:0:
158,170,11160,1,0,0:0:0:0:
101,189,11261,1,12,0:3:0:0:
65,235,11363,1,0,0:0:0:0:
61,293,11464,1,0,0:0:0:0:
91,345,11566,2,0,P|113:364|137:382,1,60.0000022888184,4|10,0:1|0:3,0:0:0:0:
164,276,11870,1,4,0:1:0:0:
360,220,12072,5,12,0:3:0:0:
360,39,12275,1,0,0:0:0:0:
205,130,12478,1,10,0:3:0:0:
360,220,12681,2,0,L|400:161,1,60.0000022888184
205,130,12884,2,0,L|147:112,2,60.0000022888184,12|0|0,0:3|0:0|0:0,0:0:0:0:
286,307,13187,2,0,B|316:332|316:332|396:358|471:258,1,180.000006866455,4|4,0:1|0:1,0:0:0:0:
360,220,13593,1,0,0:0:0:0:
337,205,13694,5,12,0:3:0:0:
105,220,13896,1,0,0:0:0:0:
232,384,14099,1,10,0:3:0:0:
360,220,14302,2,0,L|400:152,1,60.0000022888184,0|0,0:0|0:0,0:0:0:0:
105,220,14505,2,0,L|74:271,2,60.0000022888184,12|0|4,0:3|0:0|0:1,0:0:0:0:
128,40,14809,2,0,B|116:84|116:84|168:88|212:120|224:168,1,180.000006866455,0|4,0:0|0:1,0:0:0:0:
120,216,15214,1,0,0:0:0:0:
105,220,15316,6,0,L|80:288,1,60.0000022888184,4|4,0:0|0:0,0:0:0:0:
407,220,15924,6,0,L|432:288,1,60.0000022888184,4|4,0:0|0:0,0:0:0:0:
344,168,16127,6,0,L|364:124,1,40,8|8,0:3|0:3,0:0:0:0:
308,48,16329,2,0,L|300:88,1,40,8|8,0:3|0:3,0:0:0:0:
212,88,16532,2,0,L|204:48,1,40,8|8,0:3|0:3,0:0:0:0:
151,131,16734,2,0,L|168:168,1,40,8|8,0:3|0:3,0:0:0:0:
105,220,16937,6,0,L|80:288,1,60.0000022888184,4|4,0:0|0:0,0:0:0:0:
84,276,17545,6,0,L|364:264,2,240.000009155274,4|4|4,0:0|0:0|0:0,0:0:0:0:
367,191,18559,6,0,P|389:212|401:239,1,60.0000022888184,4|4,0:0|0:0,0:0:0:0:
144,192,19167,6,0,P|122:171|110:144,1,60.0000022888184,4|4,0:0|0:0,0:0:0:0:
188,120,19370,6,0,L|212:68,1,40,8|8,0:3|0:3,0:0:0:0:
328,124,19573,2,0,L|380:148,1,40,8|8,0:3|0:3,0:0:0:0:
324,264,19776,2,0,L|300:316,1,40,8|8,0:3|0:3,0:0:0:0:
184,260,19978,2,0,L|132:236,1,40,8|8,0:3|0:3,0:0:0:0:
420,208,20181,6,0,L|496:204,1,60.0000022888184,4|4,0:0|0:0,0:0:0:0:
188,120,20721,6,4,B|136:108|136:108|76:108,1,80.0000030517579
105,272,21127,6,4,B|131:272|131:272|183:260,1,80.0000030517579
324,260,21397,6,0,L|404:284,1,60.0000022888184,4|4,0:0|0:0,0:0:0:0:
381,106,21599,2,0,L|324:124,1,60.0000022888184,4|4,0:0|0:0,0:0:0:0:
188,124,21802,5,4,0:0:0:0:
188,124,21904,1,0,0:0:0:0:
188,124,22005,2,0,L|160:72,1,47.9999985351563,0|0,0:0|0:0,0:0:0:0:
89,152,22208,2,0,P|109:188|169:228,1,95.9999970703126,10|0,0:3|0:0,0:0:0:0:
381,106,22613,5,12,0:3:0:0:
381,106,22715,1,0,0:0:0:0:
381,106,22816,2,0,L|409:54,1,47.9999985351563,0|0,0:0|0:0,0:0:0:0:
480,134,23019,2,0,P|460:170|400:210,1,95.9999970703126,14|0,0:3|0:0,0:0:0:0:
256,240,23424,6,0,P|204:240|144:272,1,103.999995239258,12|0,0:3|0:0,0:0:0:0:
116,292,23728,2,0,P|124:232|92:168,2,103.999995239258,0|0|0,0:0|0:0|0:0,0:0:0:0:
64,284,24235,2,0,P|49:333|58:384,1,103.999995239258,8|0,0:3|0:0,0:0:0:0:
112,380,24539,1,0,0:0:0:0:
160,364,24640,1,10,0:3:0:0:
308,304,24843,6,0,L|328:224,1,77.9999964294435,0|0,0:0|2:0,0:0:0:0:
348,212,25045,6,0,P|288:220|228:192,1,103.999995239258,12|0,0:3|0:0,0:0:0:0:
300,116,25451,1,10,0:3:0:0:
350,104,25552,1,0,0:0:0:0:
400,117,25653,1,0,0:0:0:0:
438,152,25755,1,0,0:0:0:0:
448,204,25856,5,8,0:3:0:0:
432,224,25958,2,0,L|448:256,2,25.9999988098145
300,116,26262,5,8,0:3:0:0:
316,96,26364,2,0,L|300:64,2,25.9999988098145
124,80,26667,6,0,P|136:132|124:192,1,103.999995239258,12|0,0:3|0:0,0:0:0:0:
96,224,26971,2,0,P|152:224|224:232,1,103.999995239258,0|0,0:0|0:0,0:0:0:0:
248,252,27275,1,0,0:0:0:0:
300,264,27377,1,0,0:0:0:0:
352,256,27478,2,0,P|400:244|480:260,1,103.999995239258,8|0,0:3|0:0,0:0:0:0:
408,344,27883,1,10,0:3:0:0:
352,256,28086,6,0,L|348:172,1,77.9999964294435,0|0,0:0|2:0,0:0:0:0:
360,156,28289,6,0,P|268:152|220:120,1,103.999995239258,12|0,0:3|0:0,0:0:0:0:
168,100,28694,1,10,0:3:0:0:
117,105,28795,1,0,0:0:0:0:
81,141,28896,1,0,0:0:0:0:
75,191,28998,1,0,0:0:0:0:
96,240,29099,5,8,0:3:0:0:
104,264,29201,2,0,L|92:300,2,25.9999988098145
168,100,29505,5,8,0:3:0:0:
160,76,29607,2,0,L|172:40,2,25.9999988098145
332,108,29910,5,12,0:3:0:0:
420,248,30113,1,0,0:0:0:0:
254,254,30316,1,10,0:3:0:0:
332,108,30518,1,0,0:0:0:0:
281,139,30619,1,0,0:0:0:0:
223,151,30720,1,12,0:3:0:0:
164,142,30822,1,0,0:0:0:0:
112,113,30923,1,0,0:0:0:0:
73,67,31025,2,0,L|24:120,1,60.0000022888184,4|10,0:0|0:3,0:0:0:0:
260,300,31329,1,4,0:0:0:0:
240,48,31532,5,0,0:0:0:0:
269,211,31735,1,12,0:3:0:0:
396,104,31937,1,10,0:3:0:0:
198,284,32140,1,0,0:0:0:0:
140,270,32241,1,0,0:0:0:0:
92,234,32342,1,12,0:3:0:0:
63,183,32444,1,0,0:0:0:0:
56,124,32545,1,0,0:0:0:0:
74,67,32647,2,0,L|16:36,1,60.0000022888184,4|10,0:0|0:3,0:0:0:0:
396,104,32951,1,4,0:0:0:0:
396,104,33154,5,12,0:3:0:0:
116,104,33357,1,0,0:0:0:0:
256,347,33559,1,10,0:3:0:0:
208,160,33762,2,0,L|192:224,1,60.0000022888184
348,196,33964,2,0,L|333:254,2,60.0000022888184,12|0|0,0:3|0:0|0:0,0:0:0:0:
252,68,34269,2,0,B|208:48|164:68|164:68|108:96|40:68,1,180.000006866455,4|4,0:0|0:0,0:0:0:0:
68,188,34674,1,0,0:0:0:0:
72,200,34775,5,12,0:3:0:0:
248,8,34978,1,0,0:0:0:0:
440,184,35181,1,10,0:3:0:0:
264,376,35383,2,0,L|364:368,1,60.0000022888184
308,252,35586,2,0,L|242:254,2,60.0000022888184,12|0|4,0:3|0:0|0:0,0:0:0:0:
308,252,35890,2,0,B|315:204|283:167|283:167|236:120|249:48,1,180.000006866455,0|4,0:0|0:0,0:0:0:0:
348,88,36295,1,0,0:0:0:0:
356,96,36397,6,0,L|424:80,1,60.0000022888184,4|4,0:0|0:0,0:0:0:0:
156,96,37005,6,0,L|88:80,1,60.0000022888184,4|4,0:0|0:0,0:0:0:0:
160,180,37208,6,0,L|144:224,1,40,8|8,0:3|0:3,0:0:0:0:
200,292,37410,2,0,L|216:248,1,40,8|8,0:3|0:3,0:0:0:0:
298,254,37613,2,0,L|312:292,1,40,8|8,0:3|0:3,0:0:0:0:
365,217,37816,2,0,L|352:180,1,40,8|8,0:3|0:3,0:0:0:0:
356,96,38018,6,0,L|424:80,1,60.0000022888184,4|4,0:0|0:0,0:0:0:0:
200,292,38627,6,0,B|144:308|144:308|96:264|-16:288|-4:392,2,240.000009155274,4|4|4,0:0|0:0|0:0,0:0:0:0:
340,232,39640,6,0,L|412:272,1,60.0000022888184,4|4,0:0|0:0,0:0:0:0:
172,232,40248,6,0,L|100:272,1,60.0000022888184,4|4,0:0|0:0,0:0:0:0:
152,148,40451,6,0,L|136:92,1,40,8|8,0:3|0:3,0:0:0:0:
200,40,40654,2,0,L|216:96,1,40,8|8,0:3|0:3,0:0:0:0:
300,80,40856,2,0,L|310:41,1,40,8|8,0:3|0:3,0:0:0:0:
370,109,41059,2,0,L|360:148,1,40,8|8,0:3|0:3,0:0:0:0:
340,232,41262,6,0,L|412:272,1,60.0000022888184,4|4,0:0|0:0,0:0:0:0:
152,148,41802,6,4,B|132:120|132:120|132:56,1,80.0000030517579
132,309,42208,6,4,B|132:264|132:264|152:236,1,80.0000030517579
328,112,42478,6,0,L|392:96,1,60.0000022888184,4|4,0:0|0:0,0:0:0:0:
386,286,42681,2,0,L|328:272,1,60.0000022888184,4|4,0:0|0:0,0:0:0:0:
220,184,42883,5,4,0:3:0:0:
220,184,42985,1,0,0:0:0:0:
220,184,43086,2,0,L|160:176,1,47.9999985351563,0|0,0:0|0:0,0:0:0:0:
96,184,43289,2,0,P|104:128|76:52,1,95.9999970703126,8|0,0:3|0:0,0:0:0:0:
228,80,43694,5,8,0:3:0:0:
228,80,43796,1,0,0:0:0:0:
228,80,43897,2,0,L|288:88,1,47.9999985351563,0|0,0:0|0:0,0:0:0:0:
352,80,44100,2,0,P|344:136|372:212,1,95.9999970703126,8|0,0:3|0:0,0:0:0:0:
444,128,44505,5,4,0:0:0:0:
