osu file format v14

[General]
AudioFilename: Team Magma Appears!.mp3
AudioLeadIn: 1500
PreviewTime: 2343
Countdown: 0
SampleSet: Soft
StackLeniency: 0.7
Mode: 0
LetterboxInBreaks: 0
WidescreenStoryboard: 0

[Editor]
DistanceSpacing: 1.35
BeatDivisor: 4
GridSize: 4
TimelineZoom: 1.5

[Metadata]
Title:Magma Dan Toujou!
TitleUnicode:マグマ団登場!
Artist:Go Ichinose
ArtistUnicode:一之瀬剛
Creator:Baraatje123
Version:Cloudy Normal
Source:ポケットモンスター オメガルビー・アルファサファイア
Tags:Irreversible Nintendo Pocket Monsters Pokemon Pokémon Omega Ruby and Alpha Sapphire Team Magma Appears Hideaki Kuroda GAME FREAK Junichi Masuda Boss Maxie Admin Courtney Tabitha Grunts Primal Groudon Desolate Land
BeatmapID:714029
BeatmapSetID:320932

[Difficulty]
HPDrainRate:4
CircleSize:3
OverallDifficulty:4
ApproachRate:5
SliderMultiplier:1.2
SliderTickRate:1

[Events]
//Background and Video events
0,0,"Background.png",0,0
//Break Periods
//Storyboard Layer 0 (Background)
//Storyboard Layer 1 (Fail)
//Storyboard Layer 2 (Pass)
//Storyboard Layer 3 (Foreground)
//Storyboard Sound Samples

[TimingPoints]
-900,405.405405405405,4,2,0,70,1,0
8829,-83.3333333333333,4,2,0,80,0,1
15214,-83.3333333333333,4,2,0,70,0,0
15316,-83.3333333333333,4,2,0,80,0,1
15417,-83.3333333333333,4,2,0,70,0,0
16937,-83.3333333333333,4,2,0,80,0,1
17039,-83.3333333333333,4,2,0,70,0,0
18559,-83.3333333333333,4,2,0,80,0,1
18660,-83.3333333333333,4,2,0,70,0,0
20181,-83.3333333333333,4,2,0,80,0,1
20282,-83.3333333333333,4,2,0,70,0,0
21802,-90.9090909090909,4,2,0,70,0,0
23424,-100,4,2,0,70,0,0
29910,-83.3333333333333,4,2,0,80,0,1
36295,-83.3333333333333,4,2,0,70,0,0
36397,-83.3333333333333,4,2,0,80,0,1
36498,-83.3333333333333,4,2,0,70,0,0
38018,-83.3333333333333,4,2,0,80,0,1
38120,-83.3333333333333,4,2,0,70,0,0
39640,-83.3333333333333,4,2,0,80,0,1
39741,-83.3333333333333,4,2,0,70,0,0
41262,-83.3333333333333,4,2,0,80,0,1
41363,-83.3333333333333,4,2,0,70,0,0
42883,-83.3333333333333,4,2,0,70,0,0
44505,-76.9230769230769,4,2,0,70,0,0

[Colours]
Combo1 : 245,154,154
Combo2 : 192,192,192
Combo3 : 79,66,78

[HitObjects]
144,76,518,5,0,0:0:0:0:
108,148,721,6,0,P|104:176|132:264,1,120,12|8,0:3|0:3,0:0:0:0:
192,316,1329,1,0,0:0:0:0:
256,364,1532,1,12,0:3:0:0:
319,313,1735,1,0,0:0:0:0:
340,236,1937,2,0,P|360:208|372:156,1,60,8|0,0:3|0:0,0:0:0:0:
375,102,2343,6,0,P|355:66|331:46,1,60,12|0,0:3|0:0,0:0:0:0:
261,39,2748,1,10,0:3:0:0:
156,164,3154,2,0,P|136:132|132:96,1,60,8|0,0:3|0:0,0:0:0:0:
277,180,3762,1,0,0:0:0:0:
219,236,3964,6,0,P|195:252|166:260,1,60,12|0,0:3|0:0,0:0:0:0:
84,246,4370,1,10,0:3:0:0:
30,185,4572,1,0,0:0:0:0:
53,107,4775,2,0,L|62:32,1,60,8|0,0:3|0:0,0:0:0:0:
140,59,5181,2,0,L|149:-1,1,60,10|0,0:3|0:0,0:0:0:0:
224,29,5586,6,0,P|256:41|352:37,1,120,12|10,0:3|0:3,0:0:0:0:
419,20,6194,2,0,P|407:52|411:148,1,120
433,213,6802,2,0,P|441:249|437:289,1,60,10|0,0:3|0:0,0:0:0:0:
364,300,7208,6,0,P|364:329|371:358,1,60,12|0,0:3|0:0,0:0:0:0:
220,299,7816,1,0,0:0:0:0:
187,227,8018,2,0,L|171:159,1,60,8|0,0:3|0:0,0:0:0:0:
232,112,8424,2,0,L|216:44,1,60,10|0,0:3|0:0,0:0:0:0:
292,24,8829,6,0,L|377:29,1,71.9999978027344,12|0,0:3|0:0,0:0:0:0:
356,116,9235,2,0,L|428:124,1,71.9999978027344,10|0,0:3|0:0,0:0:0:0:
424,212,9640,2,0,B|424:248|424:248|408:276|408:276|420:300|412:328,2,107.999996704102,12|4|4,0:3|0:1|0:1,0:0:0:0:
336,220,10451,6,0,L|260:208,1,71.9999978027344,12|0,0:3|0:0,0:0:0:0:
260,296,10857,2,0,L|188:284,1,71.9999978027344,10|0,0:3|0:0,0:0:0:0:
116,240,11262,2,0,P|96:178|51:148,2,107.999996704102,12|4|4,0:3|0:1|0:1,0:0:0:0:
32,232,12072,6,0,L|36:316,1,71.9999978027344,12|0,0:3|0:0,0:0:0:0:
108,352,12478,2,0,L|192:348,1,71.9999978027344,10|0,0:3|0:0,0:0:0:0:
256,304,12883,2,0,B|288:312|288:312|312:300|312:300|336:312|392:304,2,107.999996704102,12|4|4,0:3|0:1|0:1,0:0:0:0:
256,216,13694,6,0,L|224:144,2,71.9999978027344,12|0|10,0:3|0:0|0:3,0:0:0:0:
324,164,14302,1,0,0:0:0:0:
384,100,14505,2,0,L|416:28,2,71.9999978027344,12|4|14,0:3|0:1|0:3,0:0:0:0:
308,56,15113,1,0,0:0:0:0:
224,28,15316,6,0,B|184:76|184:76|156:8|72:8|44:48,1,215.999993408203,4|4,0:0|0:0,0:0:0:0:
104,108,16127,2,0,B|104:144|104:144|120:176|120:176|120:212|120:212|136:244|136:244|136:280|136:280|152:312|152:312|152:348|152:348|168:384,1,287.999991210938,8|4,0:3|0:0,0:0:0:0:
416,272,17545,2,0,B|416:248|416:248|436:228|436:228|448:200|440:160|400:136,2,143.999995605469,4|4|4,0:0|0:0|0:0,0:0:0:0:
455,348,18559,6,0,P|355:333|338:234,1,215.999993408203,4|4,0:0|0:0,0:0:0:0:
336,148,19370,2,0,B|300:148|300:148|268:132|268:132|232:132|232:132|200:116|200:116|164:116|164:116|132:100|132:100|96:100|96:100|64:84,1,287.999991210938,8|4,0:3|0:0,0:0:0:0:
184,280,20721,6,4,P|240:284|316:348,1,143.999995605469
360,308,21262,2,4,P|364:252|408:188,1,119.999996337891
356,128,21802,6,0,P|284:152|208:128,1,132.00000402832,8|10,0:3|0:3,0:0:0:0:
149,155,22410,1,0,0:0:0:0:
92,214,22613,1,12,0:3:0:0:
130,286,22816,1,0,0:0:0:0:
210,268,23018,2,0,P|246:276|298:272,1,66.0000020141602,10|0,0:3|0:0,0:0:0:0:
352,252,23424,5,12,0:3:0:0:
460,131,23829,1,10,0:3:0:0:
352,252,24235,2,0,P|384:272|420:280,1,60,8|0,0:3|0:0,0:0:0:0:
337,130,24843,1,0,0:0:0:0:
280,188,25045,6,0,P|260:216|256:268,1,60,12|0,0:3|0:3,0:0:0:0:
269,320,25451,1,10,0:3:0:0:
201,364,25654,1,0,0:0:0:0:
128,328,25856,2,0,L|88:252,1,60,8|0,0:3|0:0,0:0:0:0:
162,222,26262,2,0,L|122:146,1,60,10|0,0:3|0:0,0:0:0:0:
92,100,26667,6,0,P|156:112|212:92,1,120,12|10,0:3|0:3,0:0:0:0:
266,39,27276,2,0,P|254:103|274:159,1,120
305,226,27883,2,0,P|313:258|313:298,1,60,10|0,0:3|0:0,0:0:0:0:
240,320,28289,6,0,P|241:349|249:378,1,60,12|0,0:3|0:0,0:0:0:0:
330,380,28694,1,10,0:3:0:0:
408,361,28897,1,0,0:0:0:0:
428,284,29099,2,0,L|432:216,1,60,8|0,0:3|0:0,0:0:0:0:
352,232,29505,2,0,L|356:164,1,60,10|0,0:3|0:0,0:0:0:0:
292,120,29910,6,0,P|236:124|168:108,1,71.9999978027344,12|0,0:3|0:0,0:0:0:0:
252,40,30316,2,0,P|308:36|376:52,1,71.9999978027344,10|0,0:3|0:0,0:0:0:0:
404,72,30721,2,0,P|452:136|448:168,2,107.999996704102,12|4|4,0:3|0:0|0:0,0:0:0:0:
364,149,31532,6,0,L|368:225,1,71.9999978027344,12|0,0:3|0:0,0:0:0:0:
284,240,31938,2,0,L|287:311,1,71.9999978027344,10|0,0:3|0:0,0:0:0:0:
208,344,32343,2,0,P|144:332|112:280,2,107.999996704102,12|4|4,0:3|0:0|0:0,0:0:0:0:
200,256,33154,6,0,P|200:224|232:168,1,71.9999978027344,12|0,0:3|0:0,0:0:0:0:
298,171,33559,2,0,P|298:203|266:259,1,71.9999978027344,10|0,0:3|0:0,0:0:0:0:
312,320,33964,2,0,P|344:296|376:208,2,107.999996704102,12|4|4,0:3|0:0|0:0,0:0:0:0:
228,340,34775,6,0,L|152:340,2,71.9999978027344,12|0|10,0:3|0:0|0:3,0:0:0:0:
192,260,35383,1,0,0:0:0:0:
156,180,35586,2,0,L|80:180,2,71.9999978027344,12|4|14,0:3|0:0|0:3,0:0:0:0:
192,100,36194,1,0,0:0:0:0:
256,36,36397,6,0,P|320:40|344:176,1,215.999993408203,4|4,0:0|0:0,0:0:0:0:
284,116,37208,2,0,B|258:141|258:141|247:175|247:175|221:200|221:200|210:234|210:234|185:260|185:260|173:294|173:294|148:319|148:319|136:353,1,287.999991210938,8|4,0:3|0:0,0:0:0:0:
136,96,38627,2,0,B|108:88|108:88|88:96|88:96|64:100|32:88|16:48,2,143.999995605469,4|4|4,0:0|0:0|0:0,0:0:0:0:
216,64,39640,6,0,P|280:68|304:204,1,215.999993408203,4|4,0:0|0:0,0:0:0:0:
244,144,40451,2,0,B|218:169|218:169|207:203|207:203|181:228|181:228|170:262|170:262|145:288|145:288|133:322|133:322|108:347|108:347|96:381,1,287.999991210938,8|4,0:3|0:0,0:0:0:0:
324,348,41802,6,4,P|340:304|420:248,1,143.999995605469
472,236,42343,2,0,P|428:220|376:148,1,119.999996337891,4|0,0:0|0:0,0:0:0:0:
340,92,42883,6,0,P|268:116|184:88,1,143.999995605469,8|10,0:3|0:3,0:0:0:0:
124,132,43491,1,0,0:0:0:0:
56,188,43694,1,12,0:3:0:0:
116,252,43897,1,0,0:0:0:0:
188,204,44099,2,0,P|228:196|276:208,1,71.9999978027344,10|0,0:3|0:0,0:0:0:0:
228,290,44505,5,4,0:3:0:0:
