osu file format v14

[General]
AudioFilename: Team Magma Appears!.mp3
AudioLeadIn: 1500
PreviewTime: 2343
Countdown: 0
SampleSet: Soft
StackLeniency: 0.7
Mode: 0
LetterboxInBreaks: 0
WidescreenStoryboard: 0

[Editor]
DistanceSpacing: 1.3
BeatDivisor: 4
GridSize: 4
TimelineZoom: 1.9

[Metadata]
Title:Magma Dan Toujou!
TitleUnicode:マグマ団登場!
Artist:Go Ichinose
ArtistUnicode:一之瀬剛
Creator:Baraatje123
Version:Clear Hard
Source:ポケットモンスター オメガルビー・アルファサファイア
Tags:Irreversible Nintendo Pocket Monsters Pokemon Pokémon Omega Ruby and Alpha Sapphire Team Magma Appears Hideaki Kuroda GAME FREAK Junichi Masuda Boss Maxie Admin Courtney Tabitha Grunts Primal Groudon Desolate Land
BeatmapID:714028
BeatmapSetID:320932

[Difficulty]
HPDrainRate:6
CircleSize:3.5
OverallDifficulty:6
ApproachRate:7.5
SliderMultiplier:1.4
SliderTickRate:1

[Events]
//Background and Video events
0,0,"Background.png",0,0
//Break Periods
//Storyboard Layer 0 (Background)
//Storyboard Layer 1 (Fail)
//Storyboard Layer 2 (Pass)
//Storyboard Layer 3 (Foreground)
//Storyboard Sound Samples

[TimingPoints]
-900,405.405405405405,4,2,0,70,1,0
8829,-66.6666666666667,4,2,0,80,0,1
15214,-66.6666666666667,4,2,0,70,0,0
15316,-66.6666666666667,4,2,0,80,0,1
15417,-66.6666666666667,4,2,0,70,0,0
16127,-100,4,2,0,70,0,0
16937,-66.6666666666667,4,2,0,80,0,1
17039,-66.6666666666667,4,2,0,70,0,0
18559,-66.6666666666667,4,2,0,80,0,1
18660,-66.6666666666667,4,2,0,70,0,0
19370,-100,4,2,0,70,0,0
20181,-66.6666666666667,4,2,0,80,0,1
20282,-66.6666666666667,4,2,0,70,0,0
21802,-83.3333333333333,4,2,0,70,0,0
23424,-100,4,2,0,70,0,0
29910,-66.6666666666667,4,2,0,80,0,1
36295,-66.6666666666667,4,2,0,70,0,0
36397,-66.6666666666667,4,2,0,80,0,1
36498,-66.6666666666667,4,2,0,70,0,0
37208,-100,4,2,0,70,0,0
38018,-66.6666666666667,4,2,0,80,0,1
38120,-66.6666666666667,4,2,0,70,0,0
39640,-66.6666666666667,4,2,0,80,0,1
39741,-66.6666666666667,4,2,0,70,0,0
40451,-100,4,2,0,70,0,0
41262,-66.6666666666667,4,2,0,80,0,1
41363,-66.6666666666667,4,2,0,70,0,0
42883,-83.3333333333333,4,2,0,70,0,0
44505,-76.9230769230769,4,2,0,70,0,0

[Colours]
Combo1 : 245,154,154
Combo2 : 192,192,192
Combo3 : 79,66,78

[HitObjects]
164,80,518,5,0,0:0:0:0:
164,80,620,1,0,0:0:0:0:
164,80,721,2,0,L|168:160,1,70,12|0,0:3|0:0,0:0:0:0:
256,192,1127,1,8,0:3:0:0:
344,149,1329,2,0,L|348:80,1,70,0|12,0:0|0:3,0:0:0:0:
348,79,1633,1,0,0:0:0:0:
348,79,1735,1,0,0:0:0:0:
256,192,1937,1,12,0:3:0:0:
256,192,2140,1,0,0:0:0:0:
180,276,2343,6,0,B|144:212,1,70,12|0,0:3|0:0,0:0:0:0:
132,168,2647,2,0,P|88:192|40:184,2,70,0|0|0,0:0|0:0|0:0,0:0:0:0:
168,136,3154,2,0,P|212:112|260:120,1,70,8|0,0:3|0:0,0:0:0:0:
232,208,3559,1,10,0:3:0:0:
232,208,3964,6,0,L|236:288,1,70,12|0,0:3|0:0,0:0:0:0:
432,284,4572,1,0,0:0:0:0:
384,200,4775,2,0,P|376:176|376:112,1,70,8|0,0:3|0:0,0:0:0:0:
456,79,5181,2,0,P|466:113|468:148,1,70,10|0,0:3|0:0,0:0:0:0:
384,200,5586,6,0,L|312:204,1,70,12|0,0:3|0:0,0:0:0:0:
272,232,5890,2,0,P|264:184|240:148,2,70,0|0|0,0:0|0:0|0:0,0:0:0:0:
264,280,6397,2,0,P|272:328|296:364,1,70,8|0,0:3|0:0,0:0:0:0:
362,290,6802,1,10,0:3:0:0:
362,290,7208,6,0,L|384:204,1,70,12|0,0:3|0:0,0:0:0:0:
344,108,7613,1,10,0:3:0:0:
256,68,7816,1,0,0:0:0:0:
172,116,8018,2,0,L|152:196,1,70,8|0,0:3|0:0,0:0:0:0:
40,272,8424,2,0,L|56:204,1,70,10|0,0:3|0:0,0:0:0:0:
172,116,8829,6,0,B|196:80|196:80|256:68,1,105.000004005432,12|0,0:3|0:0,0:0:0:0:
372,120,9235,2,0,B|348:156|348:156|288:168,1,105.000004005432,10|0,0:3|0:0,0:0:0:0:
172,116,9640,2,0,B|120:112|120:112|124:160|108:208|48:224,2,157.500006008148,12|4|4,0:3|0:1|0:1,0:0:0:0:
208,236,10451,6,0,L|192:348,1,105.000004005432,12|0,0:3|0:0,0:0:0:0:
318,339,10857,2,0,L|304:236,1,105.000004005432,10|0,0:3|0:0,0:0:0:0:
256,120,11262,2,0,B|236:68|236:68|284:76|284:76|336:68,2,157.500006008148,12|4|4,0:3|0:1|0:1,0:0:0:0:
368,176,12072,6,0,P|380:216|384:284,1,105.000004005432,12|0,0:3|0:0,0:0:0:0:
272,336,12478,2,0,P|260:296|256:228,1,105.000004005432,10|0,0:3|0:0,0:0:0:0:
368,176,12883,2,0,B|408:168|408:168|460:172|460:172|496:132|476:88,2,157.500006008148,12|4|4,0:3|0:1|0:1,0:0:0:0:
252,124,13694,6,0,L|148:112,1,105.000004005432,12|0,0:3|0:0,0:0:0:0:
68,212,14100,2,0,L|172:224,1,105.000004005432,10|0,0:3|0:0,0:0:0:0:
252,124,14505,1,12,0:3:0:0:
247,252,14708,1,4,0:1:0:0:
177,146,14910,1,14,0:3:0:0:
297,190,15113,1,4,0:1:0:0:
172,224,15316,5,4,0:0:0:0:
95,139,15924,5,4,0:0:0:0:
177,146,16127,6,0,L|212:144,3,35,8|8|8|8,0:3|0:3|0:3|0:3,0:0:0:0:
269,160,16532,2,0,L|296:183,3,35,8|8|8|8,0:3|0:3|0:3|0:3,0:0:0:0:
339,224,16937,5,4,0:0:0:0:
94,113,17545,6,0,B|85:86|65:65|65:65|113:89|181:65|181:65|137:41,2,210.000008010865,4|4|4,0:0|0:0|0:0,0:0:0:0:
0,136,18559,5,4,0:0:0:0:
336,340,19167,5,4,0:0:0:0:
328,348,19268,1,0,0:0:0:0:
320,356,19370,6,8,L|300:328,3,35,8|8|8|8,0:3|0:3|0:3|0:3,0:3:0:0:
244,352,19776,2,0,L|224:324,2,35,8|8|8,0:3|0:3|0:3,0:0:0:0:
98,331,20181,5,0,0:0:0:0:
132,116,20721,6,0,L|168:20,1,70.0000026702882,4|4,0:0|0:0,0:0:0:0:
355,50,21127,6,0,L|380:116,1,70.0000026702882,4|4,0:0|0:0,0:0:0:0:
380,200,21397,6,0,L|368:260,3,52.5000020027161,4|4|4|4,0:0|0:0|0:0|0:0,0:0:0:0:
344,292,21802,5,4,0:0:0:0:
320,304,21904,1,0,0:0:0:0:
296,316,22005,1,0,0:0:0:0:
272,328,22106,1,0,0:0:0:0:
248,340,22208,2,0,P|208:340|152:356,1,83.9999974365235,10|0,0:3|0:0,0:0:0:0:
144,252,22613,2,0,P|164:217|178:160,1,83.9999974365235,12|0,0:3|0:0,0:0:0:0:
272,205,23018,2,0,P|292:239|333:280,1,83.9999974365235,14|0,0:3|0:0,0:0:0:0:
380,176,23424,6,0,B|416:112,1,70,12|0,0:3|0:0,0:0:0:0:
428,68,23728,2,0,P|472:92|520:84,2,70,0|0|0,0:0|0:0|0:0,0:0:0:0:
392,36,24235,2,0,P|348:12|300:20,1,70,8|0,0:3|0:0,0:0:0:0:
328,108,24640,1,10,0:3:0:0:
160,104,25045,6,0,L|80:72,1,70,12|0,0:3|0:0,0:0:0:0:
164,232,25654,1,0,0:0:0:0:
156,316,25856,2,0,L|204:368,1,70,8|0,0:3|0:0,0:0:0:0:
308,368,26262,2,0,L|356:316,1,70,10|0,0:3|0:0,0:0:0:0:
404,248,26667,6,0,B|340:212,1,70,12|0,0:3|0:0,0:0:0:0:
296,200,26971,2,0,P|320:156|312:108,2,70,0|0|0,0:0|0:0|0:0,0:0:0:0:
264,236,27478,2,0,P|240:280|248:328,1,70,8|0,0:3|0:0,0:0:0:0:
336,300,27883,1,10,0:3:0:0:
388,140,28289,6,0,L|396:48,1,70,12|0,0:3|0:0,0:0:0:0:
288,16,28694,1,10,0:3:0:0:
224,76,28897,1,0,0:0:0:0:
144,104,29099,2,0,L|72:128,1,70,8|0,0:3|0:0,0:0:0:0:
80,212,29505,2,0,L|152:188,1,70,10|0,0:3|0:0,0:0:0:0:
224,76,29910,6,0,L|336:84,1,105.000004005432,12|0,0:3|0:0,0:0:0:0:
400,188,30316,2,0,L|288:180,1,105.000004005432,10|0,0:3|0:0,0:0:0:0:
224,76,30721,2,0,B|172:72|172:72|112:44|40:68,2,157.500006008148,12|4|4,0:3|0:0|0:0,0:0:0:0:
164,188,31532,6,0,L|132:296,1,105.000004005432,12|0,0:3|0:0,0:0:0:0:
232,368,31938,2,0,L|264:260,1,105.000004005432,10|0,0:3|0:0,0:0:0:0:
164,188,32343,2,0,B|116:168|116:168|64:184|64:184|44:172|4:172,2,157.500006008148,12|4|4,0:3|0:0|0:0,0:0:0:0:
256,100,33154,6,0,B|308:88|308:88|368:92,1,105.000004005432,12|0,0:3|0:0,0:0:0:0:
452,176,33559,2,0,B|400:188|400:188|340:184,1,105.000004005432,10|0,0:3|0:0,0:0:0:0:
256,100,33964,2,0,B|240:48|240:48|188:56|188:56|132:48,2,157.500006008148,12|4|4,0:3|0:0|0:0,0:0:0:0:
144,160,34775,5,12,0:3:0:0:
131,264,34977,1,0,0:0:0:0:
232,344,35181,1,10,0:3:0:0:
244,239,35384,1,0,0:0:0:0:
278,115,35586,1,4,0:0:0:0:
322,235,35789,1,14,0:3:0:0:
216,165,35991,1,4,0:0:0:0:
344,160,36194,1,12,0:3:0:0:
244,239,36397,5,4,0:0:0:0:
396,296,37005,5,4,0:0:0:0:
328,256,37208,6,0,L|338:222,3,35,8|8|8|8,0:3|0:3|0:3|0:3,0:0:0:0:
336,162,37613,2,0,L|308:136,3,35,8|8|8|8,0:3|0:3|0:3|0:3,0:0:0:0:
244,144,38018,5,4,0:0:0:0:
120,300,38627,6,0,B|86:345|86:345|90:292|42:238|42:238|37:288,2,210.000008010865,4|4|4,0:0|0:0|0:0,0:0:0:0:
252,256,39640,5,4,0:0:0:0:
368,116,40248,5,4,0:0:0:0:
368,116,40349,1,0,0:0:0:0:
368,116,40451,6,8,L|352:156,3,35,8|8|8|8,0:3|0:3|0:3|0:3,0:3:0:0:
296,160,40856,2,0,L|280:200,2,35,8|8|8,0:3|0:3|0:3,0:0:0:0:
372,232,41262,5,4,0:0:0:0:
147,153,41802,6,4,L|156:84,1,70.0000026702882
356,84,42208,6,4,L|365:153,1,70.0000026702882
316,200,42478,6,0,L|296:256,3,52.5000020027161,4|4|4|4,0:0|0:0|0:0|0:0,0:0:0:0:
252,268,42883,5,4,0:3:0:0:
224,268,42985,1,0,0:0:0:0:
196,268,43086,1,0,0:0:0:0:
168,268,43187,1,0,0:0:0:0:
140,268,43289,2,0,P|140:220|124:160,1,83.9999974365235,8|0,0:3|0:0,0:0:0:0:
208,104,43694,1,8,0:3:0:0:
243,125,43795,1,0,0:0:0:0:
283,139,43896,1,0,0:0:0:0:
344,228,44099,1,8,0:3:0:0:
276,312,44302,1,0,0:0:0:0:
140,268,44505,5,4,0:0:0:0:
