osu file format v14

[General]
AudioFilename: Pokemart - Pokemon Diamond & Pearl Music Extended.mp3
AudioLeadIn: 0
PreviewTime: 4141
Countdown: 0
SampleSet: Soft
StackLeniency: 0.7
Mode: 2
LetterboxInBreaks: 0
WidescreenStoryboard: 1

[Editor]
Bookmarks: 5504,16413,21073,28118,33573,41186,46073
DistanceSpacing: 1.7
BeatDivisor: 6
GridSize: 4
TimelineZoom: 1.5

[Metadata]
Title:Friendly Shop
TitleUnicode:フレンドリィショップ
Artist:Go Ichinose
ArtistUnicode:一之瀬剛
Creator:Sinnoh
Version:Salad
Source:ポケットモンスターダイヤモンド&パール
Tags:Nintendo Poke Mart Pokemart Game Freak Hitomi Sato Pokemon Diamond Pearl Platinum Magic Bomb MBomb Olib Ascendance Piku
BeatmapID:1233419
BeatmapSetID:478818

[Difficulty]
HPDrainRate:4
CircleSize:3
OverallDifficulty:6.5
ApproachRate:6.5
SliderMultiplier:2.2
SliderTickRate:1

[Events]
//Background and Video events
0,0,"Snowy Sinnoh.jpg",0,0
//Break Periods
//Storyboard Layer 0 (Background)
//Storyboard Layer 1 (Fail)
//Storyboard Layer 2 (Pass)
//Storyboard Layer 3 (Foreground)
//Storyboard Sound Samples

[TimingPoints]
164,681.818181818181,4,2,1,70,1,0
3118,-100,4,2,1,40,0,0
4048,-100,4,2,1,70,0,0
24936,-100,4,2,1,40,0,0
25150,-100,4,2,1,70,0,0
25618,-100,4,2,1,40,0,0
25826,-100,4,2,1,70,0,0
26065,-100,4,2,1,40,0,0
27993,-100,4,2,1,70,0,0
32081,-100,4,2,1,40,0,0
33686,-100,4,2,1,70,0,0
34946,-100,4,2,1,70,0,0
41082,681.818181818181,4,2,1,50,1,0
46443,681.818181818181,4,2,1,50,1,0
46556,681.818181818181,4,2,1,50,1,0
46868,-100,4,2,1,40,0,0
47891,-100,4,2,1,30,0,0
49254,-100,4,2,1,20,0,0
50618,-100,4,2,1,10,0,0
51982,-100,4,2,1,5,0,0

[Colours]
Combo1 : 0,166,0
Combo2 : 255,64,64
Combo3 : 146,146,146

[HitObjects]
172,372,164,6,0,L|316:372,1,110,8|0,0:0|0:0,0:0:0:0:
467,363,845,2,0,L|323:363,1,110
176,256,1527,2,0,B|139:224|139:224|182:170,1,110,8|0,0:0|0:0,0:0:0:0:
344,256,2209,2,0,P|404:228|420:180,1,110
214,190,2891,5,8,0:0:0:0:
92,190,3232,2,0,P|40:160|24:96,2,110,4|0|4,0:3|0:0|0:3,0:0:0:0:
288,264,4254,2,0,P|372:208|300:16,1,330
88,312,5618,6,0,L|84:184,1,110,8|0,0:0|0:0,0:0:0:0:
220,168,6300,2,0,L|344:152,1,110,8|0,0:0|0:0,0:0:0:0:
176,96,6982,2,0,L|64:36,2,110,8|0|8,0:0|0:0|0:0,0:0:0:0:
308,88,8004,2,0,L|348:48,2,36.6666666666667
252,204,8345,6,0,L|120:196,2,110,0|0|8,0:0|0:0|0:0,0:0:0:0:
392,208,9369,1,0,0:0:0:0:
260,184,9709,2,0,L|116:172,1,110,8|0,0:0|0:0,0:0:0:0:
384,168,10391,2,0,P|384:104|340:52,1,110,8|0,0:0|0:0,0:0:0:0:
300,40,10845,1,0,0:0:0:0:
248,40,10959,1,0,0:0:0:0:
196,184,11073,6,0,B|150:140|150:140|199:89,1,110,8|0,0:0|0:0,0:0:0:0:
352,184,11754,2,0,L|484:184,2,110,8|0|8,0:0|0:0|0:0,0:0:0:0:
176,156,12777,2,0,P|152:129|156:93,1,73.3333333333333
192,80,13118,2,0,L|284:144,1,110,8|0,0:0|0:0,0:0:0:0:
144,192,13800,5,8,0:3:0:0:
300,268,14141,1,2,0:0:0:0:
340,244,14254,1,0,0:0:0:0:
361,196,14368,1,2,0:0:0:0:
360,133,14482,1,8,0:3:0:0:
200,208,14823,6,0,L|196:72,1,110,8|8,0:0|0:0,0:0:0:0:
340,56,15505,1,0,0:0:0:0:
448,128,15845,2,8,L|446:243,1,110,8|8,0:3|0:3,0:3:0:0:
160,248,16527,6,0,L|156:116,1,110,8|0,0:0|0:0,0:0:0:0:
300,132,17209,2,0,L|424:120,1,110,8|0,0:0|0:0,0:0:0:0:
284,68,17891,2,0,L|156:64,1,110,8|0,0:0|0:0,0:0:0:0:
440,244,18573,2,0,L|440:128,1,110,10|0,0:0|0:0,0:0:0:0:
279,127,19254,6,0,P|222:118|168:80,1,110,8|0,0:0|0:0,0:0:0:0:
344,147,19936,2,0,P|371:100|360:47,1,110,8|0,0:0|0:0,0:0:0:0:
172,212,20618,2,0,P|186:147|218:103,1,110,8|0,0:0|0:0,0:0:0:0:
328,128,21186,1,2,0:0:0:0:
368,132,21300,2,0,P|376:96|344:24,1,110,8|0,0:0|0:0,0:0:0:0:
88,276,21982,6,0,L|88:160,1,110,8|0,0:0|0:0,0:0:0:0:
152,140,22550,1,2,0:0:0:0:
308,220,22891,1,0,0:0:0:0:
324,144,23004,2,0,L|184:136,1,110,10|0,0:0|0:0,0:0:0:0:
332,200,23686,2,0,L|368:156,2,36.6666666666667
280,200,24028,2,0,L|247:200|218:153,1,73.3333333333333,8|0,0:0|0:0,0:0:0:0:
116,128,24482,6,0,L|76:92,2,36.6666666666667,0|0|8,0:0|0:0|0:0,0:0:0:0:
300,56,25050,2,0,P|364:98|366:160,1,110,4|0,0:3|0:0,0:0:0:0:
268,184,25732,5,4,0:3:0:0:
108,244,26073,2,0,B|31:234|31:234|23:174,2,110,4|4|4,0:3|0:3|0:3,0:0:0:0:
432,328,27096,5,4,0:3:0:0:
472,288,27209,1,4,0:3:0:0:
486,232,27323,1,4,0:3:0:0:
456,185,27437,1,4,0:3:0:0:
160,172,27778,1,4,0:3:0:0:
412,200,28345,6,0,L|416:76,1,110,8|8,0:0|0:0,0:0:0:0:
232,80,29141,1,0,0:0:0:0:
376,88,29482,2,0,L|416:28,2,36.6666666666667,8|0|0,0:0|0:0|0:0,0:0:0:0:
200,272,30050,1,0,0:0:0:0:
152,232,30164,6,0,L|112:189|137:132,1,110,8|8,0:0|0:3,0:0:0:0:
316,120,30845,2,0,P|349:71|316:16,1,110,8|8,0:0|0:3,0:0:0:0:
196,64,31527,6,0,P|216:28|244:4,1,73.3333333333333,8|0,0:0|0:0,0:0:0:0:
400,152,32095,1,2,0:0:0:0:
432,88,32209,1,4,0:3:0:0:
144,136,32550,1,4,0:3:0:0:
112,190,32663,1,4,0:3:0:0:
128,252,32777,1,4,0:3:0:0:
172,284,32890,5,4,0:3:0:0:
480,256,33232,1,4,0:3:0:0:
216,224,33800,2,0,P|200:172|204:104,1,110,8|8,0:0|0:0,0:0:0:0:
375,81,34482,5,0,0:0:0:0:
405,37,34596,1,2,0:0:0:0:
222,132,34936,2,0,P|187:78|239:66,1,110,8|0,0:0|0:0,0:0:0:0:
322,75,35504,5,0,0:0:0:0:
368,76,35618,2,0,P|420:48|396:-20,1,110,8|8,0:0|0:3,0:0:0:0:
264,28,36300,2,0,P|228:72|216:148,1,110,8|8,0:0|0:3,0:0:0:0:
360,216,36868,1,0,0:0:0:0:
388,168,36981,1,10,0:0:0:0:
380,108,37095,1,0,0:0:0:0:
344,88,37208,1,0,0:0:0:0:
288,91,37322,1,2,0:0:0:0:
164,196,37550,5,0,0:0:0:0:
128,180,37663,2,0,P|96:144|96:88,1,73.3333333333333,8|0,0:0|0:0,0:0:0:0:
224,348,38118,1,0,0:0:0:0:
264,332,38231,1,0,0:0:0:0:
300,312,38345,6,0,P|328:280|336:204,1,110,8|8,0:0|0:3,0:0:0:0:
184,208,39027,2,0,P|144:160|152:108,1,110,8|8,0:0|0:3,0:0:0:0:
336,108,39709,2,0,P|380:72|392:8,1,110,8|8,0:0|0:3,0:0:0:0:
188,16,40391,2,0,P|143:82|155:108,1,110,8|8,0:0|0:3,0:0:0:0:
372,284,40959,1,2,0:0:0:0:
432,276,41082,6,0,P|460:236|472:184,1,73.3333333333333,8|0,0:0|0:0,0:0:0:0:
312,164,41650,2,0,L|300:112,1,36.6666666666667,0|8,0:0|0:0,0:0:0:0:
448,120,42105,1,8,0:0:0:0:
276,184,42445,2,0,L|252:64,1,110,8|0,0:0|0:0,0:0:0:0:
356,68,43013,1,8,0:0:0:0:
132,236,43354,2,0,P|132:164|160:108,1,110
332,208,44036,6,0,P|372:168|352:104,1,110,8|0,0:0|0:0,0:0:0:0:
280,124,44491,2,0,P|220:56|216:20,1,110,8|0,0:0|0:0,0:0:0:0:
364,40,45172,2,0,P|412:104|396:160,1,110,8|0,0:0|0:0,0:0:0:0:
188,148,45741,1,2,0:0:0:0:
256,192,46195,12,0,52010,0:0:0:0:
