osu file format v14

[General]
AudioFilename: 88 Five Furious Strikes!.mp3
AudioLeadIn: 0
PreviewTime: 1284
Countdown: 1
SampleSet: Normal
StackLeniency: 0.7
Mode: 0
LetterboxInBreaks: 1
WidescreenStoryboard: 0

[Editor]
DistanceSpacing: 1
BeatDivisor: 4
GridSize: 4
TimelineZoom: 1.5

[Metadata]
Title:Five Furious Strikes!
TitleUnicode:Five Furious Strikes!
Artist:Go Ichinose
ArtistUnicode:一之瀬剛
Creator:baraatje123
Version:Insane
Source:Pokémon Omega Ruby & Alpha Sapphire
Tags:GAME FREAK Shota Kageyama Junichi Masuda Horde Battle Team Aqua Magma
BeatmapID:687260
BeatmapSetID:307139

[Difficulty]
HPDrainRate:8
CircleSize:4
OverallDifficulty:8
ApproachRate:9
SliderMultiplier:1.4
SliderTickRate:1

[Events]
//Background and Video events
0,0,"BG_ORAS.png",0,0
//Break Periods
//Storyboard Layer 0 (Background)
//Storyboard Layer 1 (Fail)
//Storyboard Layer 2 (Pass)
//Storyboard Layer 3 (Foreground)
//Storyboard Sound Samples

[TimingPoints]
1284,375.610366846125,4,1,1,100,1,0
13303,-90.9090909090909,4,1,1,100,0,1
15557,-71.4285714285714,4,1,1,100,0,1
16308,-83.3333333333333,4,1,1,100,0,1
18562,-66.6666666666667,4,1,1,100,0,1
19313,-76.9230769230769,4,1,1,100,0,1
21566,-62.5,4,1,1,100,0,1
22318,-71.4285714285714,4,1,1,100,0,1
24571,-58.8235294117647,4,1,1,100,0,1
25323,-100,4,1,1,100,0,0
37342,-90.9090909090909,4,1,1,100,0,1
39596,-71.4285714285714,4,1,1,100,0,1
40347,-83.3333333333333,4,1,1,100,0,1
42601,-66.6666666666667,4,1,1,100,0,1
43352,-76.9230769230769,4,1,1,100,0,1
45605,-62.5,4,1,1,100,0,1
46357,-71.4285714285714,4,1,1,100,0,1
48610,-58.8235294117647,4,1,1,100,0,1
49362,-100,4,1,1,100,0,0

[Colours]
Combo1 : 0,172,255
Combo2 : 255,0,0
Combo3 : 255,145,145
Combo4 : 0,0,255

[HitObjects]
80,168,1284,6,0,P|120:136|168:136,1,70
172,120,1565,1,0,0:0:0:0:
208,112,1659,2,0,P|240:100|265:76,1,70,8|0,0:0|0:0,0:0:0:0:
328,48,2035,1,0,0:0:0:0:
362,41,2129,1,0,0:0:0:0:
395,52,2223,1,0,0:0:0:0:
419,77,2316,1,0,0:0:0:0:
428,110,2410,2,8,L|424:208,1,70
388,240,2786,5,0,0:0:0:0:
368,268,2880,1,0,0:0:0:0:
337,284,2974,1,0,0:0:0:0:
302,283,3068,1,0,0:0:0:0:
272,266,3162,2,8,L|206:194,2,70
388,240,3725,1,8,0:0:0:0:
388,240,3819,1,8,0:0:0:0:
388,240,3913,2,8,P|408:200|404:160,1,70
400,108,4288,6,0,P|360:68|328:60,1,70
312,68,4570,1,0,0:0:0:0:
276,68,4664,2,0,P|245:51|224:23,1,70,8|0,0:0|0:0,0:0:0:0:
156,44,5040,1,0,0:0:0:0:
126,62,5134,1,0,0:0:0:0:
108,92,5227,1,0,0:0:0:0:
106,126,5321,1,0,0:0:0:0:
118,159,5415,2,0,P|133:190|140:225,1,70,8|8,0:0|0:0,0:0:0:0:
141,225,5791,5,0,0:0:0:0:
158,213,5885,1,0,0:0:0:0:
180,212,5979,1,0,0:0:0:0:
269,278,6166,1,8,0:0:0:0:
291,282,6260,1,8,0:0:0:0:
313,280,6354,1,8,0:0:0:0:
332,271,6448,1,0,0:0:0:0:
348,256,6542,2,0,L|368:236,3,17.5
368,228,6730,1,0,0:0:0:0:
384,196,6824,1,0,0:0:0:0:
396,164,6918,2,8,B|408:120|400:88,1,70
332,80,7293,6,0,P|297:74|266:58,1,70
252,24,7575,1,0,0:0:0:0:
224,48,7669,1,8,0:0:0:0:
212,80,7763,1,0,0:0:0:0:
188,105,7857,1,0,0:0:0:0:
121,118,8044,2,0,L|132:176,1,35
176,264,8232,2,0,L|165:206,1,35
121,118,8420,2,8,P|116:64|132:40,1,70
389,51,8796,5,0,0:0:0:0:
389,51,8890,1,0,0:0:0:0:
389,51,8984,1,0,0:0:0:0:
389,51,9077,1,0,0:0:0:0:
389,51,9171,2,0,L|376:132,1,70,8|8,0:0|0:0,0:0:0:0:
364,216,9547,1,8,0:0:0:0:
181,273,9735,1,8,0:0:0:0:
181,273,9829,1,8,0:0:0:0:
181,273,9923,1,8,0:0:0:0:
222,86,10110,1,8,0:0:0:0:
364,216,10298,6,0,P|412:240|456:228,1,70
448,212,10580,1,0,0:0:0:0:
456,176,10674,2,0,P|460:136|440:92,1,70,8|0,0:0|0:0,0:0:0:0:
404,56,11049,1,0,0:0:0:0:
371,67,11143,1,0,0:0:0:0:
336,72,11237,1,0,0:0:0:0:
301,68,11331,1,0,0:0:0:0:
268,56,11425,2,8,L|180:56,1,70
120,179,11801,6,0,L|120:268,1,70
156,256,12082,1,0,0:0:0:0:
191,262,12176,2,8,L|192:324,2,35
256,232,12552,2,8,L|276:208,3,17.5
284,208,12740,1,0,0:0:0:0:
316,196,12834,1,0,0:0:0:0:
352,188,12927,2,0,P|384:156|392:104,1,70,8|8,0:0|0:0,0:0:0:0:
380,56,13303,5,0,0:0:0:0:
304,48,13491,1,0,0:0:0:0:
120,68,13679,1,8,0:0:0:0:
112,144,13866,1,0,0:0:0:0:
132,328,14054,5,0,0:0:0:0:
208,336,14242,1,0,0:0:0:0:
392,316,14430,1,8,0:0:0:0:
400,240,14618,1,8,0:0:0:0:
356,148,14805,6,0,L|388:120,2,38.5000011749268
288,184,15181,2,8,P|224:200|184:184,1,77.0000023498536
116,192,15557,6,0,P|96:156|128:80,1,97.9999970092774
396,192,15932,6,0,P|416:156|384:80,1,97.9999970092774,8|0,0:0|0:0,0:0:0:0:
34,200,16308,6,0,P|75:204|116:192,1,83.9999974365235
152,168,16590,1,0,0:0:0:0:
265,135,16684,2,0,P|224:131|184:144,1,83.9999974365235,8|0,0:0|0:0,0:0:0:0:
232,216,17059,5,0,0:0:0:0:
396,192,17247,1,0,0:0:0:0:
277,307,17435,1,8,0:0:0:0:
307,144,17623,1,8,0:0:0:0:
377,294,17810,6,0,P|416:316|440:280,1,83.9999974365235
396,192,18186,1,8,0:0:0:0:
396,192,18280,1,8,0:0:0:0:
396,192,18374,1,8,0:0:0:0:
391,92,18562,6,0,P|379:142|395:191,1,105.000004005432
291,96,18937,6,0,P|341:108|391:92,1,105.000004005432,8|0,0:0|0:0,0:0:0:0:
124,136,19313,5,0,0:0:0:0:
395,159,19501,1,0,0:0:0:0:
160,298,19688,1,8,0:0:0:0:
270,49,19876,1,0,0:0:0:0:
327,316,20064,6,0,P|376:340|448:316,1,90.9999958343508
396,160,20440,2,8,P|433:121|433:45,1,90.9999958343508
270,49,20815,5,0,0:0:0:0:
270,49,20909,1,0,0:0:0:0:
270,49,21003,1,0,0:0:0:0:
123,135,21191,2,8,P|70:144|26:206,1,90.9999958343508
160,299,21566,6,0,P|204:299|264:251,1,112
352,85,21942,6,0,P|308:85|248:133,1,112,8|0,0:0|0:0,0:0:0:0:
180,188,22318,5,0,0:0:0:0:
108,256,22505,1,0,0:0:0:0:
252,268,22693,1,8,0:0:0:0:
320,340,22881,1,0,0:0:0:0:
332,196,23069,5,0,0:0:0:0:
404,128,23257,1,0,0:0:0:0:
260,116,23445,1,8,0:0:0:0:
192,44,23632,1,8,0:0:0:0:
180,188,23820,5,0,0:0:0:0:
404,128,24008,1,0,0:0:0:0:
192,44,24196,1,8,0:0:0:0:
192,44,24290,1,8,0:0:0:0:
192,44,24384,1,8,0:0:0:0:
320,340,24571,5,0,0:0:0:0:
320,340,24665,1,0,0:0:0:0:
320,340,24759,1,0,0:0:0:0:
320,340,24853,1,0,0:0:0:0:
320,340,24947,2,8,L|340:304,7,29.7500005674362
356,284,25323,6,0,L|368:216,1,70
384,184,25604,1,0,0:0:0:0:
404,156,25698,2,0,L|416:88,1,70,8|0,0:0|0:0,0:0:0:0:
320,80,26074,1,0,0:0:0:0:
288,93,26168,1,0,0:0:0:0:
253,98,26262,1,0,0:0:0:0:
218,94,26355,1,0,0:0:0:0:
186,80,26449,2,0,L|160:168,1,70,8|8,0:0|0:0,0:0:0:0:
184,216,26825,5,0,0:0:0:0:
210,238,26919,1,0,0:0:0:0:
244,247,27013,1,0,0:0:0:0:
278,241,27107,1,0,0:0:0:0:
306,222,27201,2,0,P|336:208|392:200,1,70,8|8,0:0|0:0,0:0:0:0:
372,300,27576,1,8,0:0:0:0:
306,222,27764,1,8,0:0:0:0:
295,189,27858,1,8,0:0:0:0:
298,154,27952,2,0,P|304:120|296:72,1,70,8|8,0:0|0:0,0:0:0:0:
222,120,28327,5,0,0:0:0:0:
187,123,28421,1,0,0:0:0:0:
152,121,28515,1,0,0:0:0:0:
118,113,28609,1,0,0:0:0:0:
86,100,28703,1,8,0:0:0:0:
48,192,28891,1,0,0:0:0:0:
86,283,29079,1,0,0:0:0:0:
118,270,29173,1,0,0:0:0:0:
152,262,29266,1,0,0:0:0:0:
187,260,29360,1,0,0:0:0:0:
222,264,29454,2,0,P|264:280|312:276,1,70,8|8,0:0|0:0,0:0:0:0:
277,199,29830,6,0,P|265:171|288:96,1,105
346,156,30205,2,0,L|408:148,1,35,8|8,0:0|0:0,0:0:0:0:
380,232,30393,2,0,L|346:228,1,35,8|0,0:0|0:0,0:0:0:0:
277,199,30581,6,8,L|252:196,3,17.5
224,188,30769,1,0,0:0:0:0:
152,192,30863,1,0,0:0:0:0:
84,216,30957,2,0,P|80:184|104:140,1,70,8|8,0:0|0:0,0:0:0:0:
176,104,31332,6,0,B|208:100|228:64|228:64|244:84|276:88,1,105
331,67,31708,2,0,P|316:36|288:16,1,70,8|0,0:0|0:0,0:0:0:0:
154,28,32084,2,0,P|120:48|96:108,1,105
176,104,32459,2,0,L|224:116,1,35,8|0,0:0|0:0,0:0:0:0:
336,104,32647,2,0,L|288:116,1,35,8|0,0:0|0:0,0:0:0:0:
196,204,32835,5,0,0:0:0:0:
188,240,32929,1,0,0:0:0:0:
180,276,33023,2,0,L|128:292,1,35
259,264,33210,2,0,P|251:316|223:340,1,70,8|8,0:0|0:0,0:0:0:0:
256,180,33586,2,8,P|292:188|328:212,1,70
344,240,33868,1,8,0:0:0:0:
372,272,33962,2,8,P|402:289|436:296,1,70
440,199,34337,6,0,B|460:136|460:136|440:140|408:136,1,105
372,69,34713,2,0,P|405:56|440:56,1,70,8|0,0:0|0:0,0:0:0:0:
440,200,35088,1,0,0:0:0:0:
429,233,35182,1,0,0:0:0:0:
428,268,35276,1,0,0:0:0:0:
436,302,35370,1,0,0:0:0:0:
453,332,35464,2,8,L|356:320,1,70
292,308,35840,6,0,B|260:308|232:288|232:288|216:304|184:312,1,105
123,272,36215,1,8,0:0:0:0:
143,244,36309,1,8,0:0:0:0:
174,228,36403,1,8,0:0:0:0:
300,196,36591,2,8,L|328:192,3,17.5
344,184,36779,2,0,L|380:184,1,35
448,172,36966,2,8,P|476:156|500:112,1,70
420,96,37342,5,0,0:0:0:0:
304,128,37530,1,0,0:0:0:0:
88,160,37718,5,8,0:0:0:0:
204,192,37906,1,0,0:0:0:0:
420,224,38093,5,0,0:0:0:0:
304,256,38281,1,0,0:0:0:0:
88,288,38469,5,8,0:0:0:0:
204,320,38657,1,8,0:0:0:0:
304,256,38845,5,0,0:0:0:0:
336,280,38938,1,0,0:0:0:0:
368,304,39032,1,0,0:0:0:0:
340,182,39220,2,8,P|304:174|240:198,1,77.0000023498536
188,220,39596,6,0,P|144:216|96:160,1,97.9999970092774
95,96,39971,6,0,P|143:101|179:134,1,97.9999970092774,8|0,0:0|0:0,0:0:0:0:
188,220,40347,5,0,0:0:0:0:
136,328,40535,1,0,0:0:0:0:
256,140,40723,5,8,0:0:0:0:
204,32,40910,1,0,0:0:0:0:
324,220,41098,5,0,0:0:0:0:
272,328,41286,1,0,0:0:0:0:
392,140,41474,5,8,0:0:0:0:
340,32,41662,1,8,0:0:0:0:
360,296,41849,6,0,L|440:352,1,83.9999974365235
83,344,42225,1,8,0:0:0:0:
117,320,42319,1,8,0:0:0:0:
152,296,42413,1,8,0:0:0:0:
304,168,42601,6,0,B|319:118|319:118|304:68,1,105.000004005432
162,68,42976,6,8,B|147:118|147:118|162:168,1,105.000004005432
144,212,43258,1,0,0:0:0:0:
124,248,43352,5,0,0:0:0:0:
395,225,43540,1,0,0:0:0:0:
160,86,43727,1,8,0:0:0:0:
270,335,43915,1,0,0:0:0:0:
327,68,44103,6,0,P|376:44|448:68,1,90.9999958343508
396,224,44479,2,8,P|433:263|433:339,1,90.9999958343508
270,335,44854,5,0,0:0:0:0:
270,335,44948,1,0,0:0:0:0:
270,335,45042,1,0,0:0:0:0:
123,249,45230,1,8,0:0:0:0:
123,249,45418,1,8,0:0:0:0:
160,85,45606,6,0,P|204:85|264:133,1,112
352,299,45981,6,0,P|308:299|248:251,1,112,8|0,0:0|0:0,0:0:0:0:
180,196,46357,5,0,0:0:0:0:
108,128,46545,1,0,0:0:0:0:
252,116,46732,1,8,0:0:0:0:
320,44,46920,1,0,0:0:0:0:
332,188,47108,5,0,0:0:0:0:
404,256,47296,1,0,0:0:0:0:
260,268,47484,1,8,0:0:0:0:
192,340,47671,1,8,0:0:0:0:
180,196,47859,5,0,0:0:0:0:
404,256,48047,1,0,0:0:0:0:
192,340,48235,1,8,0:0:0:0:
192,340,48329,1,8,0:0:0:0:
192,340,48423,1,8,0:0:0:0:
320,44,48610,5,0,0:0:0:0:
320,44,48704,1,0,0:0:0:0:
320,44,48798,1,0,0:0:0:0:
320,44,48892,1,0,0:0:0:0:
320,44,48986,2,8,L|340:80,7,29.7500005674362
368,76,49362,1,8,0:0:0:0:
