osu file format v14

[General]
AudioFilename: 82 Trainers' eyes Meet (Psychic).mp3
AudioLeadIn: 1500
PreviewTime: 21397
Countdown: 0
SampleSet: Normal
StackLeniency: 0.7
Mode: 0
LetterboxInBreaks: 0
WidescreenStoryboard: 0

[Editor]
DistanceSpacing: 1.4
BeatDivisor: 4
GridSize: 4
TimelineZoom: 3.099999

[Metadata]
Title:Encounter! Psychic
TitleUnicode:視線! サイキッカー
Artist:Go Ichinose
ArtistUnicode:一之瀬剛
Creator:baraatje123
Version:Insane
Source:Pokémon Omega Ruby & Alpha Sapphire
Tags:Irreversible Masuda Junichi Adachi Minako
BeatmapID:590849
BeatmapSetID:258275

[Difficulty]
HPDrainRate:7
CircleSize:4
OverallDifficulty:7
ApproachRate:9
SliderMultiplier:2.5
SliderTickRate:4

[Events]
//Background and Video events
0,0,"Background.png",0,0
//Break Periods
//Storyboard Layer 0 (Background)
//Storyboard Layer 1 (Fail)
//Storyboard Layer 2 (Pass)
//Storyboard Layer 3 (Foreground)
//Storyboard Sound Samples

[TimingPoints]
-730,425.531914893617,4,1,1,80,1,0
546,-133.333333333333,4,1,1,80,0,0
1291,-133.333333333333,4,1,1,5,0,0
1397,-133.333333333333,4,1,1,50,0,0
1823,-133.333333333333,4,1,1,80,0,0
3099,-133.333333333333,4,1,1,50,0,0
3525,-133.333333333333,4,1,1,80,0,0
6078,-133.333333333333,4,1,1,80,0,1
7780,-100,4,1,1,80,0,0
8099,-100,4,1,1,5,0,0
8205,-100,4,1,1,50,0,0
8631,-100,4,1,1,80,0,0
9801,-100,4,1,1,5,0,0
9907,-100,4,1,1,50,0,0
10227,-100,4,1,1,80,0,0
12887,-100,4,1,1,80,0,1
14589,-80,4,1,1,80,0,0
14908,-80,4,1,1,5,0,0
15014,-80,4,1,1,50,0,0
15333,-80,4,1,1,80,0,0
16610,-80,4,1,1,5,0,0
16716,-80,4,1,1,50,0,0
17035,-80,4,1,1,80,0,0
19695,-80,4,1,1,80,0,1
21371,-80,4,1,1,80,0,0
21397,-66.6666666666667,4,1,1,80,0,1
21716,-66.6666666666667,4,1,1,5,0,1
21823,-66.6666666666667,4,1,1,80,0,1
23418,-66.6666666666667,4,1,1,5,0,1
23525,-66.6666666666667,4,1,1,80,0,1
28206,-100,4,1,1,80,0,0

[Colours]
Combo1 : 196,190,200
Combo2 : 255,0,255
Combo3 : 255,0,128
Combo4 : 5,71,130
Combo5 : 151,40,28
Combo6 : 99,99,171
Combo7 : 166,109,182

[HitObjects]
136,184,546,6,8,L|152:236,2,31.2500011920929
168,116,759,2,0,L|216:116,1,46.8750017881394,8|8,0:0|0:0,0:0:0:0:
264,116,972,86,2,B|280:108|280:108|296:124|296:124|336:112|360:112|408:128,1,140.625005364418,14|2,0:0|0:0,0:0:0:0:
468,48,1397,2,2,B|476:64|476:64|460:80|460:80|480:108|476:144|452:188,1,140.625005364418,14|2,0:0|0:0,0:0:0:0:
424,228,1823,1,4,0:0:0:0:
372,260,1929,2,0,L|316:276,1,46.8750017881394,2|2,0:0|0:0,0:0:0:0:
372,124,2248,2,0,L|316:108,1,46.8750017881394,6|2,0:0|0:0,0:0:0:0:
185,111,2461,2,0,L|140:124,1,46.8750017881394,2|8,0:0|0:0,0:0:0:0:
148,205,2674,70,0,L|128:236,7,23.4375008940697,0|0|0|0|0|0|0|0,2:0|2:0|2:0|2:0|2:0|2:0|2:0|2:0,2:0:0:0:
140,124,3099,2,2,P|208:156|216:256,1,140.625005364418,6|2,0:0|0:0,0:0:0:0:
256,252,3525,1,6,0:0:0:0:
292,280,3631,2,0,L|336:304,1,46.8750017881394,2|2,0:0|0:0,0:0:0:0:
140,124,3951,2,0,L|98:101,1,46.8750017881394,6|2,0:0|0:0,0:0:0:0:
276,112,4163,2,0,L|317:89,1,46.8750017881394,2|8,0:0|0:0,0:0:0:0:
408,32,4376,6,0,P|420:84|400:144,1,93.7500035762788,12|0,0:0|0:0,0:0:0:0:
436,208,4695,1,8,0:0:0:0:
441,294,4801,2,2,P|381:274|353:186,1,140.625005364418,6|10,0:0|0:0,0:0:0:0:
436,208,5227,2,0,P|464:196|480:168,1,46.8750017881394,14|2,0:0|0:0,0:0:0:0:
411,122,5440,2,0,P|419:76|408:32,1,93.7500035762788,2|6,0:0|0:0,0:0:0:0:
326,82,5759,2,0,L|285:105,1,46.8750017881394,2|2,0:0|0:0,0:0:0:0:
192,80,5972,1,2,0:0:0:0:
128,152,6078,21,4,0:0:0:0:
144,176,6184,2,0,L|132:240,1,46.8750017881394,12|0,0:0|0:0,0:0:0:0:
228,188,6397,5,4,0:0:0:0:
244,212,6503,2,0,L|232:276,1,46.8750017881394,12|0,0:0|0:0,0:0:0:0:
328,224,6717,85,4,0:0:0:0:
344,248,6823,2,0,L|332:312,1,46.8750017881394,12|0,0:0|0:0,0:0:0:0:
428,260,7036,5,4,0:0:0:0:
444,284,7142,2,0,L|432:348,1,46.8750017881394,12|0,0:0|0:0,0:0:0:0:
360,360,7355,1,4,0:0:0:0:
280,360,7461,1,4,0:0:0:0:
244,288,7567,85,8,0:0:0:0:
244,288,7638,1,8,0:0:0:0:
244,288,7709,1,8,0:0:0:0:
244,288,7780,70,2,P|296:232|392:264,1,187.5,12|0,0:0|0:0,0:0:0:0:
324,312,8206,2,2,L|296:120,1,187.5,4|0,0:0|0:0,0:0:0:0:
276,40,8631,2,0,P|316:40|356:64,1,62.5,6|2,0:0|0:0,0:0:0:0:
296,126,8844,2,0,L|160:144,1,125,2|12,0:0|0:0,0:0:0:0:
87,162,9163,2,0,P|83:128|99:96,1,62.5
172,60,9376,1,8,0:0:0:0:
87,162,9482,70,2,B|84:240|84:240|128:296|179:270,1,187.5,6|2,0:0|0:0,0:0:0:0:
268,296,9908,2,2,B|271:218|271:218|227:162|176:188,1,187.5,6|2,0:0|0:0,0:0:0:0:
118,273,10333,2,0,P|148:278|179:271,1,62.5,6|2,0:0|0:0,0:0:0:0:
266,296,10546,2,0,P|328:289|382:317,1,125,2|12,0:0|0:0,0:0:0:0:
464,344,10865,2,0,P|469:314|462:283,1,62.5,8|10,0:0|0:0,0:0:0:0:
360,224,11078,1,8,0:0:0:0:
266,296,11184,6,0,P|188:288|152:240,1,125,4|2,0:0|0:0,0:0:0:0:
172,184,11504,1,2,0:0:0:0:
241,210,11610,2,2,B|264:160|211:115|211:115|168:96|134:114,1,187.5,6|10,0:0|0:0,0:0:0:0:
60,96,12035,2,0,P|84:60|116:44,1,62.5,12|2,0:0|0:0,0:0:0:0:
134,114,12248,2,0,P|157:172|129:228,1,125,2|12,0:0|0:0,0:0:0:0:
89,292,12567,1,8,0:0:0:0:
48,224,12674,2,0,P|55:194|72:168,1,62.5,8|8,0:0|0:0,0:0:0:0:
134,114,12887,37,12,0:0:0:0:
152,120,12993,2,0,L|208:80,1,62.5,12|0,0:0|0:0,0:0:0:0:
224,164,13206,5,4,0:0:0:0:
242,170,13312,2,0,L|298:130,1,62.5,12|0,0:0|0:0,0:0:0:0:
314,214,13525,85,4,0:0:0:0:
332,220,13631,2,0,L|388:180,1,62.5,12|0,0:0|0:0,0:0:0:0:
404,264,13844,5,4,0:0:0:0:
422,270,13950,2,0,L|478:230,1,62.5,12|0,0:0|0:0,0:0:0:0:
436,154,14163,1,4,0:0:0:0:
412,72,14270,1,4,0:0:0:0:
492,56,14376,85,8,0:0:0:0:
492,56,14447,1,8,0:0:0:0:
492,56,14518,1,8,0:0:0:0:
492,56,14589,70,2,P|442:152|340:119,1,234.375,14|2,0:0|0:0,0:0:0:0:
412,72,15014,2,2,P|310:33|252:125,1,234.375,14|2,0:0|0:0,0:0:0:0:
340,119,15440,1,4,0:0:0:0:
404,160,15546,2,0,P|376:184|320:192,1,78.125,2|2,0:0|0:0,0:0:0:0:
108,160,15865,2,0,P|136:184|192:192,1,78.125,2|2,0:0|0:0,0:0:0:0:
65,97,16078,2,0,P|41:125|33:181,1,78.125,2|8,0:0|0:0,0:0:0:0:
108,160,16291,70,2,P|140:108|24:32,1,234.375,14|2,0:0|0:0,0:0:0:0:
65,97,16716,2,2,P|41:125|152:220,1,234.375,4|0,0:0|0:0,0:0:0:0:
108,160,17142,1,4,0:0:0:0:
65,97,17248,2,0,P|117:85|165:109,1,78.125,2|2,0:0|0:0,0:0:0:0:
448,96,17568,2,0,P|396:84|348:108,1,78.125,6|2,0:0|0:0,0:0:0:0:
373,293,17780,2,0,P|411:299|447:288,1,78.125,2|8,0:0|0:0,0:0:0:0:
477,216,17993,6,0,P|402:225|373:294,1,156.25,12|8,0:0|0:0,0:0:0:0:
448,288,18312,1,8,0:0:0:0:
477,216,18418,2,2,P|456:136|308:112,1,234.375,14|10,0:0|0:0,0:0:0:0:
368,204,18844,2,0,P|308:220|264:200,1,78.125,12|2,0:0|0:0,0:0:0:0:
256,148,19057,2,0,P|220:200|264:292,1,156.25,2|4,0:0|0:0,0:0:0:0:
328,292,19376,2,0,P|308:332|256:360,1,78.125,8|8,0:0|0:0,0:0:0:0:
200,352,19589,1,8,0:0:0:0:
124,324,19695,37,4,0:0:0:0:
136,300,19801,2,0,L|120:212,1,78.125,12|0,0:0|0:0,0:0:0:0:
204,252,20014,5,4,0:0:0:0:
216,228,20120,2,0,L|200:140,1,78.125,12|0,0:0|0:0,0:0:0:0:
284,180,20333,85,4,0:0:0:0:
296,156,20440,2,0,L|280:68,1,78.125,12|0,0:0|0:0,0:0:0:0:
364,108,20653,5,4,0:0:0:0:
376,84,20759,2,0,L|360:-4,1,78.125,12|0,0:0|0:0,0:0:0:0:
216,228,20972,2,4,L|232:316,1,78.125
112,156,21184,85,8,0:0:0:0:
112,156,21255,1,8,0:0:0:0:
112,156,21326,1,8,0:0:0:0:
112,156,21397,6,2,P|157:40|266:100,1,281.250010728836,14|2,0:0|0:0,0:0:0:0:
184,116,21823,2,2,P|294:175|337:59,1,281.250010728836,4|0,0:0|0:0,0:0:0:0:
266,100,22248,2,0,P|254:56|276:8,1,93.7500035762788,6|2,0:0|0:0,0:0:0:0:
337,58,22461,2,4,P|388:131|337:204,1,187.500007152558,6|12,0:0|0:0,0:0:0:0:
258,175,22780,2,0,P|255:221|278:262,2,93.7500035762788,8|2|8,0:0|0:0|0:0,0:0:0:0:
338,204,23099,86,2,P|330:328|206:309,1,281.250010728836,14|2,0:0|0:0,0:0:0:0:
276,261,23525,2,2,P|153:243|146:368,1,281.250010728836,4|0,0:0|0:0,0:0:0:0:
147,369,23950,2,0,P|71:349|47:297,1,93.7500035762788,6|2,0:0|0:0,0:0:0:0:
131,276,24163,2,4,P|134:184|70:119,1,187.500007152558,6|12,0:0|0:0,0:0:0:0:
0,141,24482,2,0,P|19:64|71:40,2,93.7500035762788,8|2|8,0:0|0:0|0:0,0:0:0:0:
71,120,24801,6,0,P|155:156|242:130,1,187.500007152558,12|2,0:0|0:0,0:0:0:0:
327,85,25121,1,2,0:0:0:0:
412,49,25227,2,2,P|365:168|244:130,1,281.250010728836,6|10,0:0|0:0,0:0:0:0:
252,36,25652,2,0,P|296:50|327:85,1,93.7500035762788,12|2,0:0|0:0,0:0:0:0:
335,177,25865,2,0,P|371:249|479:253,1,187.500007152558,2|8,0:0|0:0,0:0:0:0:
511,175,26184,2,0,P|471:162|427:175,1,93.7500035762788,8|8,0:0|0:0,0:0:0:0:
335,177,26397,1,8,0:0:0:0:
268,236,26504,85,4,0:0:0:0:
240,256,26610,2,0,L|224:360,1,93.7500035762788,12|0,0:0|0:0,0:0:0:0:
212,188,26823,5,4,0:0:0:0:
192,160,26929,2,0,L|88:144,1,93.7500035762788,12|0,0:0|0:0,0:0:0:0:
260,132,27141,85,4,0:0:0:0:
288,112,27248,2,0,L|304:8,1,93.7500035762788,12|0,0:0|0:0,0:0:0:0:
316,180,27460,5,4,0:0:0:0:
336,208,27567,2,0,L|440:224,1,93.7500035762788,12|0,0:0|0:0,0:0:0:0:
468,48,27780,2,4,L|364:32,1,93.7500035762788
201,14,27993,85,8,0:0:0:0:
201,14,28064,1,8,0:0:0:0:
201,14,28135,1,8,0:0:0:0:
201,14,28206,70,2,P|209:106|277:166,1,187.5,4|0,0:0|0:0,0:0:0:0:
424,220,28631,2,2,P|332:228|272:296,1,187.5,4|0,0:0|0:0,0:0:0:0:
196,312,29057,1,6,0:0:0:0:
156,248,29163,2,0,L|184:164,1,62.5,2|2,0:0|0:0,0:0:0:0:
356,136,29483,2,0,L|328:220,1,62.5,6|2,0:0|0:0,0:0:0:0:
200,92,29695,2,0,L|284:120,1,62.5,2|2,0:0|0:0,0:0:0:0:
356,136,29908,6,2,P|408:164|344:304,1,250,6|6,0:0|0:0,0:0:0:0:
112,192,30652,1,0,0:0:0:0:
285,220,30865,2,0,L|348:220,1,62.5,2|2,0:0|0:0,0:0:0:0:
404,108,31184,85,2,2:0:0:0:
356,82,31291,1,2,2:0:0:0:
312,72,31397,1,2,2:0:0:0:
277,72,31504,1,2,2:0:0:0:
252,76,31609,5,2,2:0:0:0:
