osu file format v14

[General]
AudioFilename: 82 Trainers' eyes Meet (Psychic).mp3
AudioLeadIn: 1500
PreviewTime: 21397
Countdown: 0
SampleSet: Normal
StackLeniency: 0.7
Mode: 0
LetterboxInBreaks: 0
WidescreenStoryboard: 0

[Editor]
DistanceSpacing: 1
BeatDivisor: 4
GridSize: 4
TimelineZoom: 3.099999

[Metadata]
Title:Encounter! Psychic
TitleUnicode:視線! サイキッカー
Artist:Go Ichinose
ArtistUnicode:一之瀬剛
Creator:baraatje123
Version:Hard
Source:Pokémon Omega Ruby & Alpha Sapphire
Tags:Irreversible Masuda Junichi Adachi Minako
BeatmapID:590845
BeatmapSetID:258275

[Difficulty]
HPDrainRate:5
CircleSize:4
OverallDifficulty:6
ApproachRate:7.5
SliderMultiplier:2
SliderTickRate:2

[Events]
//Background and Video events
0,0,"Background.png",0,0
//Break Periods
//Storyboard Layer 0 (Background)
//Storyboard Layer 1 (Fail)
//Storyboard Layer 2 (Pass)
//Storyboard Layer 3 (Foreground)
//Storyboard Sound Samples

[TimingPoints]
-730,425.531914893617,4,1,1,80,1,0
546,-133.333333333333,4,1,1,80,0,0
1291,-133.333333333333,4,1,1,5,0,0
1397,-133.333333333333,4,1,1,50,0,0
1823,-133.333333333333,4,1,1,80,0,0
2993,-133.333333333333,4,1,1,5,0,0
3099,-133.333333333333,4,1,1,50,0,0
3525,-133.333333333333,4,1,1,80,0,0
6078,-133.333333333333,4,1,1,80,0,1
7780,-100,4,1,1,80,0,0
8099,-100,4,1,1,5,0,0
8205,-100,4,1,1,50,0,0
8631,-100,4,1,1,80,0,0
9801,-100,4,1,1,5,0,0
9907,-100,4,1,1,50,0,0
10227,-100,4,1,1,80,0,0
12887,-100,4,1,1,80,0,1
14589,-80,4,1,1,80,0,0
14908,-80,4,1,1,5,0,0
15014,-80,4,1,1,50,0,0
15333,-80,4,1,1,80,0,0
16610,-80,4,1,1,5,0,0
16716,-80,4,1,1,50,0,0
17035,-80,4,1,1,80,0,0
19695,-80,4,1,1,80,0,1
21371,-80,4,1,1,80,0,0
21397,-76.9230769230769,4,1,1,80,0,1
21716,-76.9230769230769,4,1,1,5,0,1
21823,-76.9230769230769,4,1,1,80,0,1
23418,-76.9230769230769,4,1,1,5,0,1
23525,-76.9230769230769,4,1,1,80,0,1
28206,-100,4,1,1,80,0,0
29908,-100,4,1,1,60,0,0
30333,-100,4,1,1,40,0,0
30759,-100,4,2,1,40,0,0
31184,-100,4,2,1,30,0,0

[Colours]
Combo1 : 196,190,200
Combo2 : 255,0,255
Combo3 : 255,0,128
Combo4 : 5,71,130
Combo5 : 151,40,28
Combo6 : 99,99,171
Combo7 : 166,109,182

[HitObjects]
248,64,546,69,8,0:0:0:0:
304,112,759,1,8,0:0:0:0:
304,112,865,1,8,0:0:0:0:
304,112,972,6,2,P|293:181|320:236,1,112.500004291535,14|2,0:0|0:0,0:0:0:0:
340,240,1398,2,2,P|270:229|216:256,1,112.500004291535,4|0,0:0|0:0,0:0:0:0:
200,260,1823,1,4,0:0:0:0:
162,260,1929,1,2,0:0:0:0:
125,260,2035,1,2,0:0:0:0:
80,160,2248,2,0,L|168:160,1,75.000002861023,6|2,0:0|0:0,0:0:0:0:
192,160,2567,1,8,0:0:0:0:
228,160,2674,54,2,B|288:152|288:152|336:112,1,112.500004291535,14|2,0:0|0:0,0:0:0:0:
352,92,3100,2,2,B|360:152|360:152|400:200,1,112.500004291535,6|2,0:0|0:0,0:0:0:0:
396,228,3525,1,6,0:0:0:0:
400,264,3631,1,2,0:0:0:0:
404,300,3738,1,2,0:0:0:0:
332,316,3950,2,0,L|320:232,1,75.000002861023,6|12,0:0|0:0,0:0:0:0:
284,176,4376,6,0,L|196:160,1,75.000002861023,12|0,0:0|0:0,0:0:0:0:
172,156,4695,1,8,0:0:0:0:
136,144,4801,2,2,P|120:92|184:60,1,112.500004291535,6|10,0:0|0:0,0:0:0:0:
196,60,5227,1,14,0:0:0:0:
233,60,5333,1,2,0:0:0:0:
272,60,5440,1,2,0:0:0:0:
348,60,5652,2,0,L|376:152,1,75.000002861023,6|2,0:0|0:0,0:0:0:0:
384,208,6078,54,4,L|392:248,1,37.5000014305115,4|12,0:0|0:0,0:0:0:0:
216,208,6397,2,4,L|208:248,1,37.5000014305115,4|12,0:0|0:0,0:0:0:0:
384,92,6716,2,4,L|392:132,1,37.5000014305115,4|12,0:0|0:0,0:0:0:0:
216,92,7035,2,4,L|208:132,1,37.5000014305115,4|12,0:0|0:0,0:0:0:0:
472,172,7355,2,4,L|484:232,2,37.5000014305115,4|12|4,0:0|0:0|0:0,0:0:0:0:
436,268,7780,22,2,P|352:236|276:248,1,150,12|0,0:0|0:0,0:0:0:0:
252,268,8206,2,2,P|284:184|272:108,1,150,4|0,0:0|0:0,0:0:0:0:
236,100,8631,1,6,0:0:0:0:
192,80,8738,1,2,0:0:0:0:
144,88,8844,1,2,0:0:0:0:
88,148,9057,2,0,P|132:168|184:160,1,100,12|8,0:0|0:0,0:0:0:0:
236,100,9482,6,2,B|316:88|316:88|380:44,1,150,6|2,0:0|0:0,0:0:0:0:
404,12,9908,2,2,B|416:92|416:92|460:156,1,150,4|2,0:0|0:0,0:0:0:0:
476,196,10333,1,6,0:0:0:0:
479,245,10439,1,2,0:0:0:0:
466,294,10545,1,2,0:0:0:0:
372,328,10759,2,0,B|368:276|368:276|352:224,1,100,12|10,0:0|0:0,0:0:0:0:
158,230,11185,6,0,B|144:276|144:276|140:328,1,100,4|2,0:0|0:0,0:0:0:0:
256,304,11610,2,2,L|256:116,1,150,6|10,0:0|0:0,0:0:0:0:
256,104,12036,2,0,L|244:48,2,50,6|2|10,0:0|0:0|0:0,0:0:0:0:
356,100,12461,2,8,L|412:92,2,50,10|10|10,0:0|0:0|0:0,0:0:0:0:
256,104,12887,38,4,L|200:108,1,50,4|12,0:0|0:0,0:0:0:0:
268,184,13206,2,4,L|224:208,1,50,4|12,0:0|0:0,0:0:0:0:
88,228,13525,2,4,L|132:204,1,50,4|12,0:0|0:0,0:0:0:0:
206,107,13844,2,4,L|256:104,1,50,4|12,0:0|0:0,0:0:0:0:
380,64,14163,2,4,L|432:48,2,50,4|12|4,0:0|0:0|0:0,0:0:0:0:
380,64,14589,6,2,B|448:104|448:104|400:160|440:216,1,187.5,14|2,0:0|0:0,0:0:0:0:
440,268,15015,2,2,B|400:336|400:336|344:288|288:328,1,187.5,14|2,0:0|0:0,0:0:0:0:
240,328,15440,1,4,0:0:0:0:
177,324,15546,1,2,0:0:0:0:
115,320,15652,1,2,0:0:0:0:
88,200,15865,2,0,L|220:208,1,125,12|2,0:0|0:0,0:0:0:0:
336,192,16291,6,2,B|360:192|360:192|336:168|316:132|316:80|364:48,1,187.5,14|2,0:0|0:0,0:0:0:0:
424,52,16717,2,2,B|469:82|469:134|449:170|425:194|425:194|449:194,1,187.5,6|0,0:0|0:0,0:0:0:0:
480,248,17142,1,4,0:0:0:0:
480,312,17248,1,2,0:0:0:0:
452,368,17355,1,2,0:0:0:0:
332,328,17567,2,0,P|332:264|364:204,1,125,6|2,0:0|0:0,0:0:0:0:
180,56,17993,6,0,P|180:120|148:180,1,125,12|8,0:0|0:0,0:0:0:0:
100,204,18312,1,8,0:0:0:0:
56,248,18418,2,2,B|112:304|160:308|160:308|192:248,1,187.5,14|10,0:0|0:0,0:0:0:0:
220,196,18844,2,0,L|232:104,2,62.5,12|2|2,0:0|0:0|0:0,0:0:0:0:
354,196,19270,2,8,L|392:288,2,62.5
220,196,19695,38,0,B|136:196,1,62.5,4|12,0:0|0:0,0:0:0:0:
292,196,20015,2,0,B|354:196,1,62.5,4|12,0:0|0:0,0:0:0:0:
205,116,20333,2,0,B|87:116,1,62.5,4|12,0:0|0:0,0:0:0:0:
306,116,20653,2,0,B|424:116,1,62.5,4|12,0:0|0:0,0:0:0:0:
256,192,20972,2,0,B|256:280,2,62.5,4|12|8,0:0|0:0|0:0,0:0:0:0:
256,192,21397,6,2,P|184:152|72:216,1,194.999991073609,14|2,0:0|0:0,0:0:0:0:
48,248,21823,2,2,P|88:176|24:64,1,194.999991073609,4|0,0:0|0:0,0:0:0:0:
92,32,22248,1,6,0:0:0:0:
156,28,22355,1,2,0:0:0:0:
220,40,22461,1,6,0:0:0:0:
296,144,22674,1,12,0:0:0:0:
232,148,22781,1,8,0:0:0:0:
168,136,22887,1,2,0:0:0:0:
48,248,23099,86,2,P|132:248|232:292,1,194.999991073609,14|2,0:0|0:0,0:0:0:0:
268,348,23525,2,2,P|268:264|308:160,1,194.999991073609,4|0,0:0|0:0,0:0:0:0:
348,108,23950,2,0,L|400:56,2,64.9999970245363,6|2|6,0:0|0:0|0:0,0:0:0:0:
164,108,24376,2,0,L|112:56,2,64.9999970245363,12|8|2,0:0|0:0|0:0,0:0:0:0:
348,108,24801,6,0,L|432:216,1,129.999994049073,12|2,0:0|0:0,0:0:0:0:
408,272,25121,1,2,0:0:0:0:
348,300,25227,2,2,P|256:288|224:176,1,194.999991073609,6|10,0:0|0:0,0:0:0:0:
156,168,25652,2,0,L|64:192,2,64.9999970245363,12|2|2,0:0|0:0|0:0,0:0:0:0:
295,149,26078,2,0,L|312:212,3,64.9999970245363,8|8|8|8,0:0|0:0|0:0|0:0,0:0:0:0:
332,280,26504,6,0,B|444:248,1,64.9999970245363,4|12,0:0|0:0,0:0:0:0:
180,280,26823,2,0,B|64:240,1,64.9999970245363,4|12,0:0|0:0,0:0:0:0:
168,116,27142,2,0,B|128:0,1,64.9999970245363,4|12,0:0|0:0,0:0:0:0:
344,116,27461,2,0,B|380:-4,1,64.9999970245363,4|12,0:0|0:0,0:0:0:0:
256,244,27780,2,0,B|256:336,2,64.9999970245363,4|12|0,0:0|0:0|0:0,0:0:0:0:
344,192,28206,70,2,P|316:116|224:88,1,150,12|0,0:0|0:0,0:0:0:0:
260,136,28632,2,2,P|224:71|154:49,1,150,4|0,0:0|0:0,0:0:0:0:
120,84,29057,2,0,L|96:160,2,50,6|2|2,0:0|0:0|0:0,0:0:0:0:
392,84,29483,2,0,L|416:160,2,50,6|2|2,0:0|0:0|0:0,0:0:0:0:
300,48,29908,6,2,L|288:240,1,150,6|0,0:0|0:0,0:0:0:0:
221,197,30333,2,2,L|212:48,1,150,6|2,0:0|0:0,0:0:0:0:
160,44,30759,2,0,L|88:44,2,50,0|2|2,0:0|0:0|0:0,0:0:0:0:
352,44,31185,2,0,L|424:44,3,50,2|2|2|2,0:0|0:0|0:0|0:0,0:0:0:0:
444,72,31610,1,2,0:0:0:0:
