osu file format v14

[General]
AudioFilename: Psychick.mp3
AudioLeadIn: 1500
PreviewTime: 596
Countdown: 0
SampleSet: Soft
StackLeniency: 0.7
Mode: 0
LetterboxInBreaks: 0
WidescreenStoryboard: 0

[Editor]
DistanceSpacing: 0.6
BeatDivisor: 4
GridSize: 4
TimelineZoom: 2.799999

[Metadata]
Title:Encounter! Psychic
TitleUnicode:視線! サイキッカー
Artist:Go Ichinose
ArtistUnicode:一之瀬剛
Creator:Sala-
Version:Master
Source:Pokémon Omega Ruby & Alpha Sapphire
Tags:Junichi Masuda Adachi Minako ポケットモンスター オメガルビー・アルファサファイア
BeatmapID:649370
BeatmapSetID:287867

[Difficulty]
HPDrainRate:8
CircleSize:4.4
OverallDifficulty:7
ApproachRate:9
SliderMultiplier:2.4
SliderTickRate:1

[Events]
//Background and Video events
0,0,"BG_Psychic.jpg",0,0
//Break Periods
//Storyboard Layer 0 (Background)
//Storyboard Layer 1 (Fail)
//Storyboard Layer 2 (Pass)
//Storyboard Layer 3 (Foreground)
//Storyboard Sound Samples

[TimingPoints]
-680,425.531914893617,4,2,1,70,1,0
7830,-83.3333333333333,4,2,1,70,0,0
14639,-100,4,2,1,70,0,0
21447,-83.3333333333333,4,2,1,70,0,0
28256,-100,4,2,1,45,0,0
29000,-111.111111111111,4,2,1,35,0,0
29532,-125,4,2,1,25,0,0
30702,-125,4,2,1,25,0,0
31234,-142.857142857143,4,2,1,25,0,0
31660,-166.666666666667,4,2,1,25,0,0

[Colours]
Combo1 : 240,240,240
Combo2 : 206,255,206
Combo3 : 113,255,113
Combo4 : 95,95,95
Combo5 : 114,180,233
Combo6 : 35,84,156
Combo7 : 254,75,124
Combo8 : 255,251,70

[HitObjects]
126,47,596,6,8,P|130:23|130:7,2,40
110,75,809,2,0,P|106:124|111:154,1,60,8|8,0:0|0:0,0:0:0:0:
183,180,1022,6,0,L|267:178,2,60,6|0|0,0:0|0:0|0:0,0:0:0:0:
105,227,1341,1,0,0:0:0:0:
105,227,1447,2,0,P|87:283|103:340,1,120,8|0,0:0|0:0,0:0:0:0:
315,232,1766,2,0,P|330:163|278:86,1,120,4|0,0:0|0:0,0:0:0:0:
265,316,2085,2,0,L|374:323,1,60,4|0,0:0|0:0,0:0:0:0:
405,278,2298,1,8,0:0:0:0:
423,240,2405,1,0,0:0:0:0:
429,199,2510,1,0,0:0:0:0:
429,156,2617,1,0,0:0:0:0:
429,113,2724,6,2,L|435:71,4,30,6|0|0|0|0,0:0|0:0|0:0|0:0|0:0,0:0:0:0:
342,139,3043,1,0,0:0:0:0:
342,139,3149,2,0,P|281:158|208:142,1,120,8|0,0:0|0:0,0:0:0:0:
76,34,3468,2,0,P|122:77|145:148,1,120,4|0,0:0|0:0,0:0:0:0:
148,276,3788,2,0,P|153:239|172:212,1,60,4|0,0:0|0:0,0:0:0:0:
237,353,4000,1,8,0:0:0:0:
201,360,4107,1,0,0:0:0:0:
165,367,4213,1,0,0:0:0:0:
129,374,4320,1,0,0:0:0:0:
95,360,4426,6,0,P|69:296|72:278,1,60,6|0,0:0|0:0,0:0:0:0:
191,228,4639,2,0,P|183:256|165:280,1,60
90,207,4851,2,0,P|68:149|83:67,1,120,10|0,0:0|0:0,0:0:0:0:
154,52,5171,1,8,0:0:0:0:
154,52,5277,2,0,L|227:62,1,60
276,124,5490,2,0,L|371:116,1,60,4|0,0:0|0:0,0:0:0:0:
429,85,5702,1,8,0:0:0:0:
429,85,5809,1,0,0:0:0:0:
429,85,5915,2,0,P|434:46|428:21,1,60,8|0,0:0|0:0,0:0:0:0:
400,180,6128,5,6,0:0:0:0:
361,261,6234,2,0,P|353:298|356:323,1,60,8|0,0:0|0:0,0:0:0:0:
385,193,6447,5,6,0:0:0:0:
377,283,6553,2,0,P|382:320|393:342,1,60,8|0,0:0|0:0,0:0:0:0:
374,204,6766,5,6,0:0:0:0:
398,298,6872,2,0,P|403:335|414:357,1,60,8|0,0:0|0:0,0:0:0:0:
365,221,7085,5,6,0:0:0:0:
420,313,7191,2,0,P|437:346|456:363,1,60,8|0,0:0|0:0,0:0:0:0:
315,317,7405,2,0,P|277:315|253:323,1,60,6|0,0:0|0:0,0:0:0:0:
365,221,7617,2,0,P|385:189|390:164,1,60,12|0,0:0|0:0,0:0:0:0:
322,82,7830,6,0,L|154:82,1,143.999995605469,6|0,0:0|0:0,0:0:0:0:
74,114,8149,1,0,0:0:0:0:
74,114,8256,2,0,P|46:196|67:294,1,143.999995605469,8|0,0:0|0:0,0:0:0:0:
258,275,8575,2,0,P|200:209|105:178,1,143.999995605469,4|0,0:0|0:0,0:0:0:0:
99,340,8894,2,0,P|150:319|169:305,1,71.9999978027344,4|0,0:0|0:0,0:0:0:0:
247,121,9107,1,8,0:0:0:0:
247,121,9213,1,0,0:0:0:0:
247,121,9320,1,0,0:0:0:0:
247,121,9426,1,0,0:0:0:0:
247,121,9532,6,0,L|257:77,4,35.9999989013672,6|0|0|0|0,0:0|0:0|0:0|0:0|0:0,0:0:0:0:
346,164,9851,1,0,0:0:0:0:
346,164,9958,2,0,P|413:179|499:141,1,143.999995605469,8|0,0:0|0:0,0:0:0:0:
264,232,10277,2,0,L|255:378,1,143.999995605469,4|0,0:0|0:0,0:0:0:0:
247,122,10596,2,0,P|197:102|161:103,1,71.9999978027344,4|0,0:0|0:0,0:0:0:0:
76,135,10809,1,8,0:0:0:0:
59,174,10915,1,0,0:0:0:0:
76,218,11022,1,0,0:0:0:0:
94,256,11128,1,0,0:0:0:0:
81,297,11234,6,0,P|74:346|81:375,1,71.9999978027344,6|0,0:0|0:0,0:0:0:0:
199,214,11447,2,0,P|160:183|131:175,1,71.9999978027344
208,346,11660,2,0,L|403:336,1,143.999995605469,10|0,0:0|0:0,0:0:0:0:
440,275,11979,1,8,0:0:0:0:
440,275,12085,2,0,P|457:199|452:174,1,71.9999978027344
321,122,12298,2,0,P|324:157|338:190,1,71.9999978027344,4|0,0:0|0:0,0:0:0:0:
511,66,12511,5,8,0:0:0:0:
468,58,12617,1,0,0:0:0:0:
425,49,12724,1,8,0:0:0:0:
382,40,12830,1,0,0:0:0:0:
345,31,12937,5,6,0:0:0:0:
345,31,13043,2,4,B|282:49|239:22|239:22|279:27,1,143.999995605469,14|4,0:0|0:0,0:0:0:0:
321,123,13362,6,0,B|368:168|366:219|366:219|350:182,1,143.999995605469,10|4,0:0|0:0,0:0:0:0:
413,97,13681,6,8,B|428:33|473:9|473:9|449:41,1,143.999995605469,10|4,0:0|0:0,0:0:0:0:
321,123,14000,5,10,0:0:0:0:
296,315,14213,5,6,0:0:0:0:
296,315,14320,1,0,0:0:0:0:
296,315,14426,2,0,L|274:241,1,71.9999978027344,8|0,0:0|0:0,0:0:0:0:
187,218,14639,6,0,P|184:259|192:290,2,60,6|0|0,0:0|0:0|0:0,0:0:0:0:
190,127,14958,1,0,0:0:0:0:
190,127,15064,2,0,B|206:111|206:111|109:110,1,120,8|0,0:0|0:0,0:0:0:0:
36,164,15383,2,0,P|15:228|20:305,1,120,4|0,0:0|0:0,0:0:0:0:
70,351,15702,2,0,L|152:353,1,60,4|0,0:0|0:0,0:0:0:0:
217,327,15915,1,8,0:0:0:0:
259,323,16022,1,0,0:0:0:0:
300,323,16128,1,0,0:0:0:0:
341,330,16235,1,0,0:0:0:0:
382,338,16341,6,2,L|405:362,4,30,6|0|0|0|0,0:0|0:0|0:0|0:0|0:0,0:0:0:0:
375,247,16660,1,0,0:0:0:0:
375,247,16766,2,0,P|361:151|382:91,1,120,8|0,0:0|0:0,0:0:0:0:
277,35,17085,2,0,P|282:94|267:152,1,120,4|0,0:0|0:0,0:0:0:0:
192,204,17405,2,0,L|109:196,1,60,4|0,0:0|0:0,0:0:0:0:
52,158,17617,1,8,0:0:0:0:
45,122,17724,1,0,0:0:0:0:
38,86,17830,1,0,0:0:0:0:
33,50,17937,1,0,0:0:0:0:
66,62,18043,6,0,L|148:72,1,60,6|0,0:0|0:0,0:0:0:0:
192,204,18256,2,0,L|109:196,1,60
264,125,18468,2,0,P|297:211|279:272,1,120,10|0,0:0|0:0,0:0:0:0:
192,263,18788,1,8,0:0:0:0:
192,263,18894,2,0,P|189:222|203:180,1,60
392,205,19107,2,0,P|396:234|392:264,1,60,4|0,0:0|0:0,0:0:0:0:
278,347,19320,1,8,0:0:0:0:
278,347,19426,1,0,0:0:0:0:
278,347,19532,2,0,L|210:346,1,60,8|0,0:0|0:0,0:0:0:0:
94,182,19745,5,6,0:0:0:0:
64,98,19851,2,0,P|43:54|27:33,1,60,8|0,0:0|0:0,0:0:0:0:
91,193,20064,5,6,0:0:0:0:
92,102,20171,2,0,P|87:54|79:29,1,60,8|0,0:0|0:0,0:0:0:0:
87,202,20383,5,6,0:0:0:0:
119,117,20489,2,0,P|130:71|131:45,1,60,8|0,0:0|0:0,0:0:0:0:
84,211,20702,5,6,0:0:0:0:
143,142,20808,2,0,P|170:103|180:78,1,60,8|0,0:0|0:0,0:0:0:0:
172,232,21022,2,0,P|182:260|199:285,1,60,6|0,0:0|0:0,0:0:0:0:
84,212,21234,2,0,P|53:207|23:208,1,60,8|0,0:0|0:0,0:0:0:0:
235,157,21447,6,0,L|392:159,1,143.999995605469,6|0,0:0|0:0,0:0:0:0:
468,220,21766,1,0,0:0:0:0:
468,220,21873,2,0,P|475:273|443:361,1,143.999995605469,8|0,0:0|0:0,0:0:0:0:
330,233,22192,2,0,P|302:167|307:95,1,143.999995605469,4|0,0:0|0:0,0:0:0:0:
351,326,22511,2,0,P|293:323|256:307,1,71.9999978027344,4|0,0:0|0:0,0:0:0:0:
210,160,22724,1,8,0:0:0:0:
210,160,22830,1,0,0:0:0:0:
210,160,22937,1,0,0:0:0:0:
210,160,23043,1,0,0:0:0:0:
210,160,23149,6,2,L|204:123,4,35.9999989013672,6|0|2|0|0,0:0|0:0|0:0|0:0|0:0,0:0:0:0:
109,186,23468,1,0,0:0:0:0:
109,186,23575,2,0,P|103:88|125:34,1,143.999995605469,8|0,0:0|0:0,0:0:0:0:
180,279,23894,2,0,L|28:282,1,143.999995605469,4|0,0:0|0:0,0:0:0:0:
279,329,24213,2,0,L|360:326,1,71.9999978027344,4|0,0:0|0:0,0:0:0:0:
446,228,24426,5,8,0:0:0:0:
454,185,24532,1,0,0:0:0:0:
444,142,24639,1,0,0:0:0:0:
432,100,24745,1,0,0:0:0:0:
451,61,24851,6,0,P|492:36|522:30,1,71.9999978027344,6|0,0:0|0:0,0:0:0:0:
341,82,25064,2,0,P|298:58|278:36,1,71.9999978027344
409,161,25277,2,0,L|379:330,1,143.999995605469,10|0,0:0|0:0,0:0:0:0:
278,330,25596,1,8,0:0:0:0:
278,330,25702,2,0,P|263:277|267:227,1,71.9999978027344
173,198,25915,2,0,P|169:233|157:267,1,71.9999978027344,4|0,0:0|0:0,0:0:0:0:
68,332,26128,5,8,0:0:0:0:
26,341,26234,1,0,0:0:0:0:
30,297,26341,1,8,0:0:0:0:
35,254,26447,1,0,0:0:0:0:
45,214,26554,5,6,0:0:0:0:
45,214,26660,2,0,B|58:108|58:108|74:149,1,143.999995605469,8|14,0:0|0:0,0:0:0:0:
138,309,26979,6,0,B|39:350|39:350|67:316,1,143.999995605469,8|6,0:0|0:0,0:0:0:0:
166,179,27298,6,0,B|251:243|251:243|207:236,1,143.999995605469,8|14,0:0|0:0,0:0:0:0:
118,235,27617,5,8,0:0:0:0:
364,230,27830,5,6,0:0:0:0:
364,230,27937,1,0,0:0:0:0:
364,230,28043,2,0,L|283:237,1,71.9999978027344,8|0,0:0|0:0,0:0:0:0:
244,322,28256,6,0,L|340:314,2,60,6|0|0,0:0|0:0|0:0,0:0:0:0:
491,347,28681,2,0,L|342:360,1,120,8|0,0:0|0:0,0:0:0:0:
271,239,29000,2,0,P|258:163|271:102,1,107.999996704102,4|0,0:0|0:0,0:0:0:0:
295,58,29320,1,4,0:0:0:0:
450,102,29532,1,8,0:0:0:0:
458,133,29639,1,0,0:0:0:0:
458,165,29745,1,0,0:0:0:0:
453,196,29851,1,0,0:0:0:0:
443,223,29958,6,0,P|431:266|434:332,1,96,6|0,0:0|0:0,0:0:0:0:
311,299,30383,2,0,P|311:251|299:204,1,96,8|0,0:0|0:0,0:0:0:0:
257,145,30702,1,4,0:0:0:0:
116,114,30915,1,0,0:0:0:0:
116,114,31022,1,4,0:0:0:0:
45,218,31234,2,8,P|41:260|45:289,1,41.9999987182618,8|0,0:0|0:0,0:0:0:0:
116,242,31447,2,0,P|139:276|161:296,1,41.9999987182618
191,211,31660,5,6,0:0:0:0:
116,114,31873,1,0,0:0:0:0:
116,114,31979,1,0,0:0:0:0:
116,114,32085,2,0,P|110:59|127:11,1,107.999996704102,8|8,0:0|0:0,0:0:0:0:
204,6,32511,1,0,0:0:0:0:
