osu file format v14

[General]
AudioFilename: Psychick.mp3
AudioLeadIn: 1500
PreviewTime: 596
Countdown: 0
SampleSet: Soft
StackLeniency: 0.7
Mode: 0
LetterboxInBreaks: 0
WidescreenStoryboard: 0

[Editor]
DistanceSpacing: 1.3
BeatDivisor: 4
GridSize: 4
TimelineZoom: 2.1

[Metadata]
Title:Encounter! Psychic
TitleUnicode:視線! サイキッカー
Artist:Go Ichinose
ArtistUnicode:一之瀬剛
Creator:Sala-
Version:Great
Source:Pokémon Omega Ruby & Alpha Sapphire
Tags:Junichi Masuda Adachi Minako ポケットモンスター オメガルビー・アルファサファイア
BeatmapID:649369
BeatmapSetID:287867

[Difficulty]
HPDrainRate:4
CircleSize:3.5
OverallDifficulty:4.5
ApproachRate:5.5
SliderMultiplier:1.2
SliderTickRate:1

[Events]
//Background and Video events
0,0,"BG_Psychic.jpg",0,0
//Break Periods
//Storyboard Layer 0 (Background)
//Storyboard Layer 1 (Fail)
//Storyboard Layer 2 (Pass)
//Storyboard Layer 3 (Foreground)
//Storyboard Sound Samples

[TimingPoints]
-680,425.531914893617,4,2,1,70,1,0
29000,-100,4,2,1,35,0,0
29532,-100,4,2,1,25,0,0
30702,-100,4,2,1,15,0,0
31234,-100,4,2,1,15,0,0
31660,-100,4,2,1,10,0,0
32511,-100,4,2,1,5,0,0

[Colours]
Combo1 : 240,240,240
Combo2 : 206,255,206
Combo3 : 113,255,113
Combo4 : 95,95,95
Combo5 : 114,180,233
Combo6 : 35,84,156
Combo7 : 254,75,124
Combo8 : 255,251,70

[HitObjects]
72,163,1022,6,0,P|149:134|204:154,1,120,6|8,0:0|0:0,0:0:0:0:
279,265,1873,2,0,P|278:294|269:323,1,60,0|4,0:0|0:0,0:0:0:0:
196,353,2298,1,8,0:0:0:0:
210,197,2724,6,0,P|277:167|340:191,1,120,6|8,0:0|0:0,0:0:0:0:
412,302,3575,2,0,L|408:378,1,60,0|4,0:0|0:0,0:0:0:0:
493,348,4000,2,0,L|495:274,1,60,8|0,0:0|0:0,0:0:0:0:
444,225,4426,6,0,L|449:105,1,120,6|10,0:0|0:0,0:0:0:0:
392,52,5064,1,0,0:0:0:0:
310,33,5277,2,0,P|280:34|251:41,1,60,0|4,0:0|0:0,0:0:0:0:
183,80,5702,1,8,0:0:0:0:
108,55,5915,1,0,0:0:0:0:
46,103,6128,6,0,L|53:192,1,90,6|2,0:0|0:0,0:0:0:0:
154,250,6766,2,0,L|148:161,1,90,6|2,0:0|0:0,0:0:0:0:
46,104,7405,1,6,0:0:0:0:
65,185,7617,1,8,0:0:0:0:
40,265,7830,6,0,P|56:321|121:366,1,120,6|8,0:0|0:0,0:0:0:0:
252,307,8681,2,0,P|262:275|263:233,1,60,0|4,0:0|0:0,0:0:0:0:
230,178,9107,1,8,0:0:0:0:
348,278,9532,6,0,P|391:304|471:279,1,120,6|8,0:0|0:0,0:0:0:0:
495,149,10383,2,0,L|507:89,1,60,0|4,0:0|0:0,0:0:0:0:
456,30,10809,2,0,P|413:16|372:15,1,60,8|0,0:0|0:0,0:0:0:0:
336,61,11234,6,0,P|288:69|220:41,1,120,6|10,0:0|0:0,0:0:0:0:
144,32,11873,1,0,0:0:0:0:
67,47,12085,2,0,L|64:121,1,60,0|4,0:0|0:0,0:0:0:0:
66,185,12511,1,8,0:0:0:0:
30,254,12724,1,0,0:0:0:0:
78,315,12937,6,0,L|188:331,1,90,6|2,0:0|0:0,0:0:0:0:
237,234,13575,2,0,L|144:240,1,90,6|2,0:0|0:0,0:0:0:0:
120,125,14213,1,6,0:0:0:0:
173,60,14426,1,8,0:0:0:0:
259,54,14639,6,0,B|285:77|285:77|322:92|322:92|356:122,1,120,6|8,0:0|0:0,0:0:0:0:
443,251,15490,2,0,L|453:330,1,60,0|4,0:0|0:0,0:0:0:0:
383,351,15915,1,8,0:0:0:0:
251,266,16341,6,0,B|234:224|234:224|232:183|232:183|213:135,1,120,6|8,0:0|0:0,0:0:0:0:
73,96,17192,2,0,P|70:138|75:169,1,60,0|4,0:0|0:0,0:0:0:0:
90,231,17617,2,0,P|93:273|88:304,1,60,8|0,0:0|0:0,0:0:0:0:
156,333,18043,6,0,L|303:314,1,120,6|10,0:0|0:0,0:0:0:0:
352,328,18681,1,0,0:0:0:0:
421,371,18894,2,0,L|488:377,1,60,0|4,0:0|0:0,0:0:0:0:
504,301,19320,1,8,0:0:0:0:
495,223,19532,1,0,0:0:0:0:
455,155,19745,6,0,P|442:104|446:58,1,90,6|2,0:0|0:0,0:0:0:0:
338,17,20383,2,0,P|339:61|327:104,1,90,6|2,0:0|0:0,0:0:0:0:
240,184,21022,1,6,0:0:0:0:
161,213,21234,1,8,0:0:0:0:
174,130,21447,6,0,L|56:108,1,120,6|8,0:0|0:0,0:0:0:0:
21,272,22298,2,0,P|15:316|19:342,1,60,0|4,0:0|0:0,0:0:0:0:
84,370,22724,1,8,0:0:0:0:
211,280,23149,6,0,L|330:285,1,120,6|8,0:0|0:0,0:0:0:0:
455,190,24000,2,0,P|461:143|456:111,1,60,0|4,0:0|0:0,0:0:0:0:
437,55,24426,2,0,L|370:46,1,60,8|0,0:0|0:0,0:0:0:0:
310,87,24851,6,0,P|262:97|175:94,1,120,6|10,0:0|0:0,0:0:0:0:
112,96,25490,1,0,0:0:0:0:
78,166,25702,2,4,P|83:192|99:226,1,60,0|4,0:0|0:0,0:0:0:0:
170,247,26128,1,8,0:0:0:0:
247,238,26341,1,0,0:0:0:0:
304,183,26554,6,0,L|293:72,1,90,6|2,0:0|0:0,0:0:0:0:
397,37,27192,2,0,L|388:126,1,90,6|2,0:0|0:0,0:0:0:0:
425,237,27830,2,0,L|427:274,2,30,6|0|8,0:0|0:0|0:0,0:0:0:0:
479,180,28256,5,6,0:0:0:0:
256,192,28468,12,0,32511,0:0:0:0:
