osu file format v12

[General]
AudioFilename: Pokemon Black & White 2 - Colress Battle.mp3
AudioLeadIn: 0
PreviewTime: 79317
Countdown: 0
SampleSet: Normal
StackLeniency: 0.7
Mode: 0
LetterboxInBreaks: 1
WidescreenStoryboard: 0

[Editor]
DistanceSpacing: 1
BeatDivisor: 2
GridSize: 8
TimelineZoom: 1

[Metadata]
Title:Colress Battle Theme
TitleUnicode:Colress Battle Theme
Artist:Go Ichinose
ArtistUnicode:Go Ichinose
Creator:BananasGoMoo
Version:Vs. Plasma Grunt
Source:Pokemon Black 2 & White 2
Tags:pokemon BW2 colress team plasma
BeatmapID:215184
BeatmapSetID:76364

[Difficulty]
HPDrainRate:2
CircleSize:3
OverallDifficulty:2
ApproachRate:3
SliderMultiplier:1.4
SliderTickRate:2

[Events]
//Background and Video events
0,0,"colress bg osu.jpg",0,0
//Break Periods
2,34231,35457
2,67670,71762
2,94804,103673
2,129199,133291
//Storyboard Layer 0 (Background)
//Storyboard Layer 1 (Fail)
//Storyboard Layer 2 (Pass)
//Storyboard Layer 3 (Foreground)
//Storyboard Sound Samples
//Background Colour Transformations
3,100,163,162,255

[TimingPoints]
10910,382.165605095541,4,1,0,50,1,0

[Colours]
Combo1 : 243,243,243
Combo2 : 255,255,0
Combo3 : 0,128,255
Combo4 : 0,0,0

[HitObjects]
256,192,12438,5,8,0:0:0:0:
256,192,12820,1,8,0:0:0:0:
408,192,13967,2,0,P|320:72|192:128,1,280
256,192,15495,5,8,0:0:0:0:
256,192,15878,1,0,0:0:0:0:
96,192,17024,2,0,P|192:80|312:104,1,280
256,192,18553,5,8,0:0:0:0:
256,192,18935,1,8,0:0:0:0:
400,192,20081,2,0,P|320:320|192:288,1,280
256,192,21610,5,8,0:0:0:0:
256,192,21992,1,8,0:0:0:0:
96,192,23139,2,0,P|184:328|296:280,1,280
256,192,24667,5,8,0:0:0:0:
256,192,25050,1,8,0:0:0:0:
464,232,25623,1,0,0:0:0:0:
392,32,26196,1,0,0:0:0:0:
184,64,26769,1,0,0:0:0:0:
144,272,27343,1,0,0:0:0:0:
280,296,27725,5,8,0:0:0:0:
344,264,27916,1,8,0:0:0:0:
408,136,28298,1,0,0:0:0:0:
304,40,28680,1,0,0:0:0:0:
240,56,28871,2,2,P|224:96|256:136,1,70
296,152,29253,1,0,0:0:0:0:
368,272,29636,1,0,0:0:0:0:
248,336,30018,1,0,0:0:0:0:
136,256,30400,1,0,0:0:0:0:
112,120,30782,6,2,P|88:152|104:192,1,70
160,200,31164,2,2,P|184:168|168:128,1,70
88,248,31738,1,0,0:0:0:0:
176,56,32311,1,0,0:0:0:0:
288,232,32884,1,0,0:0:0:0:
96,144,33457,1,0,0:0:0:0:
168,264,33839,1,8,0:0:0:0:
128,208,34031,1,8,0:0:0:0:
256,192,36897,5,2,0:0:0:0:
64,280,37470,1,0,0:0:0:0:
24,144,37852,1,2,0:0:0:0:
128,56,38234,1,0,0:0:0:0:
264,80,38617,5,0,0:0:0:0:
360,264,39190,1,0,0:0:0:0:
456,80,39763,1,0,0:0:0:0:
440,144,39954,2,8,P|361:142|296:96,1,140
264,56,40527,1,0,0:0:0:0:
128,96,40909,1,0,0:0:0:0:
408,80,41674,5,8,0:0:0:0:
448,288,42247,1,8,0:0:0:0:
360,344,42534,1,8,0:0:0:0:
192,312,43011,6,0,P|264:352|336:312,1,140
320,264,43585,2,0,P|266:245|181:301,1,140
56,296,44349,1,8,0:0:0:0:
72,160,44731,5,0,0:0:0:0:
272,112,45304,1,0,0:0:0:0:
72,40,45878,1,0,0:0:0:0:
64,112,46069,6,2,P|232:112|304:32,1,280
368,40,47024,2,2,L|448:40,2,70
368,176,47788,2,0,L|288:176,1,70
176,248,48362,1,0,0:0:0:0:
48,80,48935,1,0,0:0:0:0:
120,80,49126,2,0,B|248:184|336:208|472:144|424:48,1,385
392,56,50273,2,2,P|328:88|248:56,2,140
416,192,51419,1,0,0:0:0:0:
312,288,51801,1,0,0:0:0:0:
176,272,52183,5,0,0:0:0:0:
168,64,52757,2,8,L|256:64,1,70
216,200,53330,2,8,L|304:200,1,70
200,312,53903,2,8,L|104:312,1,70
40,200,54476,2,8,L|136:200,1,70
256,48,55241,5,8,0:0:0:0:
144,224,55814,1,0,0:0:0:0:
328,320,56387,1,8,0:0:0:0:
424,136,56960,1,0,0:0:0:0:
232,48,57534,1,8,0:0:0:0:
256,184,57916,1,0,0:0:0:0:
40,184,58489,1,8,0:0:0:0:
176,184,58871,1,0,0:0:0:0:
384,184,59445,1,8,0:0:0:0:
384,320,59827,6,2,P|312:352|224:336,1,140
352,248,60591,2,2,P|296:272|200:240,1,140
104,176,61355,1,4,0:0:0:0:
312,176,61929,1,0,0:0:0:0:
136,64,62502,1,0,0:0:0:0:
208,264,63075,1,0,0:0:0:0:
264,64,63648,1,0,0:0:0:0:
360,160,64031,2,0,P|344:232|288:288,1,140
248,328,64604,2,0,P|176:352|104:328,1,140
80,128,65559,5,0,0:0:0:0:
56,264,65941,2,0,P|32:208|56:112,1,140
256,320,67088,1,8,0:0:0:0:
320,192,67470,1,4,0:0:0:0:
256,200,73202,6,8,P|184:232|104:200,1,140
184,88,73967,1,0,0:0:0:0:
320,112,74349,1,0,0:0:0:0:
336,248,74731,1,0,0:0:0:0:
136,320,75304,5,8,0:0:0:0:
96,264,75495,1,8,0:0:0:0:
296,312,76069,1,0,0:0:0:0:
224,320,76260,2,0,L|224:240,1,70
72,104,77024,1,0,0:0:0:0:
272,48,77597,1,8,0:0:0:0:
328,96,77788,1,8,0:0:0:0:
200,40,78171,1,0,0:0:0:0:
160,248,78744,1,0,0:0:0:0:
232,128,79126,1,0,0:0:0:0:
256,192,80081,12,0,83903,0:0:0:0:
56,32,84285,6,8,B|208:80|352:16|480:32|480:32|528:72|480:136|480:136|392:200|168:104|32:136|32:136|64:184|32:248|32:248|112:224|192:248|192:248,1,1260
208,248,87916,2,0,B|280:224|320:272|320:272|272:296|304:336|304:336|216:328,1,280
152,312,88871,6,8,P|88:280|88:208,1,140
192,136,89636,2,8,P|256:168|264:240,1,140
136,176,90400,2,8,L|224:296,1,140
360,264,91164,2,8,B|296:192|360:104|360:104,1,140
208,144,91929,2,8,P|232:216|208:288,1,140
40,48,93457,6,0,P|104:24|208:40,1,175
120,104,94222,2,2,B|104:152|160:192|120:272,1,140,2|4,0:0|0:0,0:0:0:0:
256,192,105113,5,8,0:0:0:0:
48,192,105687,2,0,L|128:192,1,70,8|0,0:0|0:0,0:0:0:0:
328,192,106451,2,0,L|328:272,1,70,8|0,0:0|0:0,0:0:0:0:
56,184,107406,1,8,0:0:0:0:
256,192,108935,2,0,L|256:120,1,70,8|0,0:0|0:0,0:0:0:0:
376,192,109508,2,0,L|376:96,1,70,0|8,0:0|0:0,0:0:0:0:
48,216,111228,2,0,L|48:120,1,70,8|0,0:0|0:0,0:0:0:0:
168,216,111801,2,0,L|168:120,1,70,8|0,0:0|0:0,0:0:0:0:
48,320,112566,2,0,L|144:320,1,70,8|0,0:0|0:0,0:0:0:0:
400,328,113521,2,0,L|400:248,1,70,8|0,0:0|0:0,0:0:0:0:
32,48,114859,5,0,0:0:0:0:
168,72,115241,1,8,0:0:0:0:
280,152,115623,1,0,0:0:0:0:
312,288,116005,1,8,0:0:0:0:
176,304,116387,6,2,L|88:336,1,70
64,280,116769,2,2,L|88:208,1,70
408,72,117916,2,0,B|408:168|408:168|344:168|344:168,1,140
264,272,118680,2,0,B|264:176|264:176|328:176|328:176,1,140
176,128,119445,6,2,L|88:128,1,70
112,224,119827,2,2,L|192:224,1,70
472,32,120973,2,0,B|472:128|472:128|408:128,1,140
288,128,121738,2,0,B|288:32|288:32|352:32,1,140
224,128,122502,6,2,P|144:104|88:152,1,140
448,176,124031,2,0,B|424:328|320:392|112:248,1,420
240,160,125559,2,2,L|160:160,1,70
176,88,125941,2,2,L|88:88,1,70
448,176,127088,2,0,B|424:328|320:392|112:248,1,420
456,104,128617,2,8,L|376:104,2,70,4|8|4,0:0|0:0|0:0,0:0:0:0:
264,192,134731,6,0,P|168:200|104:168,1,140
320,96,135687,1,8,0:0:0:0:
112,80,136260,1,8,0:0:0:0:
208,264,136833,1,8,0:0:0:0:
216,56,137406,1,8,0:0:0:0:
128,168,137788,1,0,0:0:0:0:
144,240,137980,1,0,0:0:0:0:
432,64,139317,5,0,0:0:0:0:
296,64,139699,1,8,0:0:0:0:
256,200,140081,1,0,0:0:0:0:
336,312,140464,1,8,0:0:0:0:
440,224,140846,5,0,0:0:0:0:
296,64,141419,1,0,0:0:0:0:
104,160,141992,2,8,L|184:160,1,70
176,304,142566,1,0,0:0:0:0:
248,296,142757,1,0,0:0:0:0:
344,176,143139,1,0,0:0:0:0:
152,88,143712,1,0,0:0:0:0:
112,144,143903,6,0,P|192:136|184:8,1,210
64,40,144859,1,0,0:0:0:0:
32,176,145241,1,0,0:0:0:0:
80,312,145623,2,8,L|48:232,1,70
176,176,146196,1,0,0:0:0:0:
344,296,146769,1,0,0:0:0:0:
360,224,146960,6,0,P|280:240|280:312,1,140
224,336,147534,1,0,0:0:0:0:
96,280,147916,2,0,L|176:312,1,70
216,264,148298,1,0,0:0:0:0:
304,152,148680,1,0,0:0:0:0:
96,104,149253,1,0,0:0:0:0:
272,216,149827,1,0,0:0:0:0:
208,184,150018,6,8,P|184:152|128:128,1,70
56,232,150591,2,8,P|80:272|128:296,1,70
72,144,151164,1,0,0:0:0:0:
120,192,151355,2,8,L|184:256,1,70
424,120,152311,2,0,L|424:208,1,70
352,176,152693,2,0,L|352:256,1,70
288,272,153075,5,0,0:0:0:0:
232,232,153266,2,0,L|232:152,1,70
176,120,153648,2,0,L|176:216,1,70
96,304,154222,2,0,L|24:304,1,70
72,168,154795,2,0,L|32:232,1,70
168,184,155368,1,8,0:0:0:0:
200,320,155750,1,8,0:0:0:0:
296,216,156132,6,0,L|248:280,1,70
280,136,156706,2,0,L|224:72,1,70
376,72,157279,2,0,L|336:144,1,70
312,272,157852,2,0,L|312:192,1,70
232,320,158425,6,2,L|152:288,1,70
120,240,158808,2,2,L|104:160,1,70
120,104,159190,1,8,0:0:0:0:
320,40,159763,1,8,0:0:0:0:
408,232,160336,1,0,0:0:0:0:
216,320,160909,1,0,0:0:0:0:
96,144,161483,1,8,0:0:0:0:
192,40,161865,5,8,0:0:0:0:
352,168,162438,1,8,0:0:0:0:
216,160,162820,1,8,0:0:0:0:
64,304,163394,1,8,0:0:0:0:
184,240,163776,2,2,L|112:240,1,70
120,168,164158,2,0,L|48:168,1,70
64,96,164540,2,2,L|128:48,1,70
192,56,164922,2,0,L|280:96,1,70
304,136,165304,2,2,L|304:216,1,70
208,304,165878,5,0,0:0:0:0:
48,168,166451,1,0,0:0:0:0:
248,112,167024,1,0,0:0:0:0:
96,264,167597,1,0,0:0:0:0:
232,224,167980,2,8,P|185:160|104:136,1,140
224,328,168935,1,0,0:0:0:0:
48,216,169508,1,0,0:0:0:0:
80,80,169890,1,0,0:0:0:0:
288,80,170464,1,0,0:0:0:0:
384,184,170846,1,0,0:0:0:0:
184,256,171419,6,0,L|184:160,1,70
120,216,171801,2,0,L|120:296,1,70
320,232,172566,1,8,0:0:0:0:
184,72,173139,2,0,L|184:152,1,70
56,80,173712,1,8,0:0:0:0:
128,280,174285,2,0,L|48:280,1,70
336,280,175241,2,0,L|408:280,1,70
200,280,176005,1,8,0:0:0:0:
272,280,176196,1,0,0:0:0:0:
208,80,176769,2,0,B|288:80|288:80|336:128|336:120|336:208|336:208,1,210
288,248,177534,5,0,0:0:0:0:
72,72,178298,1,0,0:0:0:0:
288,96,179253,1,0,0:0:0:0:
384,200,179636,1,0,0:0:0:0:
288,304,180018,1,0,0:0:0:0:
192,200,180400,2,8,L|288:200,2,70
456,40,181546,2,8,L|376:40,2,70
40,112,183075,1,0,0:0:0:0:
256,192,184031,12,0,187852,0:0:0:0:
256,192,188234,12,0,189763,0:0:0:0:
