osu file format v12

[General]
AudioFilename: Pokemon Black & White 2 - Colress Battle.mp3
AudioLeadIn: 0
PreviewTime: 79317
Countdown: 0
SampleSet: Normal
StackLeniency: 0.7
Mode: 0
LetterboxInBreaks: 1
WidescreenStoryboard: 0

[Editor]
DistanceSpacing: 1
BeatDivisor: 4
GridSize: 8
TimelineZoom: 1

[Metadata]
Title:Colress Battle Theme
TitleUnicode:Colress Battle Theme
Artist:Go Ichinose
ArtistUnicode:Go Ichinose
Creator:BananasGoMoo
Version:Vs. Colress
Source:Pokemon Black 2 & White 2
Tags:pokemon BW2 colress team plasma
BeatmapID:215179
BeatmapSetID:76364

[Difficulty]
HPDrainRate:6
CircleSize:4
OverallDifficulty:7
ApproachRate:7
SliderMultiplier:1.4
SliderTickRate:2

[Events]
//Background and Video events
0,0,"colress bg osu.jpg",0,0
//Break Periods
2,34231,35997
2,55441,58927
2,86014,87971
2,104357,113959
2,138180,139946
2,189963,190774
//Storyboard Layer 0 (Background)
//Storyboard Layer 1 (Fail)
//Storyboard Layer 2 (Pass)
//Storyboard Layer 3 (Foreground)
//Storyboard Sound Samples
//Background Colour Transformations
3,100,163,162,255

[TimingPoints]
10910,382.165605095541,4,1,0,50,1,0

[Colours]
Combo1 : 243,243,243
Combo2 : 255,255,0
Combo3 : 0,128,255
Combo4 : 0,0,0

[HitObjects]
256,192,12438,5,8,0:0:0:0:
256,192,12820,1,8,0:0:0:0:
352,224,13967,2,0,P|264:104|160:128,1,245
160,160,14731,2,0,P|248:280|352:256,1,245
280,200,15495,5,8,0:0:0:0:
280,200,15878,1,8,0:0:0:0:
144,216,17024,2,0,P|240:104|352:128,1,245
360,160,17788,2,0,P|264:272|152:248,1,245
216,200,18553,5,8,0:0:0:0:
216,200,18935,1,8,0:0:0:0:
352,152,20081,2,0,P|272:280|168:256,1,245
152,232,20846,2,0,P|232:104|336:128,1,245
280,176,21610,5,2,0:0:0:0:
280,176,21992,1,0,0:0:0:0:
160,152,23139,2,0,P|248:288|328:264,1,245
344,240,23903,2,0,P|256:104|176:128,1,245
224,176,24667,5,8,0:0:0:0:
224,176,25050,1,8,0:0:0:0:
48,320,25432,2,0,L|112:248,1,70
368,72,26196,1,8,0:0:0:0:
352,184,26387,1,0,0:0:0:0:
256,248,26578,1,8,0:0:0:0:
144,264,26769,1,0,0:0:0:0:
48,208,26960,1,0,0:0:0:0:
184,32,27343,1,8,0:0:0:0:
304,224,27725,6,2,L|376:288,1,70
408,312,28107,1,0,0:0:0:0:
360,272,28298,2,2,L|288:336,1,70
200,296,28680,1,0,0:0:0:0:
104,240,28871,1,8,0:0:0:0:
288,112,29253,6,0,B|360:64|360:64|424:72|424:72,1,140
464,168,29827,1,0,0:0:0:0:
400,80,30018,1,0,0:0:0:0:
240,144,30209,2,8,L|176:200|176:200,1,70
248,280,30591,1,0,0:0:0:0:
384,288,30782,2,0,B|432:344|432:344|480:280|480:280,1,140
472,184,31355,2,0,L|472:104,1,70
360,104,31738,1,8,0:0:0:0:
288,184,31929,2,0,L|368:184,1,70
280,104,32311,1,8,0:0:0:0:
200,184,32502,2,0,L|112:184,1,70
200,272,32884,1,8,0:0:0:0:
200,184,33075,2,0,L|200:112,1,70
96,120,33457,1,8,0:0:0:0:
200,184,33839,5,2,0:0:0:0:
304,216,34031,1,4,0:0:0:0:
256,192,36897,5,8,0:0:0:0:
256,192,36992,1,0,0:0:0:0:
256,192,37088,1,8,0:0:0:0:
80,328,37470,1,8,0:0:0:0:
40,112,37852,1,0,0:0:0:0:
136,56,38043,1,0,0:0:0:0:
240,96,38234,1,8,0:0:0:0:
168,304,38617,5,0,0:0:0:0:
280,328,38808,1,0,0:0:0:0:
376,280,38999,1,8,0:0:0:0:
384,248,39094,1,0,0:0:0:0:
392,216,39190,2,0,L|392:168,1,35
344,80,39476,1,0,0:0:0:0:
232,208,39763,1,0,0:0:0:0:
344,192,39954,6,2,P|376:272|344:336,1,140
248,328,40527,2,2,P|216:344|168:328,1,70
112,256,40909,1,0,0:0:0:0:
136,144,41101,1,0,0:0:0:0:
224,80,41292,1,0,0:0:0:0:
336,64,41483,5,0,0:0:0:0:
448,88,41674,1,8,0:0:0:0:
456,120,41769,1,0,0:0:0:0:
448,160,41865,1,8,0:0:0:0:
400,256,42056,1,0,0:0:0:0:
304,304,42247,6,0,L|248:320,1,35
160,320,42534,1,0,0:0:0:0:
240,176,42820,1,0,0:0:0:0:
208,280,43011,6,0,B|136:256|80:168|136:104|208:72,1,280
320,80,43967,1,8,0:0:0:0:
408,160,44158,2,2,B|440:184|432:216|456:224,1,70
432,328,44540,1,0,0:0:0:0:
320,312,44731,5,0,0:0:0:0:
320,200,44922,1,0,0:0:0:0:
224,256,45113,1,0,0:0:0:0:
96,192,45304,2,2,B|120:144|176:128|176:128|240:144|256:200|256:200,1,210
144,232,46069,6,0,B|152:280|104:296|104:296|120:336|72:360,1,140
200,328,46642,1,0,0:0:0:0:
392,216,47024,1,8,0:0:0:0:
360,104,47215,1,8,0:0:0:0:
256,56,47406,1,8,0:0:0:0:
144,48,47597,1,0,0:0:0:0:
32,88,47788,5,0,0:0:0:0:
64,192,47980,1,0,0:0:0:0:
136,280,48171,1,0,0:0:0:0:
248,272,48362,1,0,0:0:0:0:
224,240,48457,1,0,0:0:0:0:
152,136,48648,1,0,0:0:0:0:
312,64,48935,1,0,0:0:0:0:
384,144,49126,6,2,B|392:192|344:216|344:216,1,70
136,216,49699,2,2,L|216:240,1,70
368,88,50273,2,2,L|272:56,1,70
240,280,50846,2,2,L|320:240,1,70
440,72,51419,1,8,0:0:0:0:
328,48,51610,1,0,0:0:0:0:
224,96,51801,1,8,0:0:0:0:
144,176,51992,1,0,0:0:0:0:
168,288,52183,1,8,0:0:0:0:
280,312,52374,1,0,0:0:0:0:
224,96,52757,6,2,L|272:160,1,70
392,336,53330,2,2,L|336:264,1,70
136,336,53903,2,2,L|200:264,1,70
96,80,54476,2,2,L|40:144,1,70
56,248,54859,1,8,0:0:0:0:
160,296,55050,1,4,0:0:0:0:
264,248,55241,1,0,0:0:0:0:
240,200,59827,6,0,L|240:128,1,70
328,200,60209,2,0,L|328:128,1,70
328,240,60591,2,0,L|328:320|328:312,1,70
240,240,60973,2,0,L|240:312,1,70
168,224,61355,2,0,L|96:224,1,70
40,128,61738,1,0,0:0:0:0:
24,16,61929,6,8,P|160:48|240:104,1,210
296,160,62693,2,0,P|288:200|328:240,1,70
456,336,63075,1,0,0:0:0:0:
376,256,63266,2,0,P|408:232|456:232,1,70
352,160,63648,1,8,0:0:0:0:
152,64,64031,5,8,0:0:0:0:
112,88,64126,2,0,L|72:120,1,35
24,208,64413,1,2,0:0:0:0:
104,288,64604,5,0,0:0:0:0:
320,224,64986,1,0,0:0:0:0:
240,144,65177,2,0,P|216:112|160:96,1,70
32,40,65559,1,0,0:0:0:0:
144,32,65750,1,0,0:0:0:0:
256,48,65941,1,0,0:0:0:0:
352,104,66132,1,0,0:0:0:0:
432,312,66515,1,0,0:0:0:0:
208,344,66897,2,0,P|176:352|136:344,1,70
104,320,67183,5,8,0:0:0:0:
88,280,67279,1,8,0:0:0:0:
88,168,67470,1,2,0:0:0:0:
48,64,67661,5,8,0:0:0:0:
152,32,67852,1,0,0:0:0:0:
208,128,68043,1,8,0:0:0:0:
216,240,68234,2,0,P|240:224|288:240,1,70
272,344,68617,1,0,0:0:0:0:
440,200,68999,1,8,0:0:0:0:
384,104,69190,1,0,0:0:0:0:
272,80,69381,1,8,0:0:0:0:
384,272,69763,2,0,P|352:264|312:272,1,70
208,288,70145,1,8,0:0:0:0:
104,240,70336,1,0,0:0:0:0:
72,136,70527,5,8,0:0:0:0:
136,48,70718,1,0,0:0:0:0:
248,40,70909,1,8,0:0:0:0:
360,72,71101,1,0,0:0:0:0:
344,184,71292,2,0,B|360:152|360:152|344:104,1,70
344,232,71674,1,0,0:0:0:0:
248,288,71865,1,0,0:0:0:0:
136,272,72056,2,0,P|168:296|216:288,1,70
112,224,72438,1,0,0:0:0:0:
88,112,72629,1,0,0:0:0:0:
192,72,72820,6,2,P|232:72|264:112,1,70
240,136,73107,1,8,0:0:0:0:
232,176,73202,2,2,P|192:176|160:136,1,70
272,184,73585,2,2,B|304:208|304:208|360:208,1,70,2|4,0:0|0:0,0:0:0:0:
440,168,73967,5,8,0:0:0:0:
432,280,74158,1,0,0:0:0:0:
216,328,74540,1,8,0:0:0:0:
136,248,74731,1,0,0:0:0:0:
160,144,74922,2,0,P|200:152|240:120,1,70
416,56,75304,1,0,0:0:0:0:
312,16,75495,1,0,0:0:0:0:
200,32,75687,1,8,0:0:0:0:
96,72,75878,1,0,0:0:0:0:
304,216,76069,1,0,0:0:0:0:
160,192,76260,2,2,P|200:192|248:224,1,70
312,136,76642,5,8,0:0:0:0:
384,224,76833,1,0,0:0:0:0:
336,328,77024,1,8,0:0:0:0:
224,336,77215,1,0,0:0:0:0:
32,184,77597,1,8,0:0:0:0:
112,112,77788,1,0,0:0:0:0:
184,192,77980,1,8,0:0:0:0:
112,256,78171,2,0,P|112:304|136:328,1,70
232,352,78553,1,0,0:0:0:0:
344,328,78744,1,0,0:0:0:0:
424,248,78935,1,0,0:0:0:0:
464,136,79126,1,0,0:0:0:0:
376,64,79317,5,8,0:0:0:0:
336,48,79413,1,0,0:0:0:0:
304,40,79508,1,0,0:0:0:0:
272,48,79604,1,8,0:0:0:0:
232,64,79699,1,0,0:0:0:0:
208,104,79795,1,0,0:0:0:0:
240,128,79890,1,0,0:0:0:0:
272,128,79986,1,8,0:0:0:0:
320,104,80081,6,0,B|432:112|536:224|400:344|312:336,1,385
256,336,81228,2,0,B|272:256|72:312|112:160,1,245
128,128,81992,2,0,B|200:64|280:200|304:40|392:88,1,245
416,104,82757,2,2,B|464:208|352:192|352:192|288:288|200:208|200:208|104:312|88:128,1,525
88,112,84285,2,0,B|128:-16|272:144|320:64,1,245
344,120,85050,2,0,P|320:224|264:280,1,175
240,296,85623,1,8,0:0:0:0:
208,312,85718,1,0,0:0:0:0:
168,304,85814,1,4,0:0:0:0:
256,192,88871,5,0,0:0:0:0:
168,120,89062,1,0,0:0:0:0:
80,192,89253,1,0,0:0:0:0:
160,272,89445,1,0,0:0:0:0:
200,168,89636,2,0,B|192:264|16:168|24:280,1,210
152,304,90400,2,0,B|200:192|72:248|56:136,1,210
160,104,91164,2,2,B|224:128|304:8|352:72,1,210
304,176,91929,2,0,P|312:216|352:232,1,70
256,192,92311,12,0,93075,0:0:0:0:
304,192,93457,6,0,P|168:152|160:64,1,245
216,48,94222,2,2,P|408:160|248:312,1,490
160,328,95750,2,0,P|64:248|120:176,1,210
160,104,96515,2,0,B|208:72|208:72|252:105|280:72|280:72|333:107|360:72|360:72|408:72,1,245
416,112,97279,5,0,0:0:0:0:
464,216,97470,1,0,0:0:0:0:
392,304,97661,1,0,0:0:0:0:
280,328,97852,1,0,0:0:0:0:
168,328,98043,2,0,B|96:320|96:320|112:304|40:288|40:288|72:288|8:216,1,210
24,200,98712,1,0,0:0:0:0:
32,168,98808,1,0,0:0:0:0:
120,96,98999,5,0,0:0:0:0:
232,104,99190,1,0,0:0:0:0:
336,152,99381,1,0,0:0:0:0:
368,176,99476,1,0,0:0:0:0:
384,208,99572,1,0,0:0:0:0:
360,320,99763,1,0,0:0:0:0:
248,352,99954,1,0,0:0:0:0:
136,352,100145,1,0,0:0:0:0:
24,312,100336,2,0,B|82:277|112:224|112:224|184:160|144:312|184:232|184:232|232:200,1,280
288,128,101292,5,0,0:0:0:0:
368,48,101483,1,0,0:0:0:0:
464,104,101674,1,0,0:0:0:0:
432,208,101865,2,0,L|416:240,2,35
344,280,102247,1,0,0:0:0:0:
304,288,102343,1,0,0:0:0:0:
264,288,102438,1,0,0:0:0:0:
152,280,102629,2,0,B|272:160|272:160|208:56|232:24|288:152|288:152|480:136,1,560
256,192,114859,6,0,L|256:264,1,70
144,256,115241,2,0,L|144:176,1,70
136,72,115623,2,0,L|208:72,1,70
320,72,116005,2,0,L|320:152,1,70
320,256,116387,6,2,L|240:256,1,70
184,344,116769,2,2,L|96:344,1,70
16,296,117152,2,0,L|16:216,1,70
128,216,117534,2,0,L|80:160,1,70
48,56,117916,2,0,B|136:56|192:80|208:168,1,210
184,272,118680,2,0,P|240:328|360:304,1,210
360,192,119445,6,2,L|360:96,1,70
256,88,119827,2,2,L|256:176,1,70
152,128,120209,2,0,L|152:208,1,70
56,136,120591,2,0,L|56:48,1,70
448,344,120973,6,0,B|368:344|304:304|248:232,1,210
168,312,121738,2,0,B|176:256|248:328|248:328|136:200|296:224,1,280
296,208,122597,1,0,0:0:0:0:
320,168,122693,1,0,0:0:0:0:
392,80,122884,2,2,B|288:80|296:40|376:128|320:152|280:112,1,140
216,64,123457,2,0,L|144:96,1,70
48,136,123839,1,0,0:0:0:0:
24,352,124031,6,0,B|16:264|56:216|128:184|192:224,1,245
232,208,124795,2,0,B|240:296|200:344|128:376|64:336,1,245
88,288,125559,6,2,L|64:200,1,70
64,112,125941,2,2,L|128:32,1,70
216,56,126324,2,0,B|288:32|296:72|296:72|360:56,1,140
464,96,126897,1,0,0:0:0:0:
424,320,127088,2,0,B|304:304|440:224|288:104,1,245
256,128,127852,2,0,B|129:226|265:306|145:322,1,245
96,288,128617,6,2,L|96:192,1,70
152,120,128999,2,2,L|152:48,1,70
256,248,129572,1,0,0:0:0:0:
8,16,130145,1,0,0:0:0:0:
232,48,130527,1,8,0:0:0:0:
312,128,130718,1,8,0:0:0:0:
48,336,131292,1,0,0:0:0:0:
272,320,131674,1,8,0:0:0:0:
360,248,131865,1,8,0:0:0:0:
192,96,132247,1,0,0:0:0:0:
32,248,132629,1,8,0:0:0:0:
136,296,132820,1,8,0:0:0:0:
352,248,133202,1,0,0:0:0:0:
128,232,133585,2,2,P|112:192|128:144,1,70
336,128,134158,2,2,P|352:160|336:216,1,70
184,344,134731,6,0,L|104:344,1,70
40,256,135113,1,0,0:0:0:0:
104,168,135304,2,0,L|160:112,1,70
280,24,135687,1,0,0:0:0:0:
344,112,135878,2,0,L|392:192,1,70
448,312,136260,1,0,0:0:0:0:
336,304,136451,2,0,L|264:304,1,70
112,296,136833,1,0,0:0:0:0:
200,224,137024,2,0,L|264:192,1,70
400,128,137406,1,0,0:0:0:0:
296,96,137597,1,0,0:0:0:0:
176,128,137788,1,8,0:0:0:0:
280,176,137980,1,8,0:0:0:0:
256,192,140846,5,8,0:0:0:0:
256,192,140941,1,0,0:0:0:0:
256,192,141037,1,8,0:0:0:0:
32,176,141419,2,0,L|80:112,1,70
176,72,141801,1,8,0:0:0:0:
288,72,141992,1,8,0:0:0:0:
376,136,142183,1,8,0:0:0:0:
448,352,142566,5,0,0:0:0:0:
336,320,142757,1,0,0:0:0:0:
240,264,142948,1,8,0:0:0:0:
208,256,143043,1,0,0:0:0:0:
176,232,143139,1,8,0:0:0:0:
136,192,143234,2,0,L|96:128,1,70
64,88,143521,1,0,0:0:0:0:
24,192,143712,1,0,0:0:0:0:
136,192,143903,6,0,B|80:232|120:240|216:248|80:224|136:344,1,140
224,352,144476,1,0,0:0:0:0:
328,320,144667,1,0,0:0:0:0:
408,224,144859,1,8,0:0:0:0:
408,112,145050,1,0,0:0:0:0:
328,32,145241,1,8,0:0:0:0:
216,24,145432,1,0,0:0:0:0:
104,16,145623,5,0,0:0:0:0:
0,64,145814,1,0,0:0:0:0:
24,288,146196,1,0,0:0:0:0:
184,336,146483,1,0,0:0:0:0:
96,192,146769,1,0,0:0:0:0:
208,192,146960,6,0,B|288:216|144:104|280:112|208:136|304:112,1,140
392,128,147534,2,0,P|424:192|392:272,1,140
304,296,148107,1,0,0:0:0:0:
200,328,148298,1,0,0:0:0:0:
96,288,148489,1,0,0:0:0:0:
8,208,148680,1,8,0:0:0:0:
48,104,148871,1,8,0:0:0:0:
144,48,149062,1,0,0:0:0:0:
264,48,149253,1,0,0:0:0:0:
416,120,149540,1,0,0:0:0:0:
408,288,149827,1,0,0:0:0:0:
344,200,150018,6,0,P|304:216|264:200,1,70
240,168,150304,2,0,P|216:160|184:168,1,35
96,184,150591,2,0,P|80:224|96:272,1,70
176,192,150973,2,0,P|176:232|144:280,1,70
120,296,151260,1,0,0:0:0:0:
152,344,151355,2,0,P|112:352|72:328,1,70
32,240,151738,5,8,0:0:0:0:
48,128,151929,1,8,0:0:0:0:
248,32,152311,1,0,0:0:0:0:
392,120,152597,1,0,0:0:0:0:
416,288,152884,1,0,0:0:0:0:
344,208,153075,6,0,B|360:224|320:256|344:288,1,70
120,232,153648,2,0,B|152:240|152:184|192:184,1,70
344,328,154222,2,0,B|336:288|280:320|280:264,1,70
288,64,154795,2,0,B|232:40|312:120|216:88|248:128,1,70
424,240,155368,1,8,0:0:0:0:
424,128,155559,1,8,0:0:0:0:
352,40,155750,1,8,0:0:0:0:
240,40,155941,1,8,0:0:0:0:
136,88,156132,6,0,P|112:120|136:160,1,70
344,120,156706,2,0,P|336:168|304:192,1,70
96,192,157279,2,0,P|64:232|72:280,1,70
288,256,157852,2,0,B|272:232|248:296|216:232|192:256,1,70
400,120,158425,5,8,0:0:0:0:
312,48,158617,1,0,0:0:0:0:
200,40,158808,1,8,0:0:0:0:
96,80,158999,1,0,0:0:0:0:
192,136,159190,2,0,B|237:248|244:75|304:203|327:136,1,140
408,200,159763,1,0,0:0:0:0:
320,272,159954,2,0,L|232:304,1,70
96,328,160336,1,0,0:0:0:0:
176,256,160527,2,0,L|224:200,1,70
304,64,160909,1,0,0:0:0:0:
344,168,161101,2,0,L|392:240,1,70
464,360,161483,1,0,0:0:0:0:
272,248,161865,1,0,0:0:0:0:
192,176,162056,2,0,L|128:128,1,70
16,32,162438,1,0,0:0:0:0:
192,176,162820,1,0,0:0:0:0:
296,136,163011,2,0,L|360:96,1,70
472,40,163394,1,0,0:0:0:0:
256,104,163776,6,2,L|168:104,1,70
256,192,164158,2,2,L|168:192,1,70
80,152,164540,2,2,L|168:152,1,70
304,144,164922,2,2,L|392:144,1,70
304,232,165304,2,2,L|384:232,1,70
152,240,165878,6,0,L|64:240,1,70
160,160,166260,1,0,0:0:0:0:
160,32,166451,2,0,L|256:32,1,70
344,32,166833,1,0,0:0:0:0:
232,256,167024,2,0,L|136:256,1,70
272,256,167406,1,0,0:0:0:0:
368,176,167597,2,0,L|456:176,1,70
344,120,167980,1,8,0:0:0:0:
368,72,168075,2,0,L|400:96,1,35
288,48,168362,1,8,0:0:0:0:
176,72,168553,5,0,0:0:0:0:
88,280,168935,2,0,L|144:232,1,70
368,240,169508,2,0,L|424:312,1,70
304,312,169890,1,0,0:0:0:0:
192,312,170081,1,0,0:0:0:0:
232,88,170464,2,0,L|224:160,1,70
304,80,170846,5,0,0:0:0:0:
384,160,171037,1,0,0:0:0:0:
320,248,171228,1,0,0:0:0:0:
208,248,171419,5,0,0:0:0:0:
152,152,171610,1,0,0:0:0:0:
240,80,171801,1,0,0:0:0:0:
264,192,171992,1,0,0:0:0:0:
256,304,172183,2,0,L|184:352,1,70
96,304,172566,1,0,0:0:0:0:
40,88,172948,1,0,0:0:0:0:
136,32,173139,1,0,0:0:0:0:
248,48,173330,1,0,0:0:0:0:
104,224,173712,2,0,L|184:240,1,70
232,248,173999,1,0,0:0:0:0:
376,160,174285,5,8,0:0:0:0:
352,272,174476,1,0,0:0:0:0:
256,320,174667,1,8,0:0:0:0:
144,312,174859,1,0,0:0:0:0:
56,240,175050,1,8,0:0:0:0:
168,232,175241,2,0,L|256:232,1,70
240,192,175527,1,0,0:0:0:0:
224,160,175623,1,0,0:0:0:0:
136,88,175814,1,0,0:0:0:0:
232,32,176005,1,0,0:0:0:0:
336,64,176196,1,0,0:0:0:0:
416,272,176578,1,0,0:0:0:0:
304,272,176769,6,2,L|216:272,1,70
176,272,177056,1,0,0:0:0:0:
176,216,177152,2,2,L|96:216,1,70
112,160,177438,2,0,L|40:160,1,70
40,104,177725,1,0,0:0:0:0:
128,32,177916,1,0,0:0:0:0:
232,64,178107,1,0,0:0:0:0:
440,152,178489,1,0,0:0:0:0:
400,256,178680,1,0,0:0:0:0:
296,288,178871,2,0,L|216:312,1,70
72,312,179253,5,0,0:0:0:0:
104,208,179445,1,0,0:0:0:0:
200,152,179636,1,0,0:0:0:0:
376,288,180018,1,0,0:0:0:0:
288,224,180209,2,2,P|248:288|280:344,1,140
176,288,180782,1,0,0:0:0:0:
96,208,180973,1,0,0:0:0:0:
120,96,181164,1,0,0:0:0:0:
344,88,181546,2,0,L|344:168,1,70
328,272,181929,1,0,0:0:0:0:
216,248,182120,1,0,0:0:0:0:
160,152,182311,1,0,0:0:0:0:
384,184,182693,2,0,L|304:184,1,70
264,80,183075,2,0,L|184:80,1,70
144,48,183362,5,8,0:0:0:0:
112,48,183457,1,0,0:0:0:0:
80,64,183553,1,0,0:0:0:0:
64,96,183648,1,0,0:0:0:0:
64,128,183744,1,0,0:0:0:0:
72,160,183839,1,0,0:0:0:0:
96,176,183935,1,0,0:0:0:0:
120,168,184031,6,0,B|144:88|264:32|368:96|416:208,1,385,8|0,0:0|0:0,0:0:0:0:
440,256,185177,2,0,B|432:352|368:376|280:336|240:288,1,245
208,288,185941,2,0,P|152:184|264:136,1,245
272,176,186706,2,2,B|320:256|352:304|352:304|432:304|432:304|376:208|376:208|432:176|432:176|496:280,1,525
440,288,188234,2,0,B|368:352|368:352|296:352|296:352|208:288,1,245
184,280,188999,2,0,P|168:200|216:120,1,175
248,112,189572,1,8,0:0:0:0:
288,112,189667,1,8,0:0:0:0:
312,128,189763,1,4,0:0:0:0:
256,192,191674,5,8,0:0:0:0:
144,216,191865,1,0,0:0:0:0:
152,104,192056,1,8,0:0:0:0:
40,112,192247,1,0,0:0:0:0:
152,104,192438,2,0,L|224:88,1,70
328,56,192820,6,0,B|328:144|368:216|432:216|440:280,1,245
392,304,193585,2,0,B|336:360|280:344|208:288|184:224,1,245
184,184,194349,2,0,B|256:120|288:160|344:200|416:184,1,245
408,240,195113,2,0,B|408:328|344:368|248:352|200:336,1,245
192,304,195878,2,0,B|128:320|152:224|112:232,1,105
112,184,196260,2,2,B|184:104|248:136|272:208|344:184|400:136|456:96|472:128,1,385
464,184,197406,2,0,B|424:288|352:320|256:320|264:320,1,245
256,192,198171,12,0,199508,0:0:0:0:
256,192,199699,6,0,B|152:168|88:224|152:336,1,245
200,336,200464,2,0,P|296:328|320:200,1,245
296,152,201228,2,0,B|320:64|384:48|480:72|456:168,1,245
456,200,201992,2,0,P|416:304|328:312,1,210
280,280,202661,1,0,0:0:0:0:
240,240,202757,2,0,B|168:184|176:80|224:40|304:32|416:56|424:160|392:256|392:312,1,525
376,352,204285,2,0,B|328:312|280:376|248:296|248:296|224:376|176:312|152:336,1,245
128,312,205050,2,0,P|248:152|472:312,1,525
448,256,206578,2,0,P|336:88|152:264,1,525
256,192,208107,12,4,209636,0:0:0:0:
