osu file format v14

[General]
AudioFilename: 111 Champion Steven.mp3
AudioLeadIn: 2000
PreviewTime: 31171
Countdown: 0
SampleSet: Normal
StackLeniency: 0.7
Mode: 0
LetterboxInBreaks: 0
EpilepsyWarning: 1
WidescreenStoryboard: 1
SamplesMatchPlaybackRate: 1

[Editor]
DistanceSpacing: 1
BeatDivisor: 4
GridSize: 4
TimelineZoom: 2.4

[Metadata]
Title:Champion Daigo
TitleUnicode:チャンピオンダイゴ
Artist:Go Ichinose
ArtistUnicode:一之瀬剛
Creator:Baraatje123
Version:Normal
Source:ポケットモンスター オメガルビー・アルファサファイア
Tags:Steven Pokemon Pokémon Omega Ruby and Alpha Sapphire Shota Kageyama GAME FREAK - Magic Bomb - A Mystery Irreversible
BeatmapID:711812
BeatmapSetID:319636

[Difficulty]
HPDrainRate:4
CircleSize:3
OverallDifficulty:4
ApproachRate:5
SliderMultiplier:1.6
SliderTickRate:1

[Events]
//Background and Video events
0,0,"BG.jpg",0,0
//Break Periods
//Storyboard Layer 0 (Background)
//Storyboard Layer 1 (Fail)
//Storyboard Layer 2 (Pass)
//Storyboard Layer 3 (Foreground)
Sprite,Foreground,Centre,"ring.png",320,240 M,0,5629,6267,188,338 F,0,5629,6267,1,0 S,0,5629,6267,0.2402587,1.222969
Sprite,Foreground,Centre,"ring.png",320,240 M,0,5948,6586,85,383 F,0,5948,6586,1,0 S,0,5948,6586,0.2402587,1.222969
Sprite,Foreground,Centre,"ring.png",320,240 M,0,6267,6905,188,338 F,0,6267,6905,1,0 S,0,6267,6905,0.2402587,1.222969
Sprite,Foreground,Centre,"ring.png",320,240 M,0,9033,9671,424,374 F,0,9033,9671,1,0 S,0,9033,9671,0.2402587,1.222969
Sprite,Foreground,Centre,"ring.png",320,240 M,0,9352,9990,465,297 F,0,9352,9990,1,0 S,0,9352,9990,0.2402587,1.222969
Sprite,Foreground,Centre,"ring.png",320,240 M,0,9671,10310,424,374 F,0,9671,10310,1,0 S,0,9671,10310,0.2402587,1.222969
Sprite,Foreground,Centre,"ring.png",320,240 M,0,12437,13076,136,246 F,0,12437,13076,1,0 S,0,12437,13076,0.2402587,1.222969
Sprite,Foreground,Centre,"ring.png",320,240 M,0,12756,13395,250,301 F,0,12756,13395,1,0 S,0,12756,13395,0.2402587,1.222969
Sprite,Foreground,Centre,"ring.png",320,240 M,0,13076,13714,136,246 F,0,13076,13714,1,0 S,0,13076,13714,0.2402587,1.222969
Sprite,Foreground,Centre,"ring.png",320,240 M,0,15842,16480,348,318 F,0,15842,16480,1,0 S,0,15842,16480,0.2402587,1.222969
Sprite,Foreground,Centre,"ring.png",320,240 M,0,16161,16799,420,277 F,0,16161,16799,1,0 S,0,16161,16799,0.2402587,1.222969
Sprite,Foreground,Centre,"ring.png",320,240 M,0,16480,17118,348,318 F,0,16480,17118,1,0 S,0,16480,17118,0.2402587,1.222969
Sprite,Foreground,Centre,"ring.png",320,240 M,0,32863,33501,364,202 F,0,32863,33501,1,0 S,0,32863,33501,0.2402587,1.222969
Sprite,Foreground,Centre,"ring.png",320,240 M,0,33182,33820,488,186 F,0,33182,33820,1,0 S,0,33182,33820,0.2402587,1.222969
Sprite,Foreground,Centre,"ring.png",320,240 M,0,33501,34139,364,202 F,0,33501,34139,1,0 S,0,33501,34139,0.2402587,1.222969
Sprite,Foreground,Centre,"ring.png",320,240 M,0,36267,36905,452,282 F,0,36267,36905,1,0 S,0,36267,36905,0.2402587,1.222969
Sprite,Foreground,Centre,"ring.png",320,240 M,0,36586,37225,444,409 F,0,36586,37225,1,0 S,0,36586,37225,0.2402587,1.222969
Sprite,Foreground,Centre,"ring.png",320,240 M,0,36905,37544,452,282 F,0,36905,37544,1,0 S,0,36905,37544,0.2402587,1.222969
Sprite,Foreground,Centre,"ring.png",320,240 M,0,39671,40310,380,314 F,0,39671,40310,1,0 S,0,39671,40310,0.2402587,1.222969
Sprite,Foreground,Centre,"ring.png",320,240 M,0,39990,40629,278,258 F,0,39990,40629,1,0 S,0,39990,40629,0.2402587,1.222969
Sprite,Foreground,Centre,"ring.png",320,240 M,0,40310,40948,380,314 F,0,40310,40948,1,0 S,0,40310,40948,0.2402587,1.222969
Sprite,Foreground,Centre,"ring.png",320,240 M,0,43076,43714,360,286 F,0,43076,43714,1,0 S,0,43076,43714,0.2402587,1.222969
Sprite,Foreground,Centre,"ring.png",320,240 M,0,43395,44033,372,426 F,0,43395,44033,1,0 S,0,43395,44033,0.2402587,1.222969
Sprite,Foreground,Centre,"ring.png",320,240 M,0,43714,44352,360,286 F,0,43714,44352,1,0 S,0,43714,44352,0.2402587,1.222969
//Storyboard Sound Samples

[TimingPoints]
522.911981224636,425.531914893617,4,1,1,80,1,0
2225,-100,4,2,1,80,0,0
3927,-95.2380952380951,4,1,1,80,0,1
7331,-90.9090909090909,4,1,1,80,0,1
10735,-86.9565217391304,4,1,1,80,0,1
14139,-83.3333333333333,4,1,1,80,0,1
17544,-125,4,2,1,80,0,0
31161,-95.2380952380951,4,1,1,80,0,1
34565,-90.9090909090909,4,1,1,80,0,1
37969,-86.9565217391304,4,1,1,80,0,1
41373,-83.3333333333333,4,1,1,80,0,1
44778,-125,4,2,1,80,0,0

[Colours]
Combo1 : 61,112,131
Combo2 : 64,0,128
Combo3 : 255,0,128
Combo4 : 255,0,0
Combo5 : 0,128,192

[HitObjects]
204,36,522,5,2,0:0:0:0:
164,108,735,2,0,B|120:136|120:136|44:136,1,120,2|2,0:0|0:0,0:0:0:0:
28,213,1267,1,2,0:0:0:0:
72,280,1480,2,0,B|116:304|116:304|200:304,1,120,2|2,0:0|0:0,0:0:0:0:
252,256,2012,1,2,0:0:0:0:
288,184,2225,6,0,L|388:188,1,80,2|2,0:0|0:0,0:0:0:0:
396,112,2650,2,0,L|296:108,1,80,2|2,0:0|0:0,0:0:0:0:
332,32,3075,2,0,L|420:36,2,80,2|2|10,0:0|0:0|0:0,0:0:0:0:
252,28,3714,1,2,0:0:0:0:
192,72,3927,6,0,B|180:112|180:112|144:136|144:136|132:172|132:172|80:220,1,167.999994873047,4|2,0:0|0:0,0:0:0:0:
124,284,4565,1,8,0:0:0:0:
196,328,4778,2,0,P|236:332|316:300,2,125.999996154785,0|0|8,0:0|0:0|0:0,0:0:0:0:
124,284,5629,2,0,B|104:320|104:320|80:316|32:320|8:336,2,125.999996154785,6|6|14,0:0|0:0|0:0,0:0:0:0:
140,200,6480,2,0,P|152:168|288:136,1,167.999994873047,0|2,0:0|0:0,0:0:0:0:
444,108,7331,6,0,B|448:152|448:152|440:196|440:196|448:240|448:240|440:284,1,176.000005371094,6|2,0:0|0:0,0:0:0:0:
360,320,7969,1,8,0:0:0:0:
276,344,8182,2,0,B|232:344|232:344|200:296|160:288,2,132.00000402832,0|0|8,0:0|0:0|0:0,0:0:0:0:
360,320,9033,2,0,B|388:340|388:340|401:243,2,132.00000402832,6|6|14,0:0|0:0|0:0,0:0:0:0:
304,252,9884,2,0,P|328:176|420:144,1,176.000005371094,0|2,0:0|0:0,0:0:0:0:
256,48,10735,6,0,B|220:76|220:76|172:76|172:76|132:100|132:100|80:100,1,184.000003509522,6|2,0:0|0:0,0:0:0:0:
72,192,11373,1,8,0:0:0:0:
44,280,11586,2,0,B|72:288|100:280|100:280|104:324|144:360,2,138.000002632141,0|0|8,0:0|0:0|0:0,0:0:0:0:
72,192,12437,2,0,P|124:192|192:272,2,138.000002632141,6|6|14,0:0|0:0|0:0,0:0:0:0:
36,108,13288,2,0,B|32:64|32:64|88:48|176:56,1,184.000003509522,0|2,0:0|0:0,0:0:0:0:
364,52,14139,6,0,B|400:88|400:88|400:136|400:136|368:168|368:168|368:216,1,191.999994140625,6|2,0:0|0:0,0:0:0:0:
284,264,14778,1,8,0:0:0:0:
192,296,14990,2,0,B|96:296|96:296|124:344,2,143.999995605469,0|0|8,0:0|0:0|0:0,0:0:0:0:
284,264,15842,2,0,B|380:264|380:264|352:216,2,143.999995605469,6|6|14,0:0|0:0|0:0,0:0:0:0:
324,352,16693,2,0,B|420:352|420:352|484:272,1,191.999994140625,0|2,0:0|0:0,0:0:0:0:
440,192,17331,1,10,0:0:0:0:
416,100,17544,6,0,P|376:60|196:108,1,256,4|4,0:0|0:0,0:0:0:0:
168,224,18820,2,0,P|166:263|148:304,1,64,8|2,0:0|0:0,0:0:0:0:
116,336,19246,2,0,P|176:328|252:344,1,128,4|10,0:0|0:0,0:0:0:0:
304,356,19884,1,2,0:0:0:0:
368,368,20097,2,0,P|436:356|472:296,1,128,4|8,0:0|0:0,0:0:0:0:
464,244,20735,1,2,0:0:0:0:
432,188,20948,6,0,B|412:128|412:128|344:116,1,128,4|8,0:0|0:0,0:0:0:0:
304,236,21799,2,0,B|256:278|256:278|208:236,1,128,4|8,0:0|0:0,0:0:0:0:
163,116,22650,2,0,B|100:128|100:128|80:188,1,128,4|8,0:0|0:0,0:0:0:0:
102,314,23501,2,0,L|91:380,2,64,6|2|8,0:0|0:0|0:0,0:0:0:0:
148,272,24139,1,2,0:0:0:0:
212,280,24352,6,0,L|332:296,2,96,4|2|2,0:0|0:0|0:0,0:0:0:0:
148,272,25203,2,0,B|104:264|88:232|88:232|120:184,1,128
184,76,26054,6,0,L|304:60,2,96,12|2|2,0:0|0:0|0:0,0:0:0:0:
120,84,26905,2,0,B|90:128|90:128|106:160|150:168,1,128
192,288,27756,6,0,L|280:304,2,64,12|0|10,0:0|0:0|0:0,0:0:0:0:
144,244,28395,1,0,0:0:0:0:
144,244,28608,2,0,P|136:216|140:172,1,64,14|2,0:0|0:0,0:0:0:0:
192,152,29033,2,0,P|193:120|185:89,1,64,10|10,0:0|0:0,0:0:0:0:
136,44,29459,6,0,P|180:64|336:48,1,192,12|0,0:0|0:0,0:0:0:0:
388,24,30310,2,0,P|368:68|384:224,1,192,12|12,0:0|0:0,0:0:0:0:
444,260,31161,6,0,B|416:292|372:292|372:292|328:308|328:308|284:292,1,167.999994873047,6|2,0:0|0:0,0:0:0:0:
256,220,31799,1,8,0:0:0:0:
212,148,32012,2,0,B|132:124|132:124|88:132,2,125.999996154785,0|0|8,0:0|0:0|0:0,0:0:0:0:
300,148,32862,2,0,B|380:124|380:124|424:132,2,125.999996154785,6|6|14,0:0|0:0|0:0,0:0:0:0:
256,220,33714,2,0,B|232:256|232:256|192:248|144:252|112:288,1,167.999994873047,0|2,0:0|0:0,0:0:0:0:
84,112,34565,6,0,B|124:96|124:96|164:120|164:120|208:100|256:112,1,176.000005371094,4|2,0:0|0:0,0:0:0:0:
332,140,35203,1,8,0:0:0:0:
420,148,35416,2,0,P|440:76|424:12,2,132.00000402832,0|0|8,0:0|0:0|0:0,0:0:0:0:
388,228,36267,2,0,P|368:300|384:364,2,132.00000402832,6|6|14,0:0|0:0|0:0,0:0:0:0:
300,212,37118,2,0,B|248:204|216:228|216:228|176:200|124:216,1,176.000005371094,0|2,0:0|0:0,0:0:0:0:
288,116,37969,6,0,B|340:120|368:148|368:148|408:120|408:120|456:144,1,184.000003509522,4|2,0:0|0:0,0:0:0:0:
468,232,38608,1,8,0:0:0:0:
400,292,38820,2,0,B|412:336|412:336|440:352|504:344,2,138.000002632141,0|0|8,0:0|0:0|0:0,0:0:0:0:
316,260,39671,2,0,B|304:216|304:216|276:200|212:204,2,138.000002632141,6|6|14,0:0|0:0|0:0,0:0:0:0:
312,352,40522,2,0,B|252:352|224:288|224:288|144:288,1,184.000003509522,0|2,0:0|0:0,0:0:0:0:
64,120,41373,6,0,B|104:92|104:92|144:116|144:116|180:88|236:112,1,191.999994140625,4|2,0:0|0:0,0:0:0:0:
324,152,42012,1,8,0:0:0:0:
392,220,42225,2,0,B|404:268|404:268|392:312|392:312|404:360,2,143.999995605469,0|0|8,0:0|0:0|0:0,0:0:0:0:
296,232,43076,2,0,B|308:280|308:280|296:324|296:324|308:372,2,143.999995605469,6|6|14,0:0|0:0|0:0,0:0:0:0:
212,184,43927,2,0,P|176:176|176:40,1,191.999994140625,0|2,0:0|0:0,0:0:0:0:
260,32,44565,1,10,0:0:0:0:
356,40,44778,6,0,P|416:40|476:216,1,256,4|4,0:0|0:0,0:0:0:0:
372,252,46054,2,0,P|335:253|300:272,1,64,8|2,0:0|0:0,0:0:0:0:
272,316,46480,2,0,P|272:260|232:184,1,128,4|8,0:0|0:0,0:0:0:0:
192,156,47118,1,2,0:0:0:0:
192,156,47331,2,0,P|152:112|164:40,1,128,4|8,0:0|0:0,0:0:0:0:
224,56,47969,1,2,0:0:0:0:
224,56,48182,6,0,B|288:64|288:64|352:104,1,128,4|8,0:0|0:0,0:0:0:0:
224,148,49033,2,0,B|192:160|180:192|180:192|192:224|224:236,1,128,4|8,0:0|0:0,0:0:0:0:
341,286,49884,2,0,B|288:320|288:320|224:328,1,128,4|8,0:0|0:0,0:0:0:0:
100,304,50735,2,0,L|92:368,2,64,4|2|8,0:0|0:0|0:0,0:0:0:0:
136,252,51373,1,2,0:0:0:0:
164,196,51586,6,0,P|116:196|72:144,2,96,4|2|2,0:0|0:0|0:0,0:0:0:0:
224,175,52437,2,0,P|283:155|344:171,1,128,0|8,0:0|0:0,0:0:0:0:
352,300,53288,6,0,P|400:300|444:248,2,96,12|2|2,0:0|0:0|0:0,0:0:0:0:
292,280,54139,2,0,P|236:260|164:280,1,128,0|8,0:0|0:0,0:0:0:0:
120,312,54778,1,8,0:0:0:0:
76,356,54990,6,0,L|56:220,1,128,14|10,0:0|0:0,0:0:0:0:
76,168,55629,1,2,0:0:0:0:
108,112,55842,2,0,L|184:84,1,64,4|2,0:0|0:0,0:0:0:0:
216,132,56267,2,0,L|276:109,1,64,10|2,0:0|0:0,0:0:0:0:
328,72,56693,6,0,P|336:120|376:200,1,128,12|12,0:0|0:0,0:0:0:0:
408,244,57331,1,0,0:0:0:0:
444,300,57544,6,0,P|396:308|316:348,1,128,12|12,0:0|0:0,0:0:0:0:
272,380,58182,1,12,0:0:0:0:
208,364,58395,1,12,0:0:0:0:
256,192,58501,12,12,60097,0:0:0:0:
296,196,61161,6,0,L|296:268,2,64,8|2|8,0:0|0:0|0:0,0:0:0:0:
256,148,61799,1,4,0:0:0:0:
256,192,61905,12,0,63501,0:0:0:0:
