osu file format v14

[General]
AudioFilename: 111 Champion Steven.mp3
AudioLeadIn: 2000
PreviewTime: 31171
Countdown: 0
SampleSet: Normal
StackLeniency: 0.7
Mode: 0
LetterboxInBreaks: 0
EpilepsyWarning: 1
WidescreenStoryboard: 1
SamplesMatchPlaybackRate: 1

[Editor]
DistanceSpacing: 1.4
BeatDivisor: 4
GridSize: 4
TimelineZoom: 2.4

[Metadata]
Title:Champion Daigo
TitleUnicode:チャンピオンダイゴ
Artist:Go Ichinose
ArtistUnicode:一之瀬剛
Creator:Baraatje123
Version:Insane
Source:ポケットモンスター オメガルビー・アルファサファイア
Tags:Steven Pokemon Pokémon Omega Ruby and Alpha Sapphire Shota Kageyama GAME FREAK - Magic Bomb - A Mystery Irreversible
BeatmapID:711395
BeatmapSetID:319636

[Difficulty]
HPDrainRate:6
CircleSize:4
OverallDifficulty:8
ApproachRate:8.5
SliderMultiplier:2.4
SliderTickRate:2

[Events]
//Background and Video events
0,0,"BG.jpg",0,0
//Break Periods
//Storyboard Layer 0 (Background)
//Storyboard Layer 1 (Fail)
//Storyboard Layer 2 (Pass)
//Storyboard Layer 3 (Foreground)
Sprite,Foreground,Centre,"ring.png",320,240 M,0,5629,6267,232,390 F,0,5629,6267,1,0 S,0,5629,6267,0.2402587,1.222969
Sprite,Foreground,Centre,"ring.png",320,240 M,0,5948,6586,464,334 F,0,5948,6586,1,0 S,0,5948,6586,0.2402587,1.222969
Sprite,Foreground,Centre,"ring.png",320,240 M,0,6267,6905,408,102 F,0,6267,6905,1,0 S,0,6267,6905,0.2402587,1.222969
Sprite,Foreground,Centre,"ring.png",320,240 M,0,9033,9671,392,342 F,0,9033,9671,1,0 S,0,9033,9671,0.2402587,1.222969
Sprite,Foreground,Centre,"ring.png",320,240 M,0,9352,9990,352,222 F,0,9352,9990,1,0 S,0,9352,9990,0.2402587,1.222969
Sprite,Foreground,Centre,"ring.png",320,240 M,0,9671,10310,448,259 F,0,9671,10310,1,0 S,0,9671,10310,0.2402587,1.222969
Sprite,Foreground,Centre,"ring.png",320,240 M,0,12437,13076,320,390 F,0,12437,13076,1,0 S,0,12437,13076,0.2402587,1.222969
Sprite,Foreground,Centre,"ring.png",320,240 M,0,12756,13395,248,310 F,0,12756,13395,1,0 S,0,12756,13395,0.2402587,1.222969
Sprite,Foreground,Centre,"ring.png",320,240 M,0,13076,13714,323,242 F,0,13076,13714,1,0 S,0,13076,13714,0.2402587,1.222969
Sprite,Foreground,Centre,"ring.png",320,240 M,0,15842,16480,296,138 F,0,15842,16480,1,0 S,0,15842,16480,0.2402587,1.222969
Sprite,Foreground,Centre,"ring.png",320,240 M,0,16161,16799,208,190 F,0,16161,16799,1,0 S,0,16161,16799,0.2402587,1.222969
Sprite,Foreground,Centre,"ring.png",320,240 M,0,16480,17118,260,278 F,0,16480,17118,1,0 S,0,16480,17118,0.2402587,1.222969
Sprite,Foreground,Centre,"ring.png",320,240 M,0,32863,33501,520,374 F,0,32863,33501,1,0 S,0,32863,33501,0.2402587,1.222969
Sprite,Foreground,Centre,"ring.png",320,240 M,0,33182,33820,272,274 F,0,33182,33820,1,0 S,0,33182,33820,0.2402587,1.222969
Sprite,Foreground,Centre,"ring.png",320,240 M,0,33501,34139,241,386 F,0,33501,34139,1,0 S,0,33501,34139,0.2402587,1.222969
Sprite,Foreground,Centre,"ring.png",320,240 M,0,36267,36905,320,118 F,0,36267,36905,1,0 S,0,36267,36905,0.2402587,1.222969
Sprite,Foreground,Centre,"ring.png",320,240 M,0,36586,37225,392,198 F,0,36586,37225,1,0 S,0,36586,37225,0.2402587,1.222969
Sprite,Foreground,Centre,"ring.png",320,240 M,0,36905,37544,499,389 F,0,36905,37544,1,0 S,0,36905,37544,0.2402587,1.222969
Sprite,Foreground,Centre,"ring.png",320,240 M,0,39671,40310,276,182 F,0,39671,40310,1,0 S,0,39671,40310,0.2402587,1.222969
Sprite,Foreground,Centre,"ring.png",320,240 M,0,39990,40629,216,286 F,0,39990,40629,1,0 S,0,39990,40629,0.2402587,1.222969
Sprite,Foreground,Centre,"ring.png",320,240 M,0,40310,40948,354,176 F,0,40310,40948,1,0 S,0,40310,40948,0.2402587,1.222969
Sprite,Foreground,Centre,"ring.png",320,240 M,0,43076,43714,320,102 F,0,43076,43714,1,0 S,0,43076,43714,0.2402587,1.222969
Sprite,Foreground,Centre,"ring.png",320,240 M,0,43395,44033,392,202 F,0,43395,44033,1,0 S,0,43395,44033,0.2402587,1.222969
Sprite,Foreground,Centre,"ring.png",320,240 M,0,43714,44352,462,367 F,0,43714,44352,1,0 S,0,43714,44352,0.2402587,1.222969
//Storyboard Sound Samples

[TimingPoints]
522.911981224636,425.531914893617,4,1,1,80,1,0
2225,-133.333333333333,4,2,1,80,0,0
3927,-95.2380952380951,4,1,1,80,0,1
5629,-95.2380952380951,4,1,1,80,0,1
5948,-80,4,1,1,80,0,1
6267,-68.9655172413793,4,1,1,80,0,1
6693,-95.2380952380952,4,1,1,80,0,1
6905,-188.679245283019,4,1,1,80,0,1
7331,-90.9090909090909,4,1,1,80,0,1
9033,-90.9090909090909,4,1,1,80,0,1
9352,-76.9230769230769,4,1,1,80,0,1
9671,-66.6666666666667,4,1,1,80,0,1
10097,-90.9090909090909,4,1,1,80,0,1
10310,-181.818181818182,4,1,1,80,0,1
10735,-86.9565217391304,4,1,1,80,0,1
12437,-86.9565217391304,4,1,1,80,0,1
12756,-74.0740740740741,4,1,1,80,0,1
13076,-64.5161290322581,4,1,1,80,0,1
13501,-86.9565217391304,4,1,1,80,0,1
13714,-172.413793103448,4,1,1,80,0,1
14139,-83.3333333333333,4,1,1,80,0,1
15842,-83.3333333333333,4,1,1,80,0,1
16161,-71.4285714285714,4,1,1,80,0,1
16480,-62.5,4,1,1,80,0,1
16905,-83.3333333333333,4,1,1,80,0,1
17544,-200,4,2,1,80,0,0
24352,-142.857142857143,4,2,1,80,0,0
27756,-100,4,2,1,80,0,0
31161,-95.2380952380951,4,1,1,80,0,1
32863,-95.2380952380951,4,1,1,80,0,1
33182,-80,4,1,1,80,0,1
33501,-68.9655172413793,4,1,1,80,0,1
33927,-95.2380952380952,4,1,1,80,0,1
34139,-188.679245283019,4,1,1,80,0,1
34565,-90.9090909090909,4,1,1,80,0,1
36267,-90.9090909090909,4,1,1,80,0,1
36586,-76.9230769230769,4,1,1,80,0,1
36905,-66.6666666666667,4,1,1,80,0,1
37331,-90.9090909090909,4,1,1,80,0,1
37544,-181.818181818182,4,1,1,80,0,1
37969,-86.9565217391304,4,1,1,80,0,1
39671,-86.9565217391304,4,1,1,80,0,1
39990,-74.0740740740741,4,1,1,80,0,1
40310,-64.5161290322581,4,1,1,80,0,1
40735,-86.9565217391304,4,1,1,80,0,1
40948,-172.413793103448,4,1,1,80,0,1
41373,-83.3333333333333,4,1,1,80,0,1
43076,-83.3333333333333,4,1,1,80,0,1
43395,-71.4285714285714,4,1,1,80,0,1
43714,-62.5,4,1,1,80,0,1
44139,-83.3333333333333,4,1,1,80,0,1
44778,-200,4,2,1,80,0,0
51586,-133.333333333333,4,2,1,80,0,0
54990,-100,4,2,1,80,0,0

[Colours]
Combo1 : 61,112,131
Combo2 : 64,0,128
Combo3 : 255,0,128
Combo4 : 255,0,0
Combo5 : 0,128,192

[HitObjects]
184,192,522,6,0,B|188:132|188:132|160:72,2,120,2|2|2,0:0|0:0|0:0,0:0:0:0:
128,256,1054,2,0,P|180:248|280:272,1,120,2|2,0:0|0:0,0:0:0:0:
396,336,1480,2,0,B|404:280|404:280|468:256|456:172,1,180,2|2,0:0|0:0,0:0:0:0:
352,44,2012,1,2,0:0:0:0:
236,96,2225,6,0,L|176:88,1,45.0000017166138,2|4,0:0|0:0,0:0:0:0:
280,208,2437,2,0,L|340:216,1,45.0000017166138,2|4,0:0|0:0,0:0:0:0:
275,95,2650,2,0,L|222:65,1,45.0000017166138,2|4,0:0|0:0,0:0:0:0:
271,216,2863,2,0,L|323:246,1,45.0000017166138,2|4,0:0|0:0,0:0:0:0:
176,168,3076,5,10,0:0:0:0:
132,177,3182,1,4,0:0:0:0:
91,161,3288,1,2,0:0:0:0:
66,125,3395,1,12,0:0:0:0:
67,80,3501,1,10,0:0:0:0:
92,44,3607,1,12,0:0:0:0:
134,29,3714,1,2,0:0:0:0:
177,39,3820,1,12,0:0:0:0:
206,73,3927,6,0,B|268:68|268:68|312:88|312:88|344:68|396:84,1,188.999994232178,4|0,0:0|0:0,0:0:0:0:
354,161,4352,2,0,L|348:232,1,62.9999980773926,2|0,0:0|0:0,0:0:0:0:
252,304,4565,2,0,L|258:233,1,62.9999980773926,8|0,0:0|0:0,0:0:0:0:
160,160,4778,2,0,B|116:116|116:116|64:120|20:104|4:68,2,188.999994232178,0|0|8,0:0|0:0|0:0,0:0:0:0:
199,246,5522,1,0,0:0:0:0:
168,336,5629,6,0,B|208:352|272:344|272:344|256:368,1,125.999996154785,6|8,0:0|0:0,0:0:0:0:
400,280,5948,6,0,B|416:240|408:176|408:176|444:208,1,150,6|0,0:0|0:0,0:0:0:0:
344,48,6267,6,0,B|304:32|240:40|240:40|312:8,1,174.000005310059,14|0,0:0|0:0,0:0:0:0:
424,24,6586,1,0,0:0:0:0:
492,84,6693,6,0,L|480:160,1,62.9999980773926,10|0,0:0|0:0,0:0:0:0:
409,249,6905,6,0,L|400:280,1,31.800000048523,2|2,0:0|0:0,0:0:0:0:
304,328,7118,2,0,L|320:276,1,31.800000048523,10|2,0:0|0:0,0:0:0:0:
292,192,7331,6,0,B|256:208|256:208|232:196|232:196|176:228|100:188,1,198.000006042481,6|0,0:0|0:0,0:0:0:0:
176,96,7756,2,0,P|180:72|172:16,1,66.0000020141602,2|0,0:0|0:0,0:0:0:0:
292,192,7969,2,0,P|288:216|296:272,1,66.0000020141602,8|0,0:0|0:0,0:0:0:0:
176,288,8182,2,0,B|140:344|140:344|104:300|48:292|8:324,2,198.000006042481,0|0|8,0:0|0:0|0:0,0:0:0:0:
252,348,8927,1,0,0:0:0:0:
328,288,9033,6,0,B|392:356|392:356|384:312,1,132.00000402832,6|8,0:0|0:0,0:0:0:0:
288,168,9352,6,0,B|224:100|224:100|236:164,1,155.999992858887,6|0,0:0|0:0,0:0:0:0:
384,204,9671,6,0,B|452:140|452:140|360:152,1,180.000006866455,14|0,0:0|0:0,0:0:0:0:
288,168,9990,1,0,0:0:0:0:
192,220,10097,6,0,L|104:216,1,66.0000020141602,10|0,0:0|0:0,0:0:0:0:
40,176,10310,6,0,L|36:140,1,33.0000010070801,2|2,0:0|0:0,0:0:0:0:
64,48,10522,2,0,L|68:84,1,33.0000010070801,10|2,0:0|0:0,0:0:0:0:
148,68,10735,6,0,B|216:60|216:60|284:72|284:72|316:48|372:60,1,207.000003948212,6|0,0:0|0:0,0:0:0:0:
331,135,11161,2,0,P|366:137|398:125,1,69.0000013160706,2|0,0:0|0:0,0:0:0:0:
224,176,11373,2,0,P|196:172|136:200,1,69.0000013160706,8|0,0:0|0:0,0:0:0:0:
332,244,11586,2,0,B|368:244|388:276|388:276|416:232|468:232|504:248|512:280,2,207.000003948212,0|0|8,0:0|0:0|0:0,0:0:0:0:
356,344,12331,1,0,0:0:0:0:
256,336,12437,6,0,B|158:373|158:373|200:348,1,138.000002632141,6|8,0:0|0:0,0:0:0:0:
184,256,12757,6,0,B|146:158|146:158|179:210,1,162.000000617981,6|0,0:0|0:0,0:0:0:0:
259,188,13076,6,0,B|356:150|356:150|284:199,1,186.000001419067,14|0,0:0|0:0,0:0:0:0:
260,260,13395,1,0,0:0:0:0:
184,256,13501,6,0,L|100:244,1,69.0000013160706,10|0,0:0|0:0,0:0:0:0:
96,168,13714,6,0,L|108:128,1,34.8000010620118,2|2,0:0|0:0,0:0:0:0:
192,88,13926,2,0,L|180:128,1,34.8000010620118,10|2,0:0|0:0,0:0:0:0:
184,256,14139,6,0,B|220:320|220:320|288:304|288:304|332:316|388:292,1,215.999993408203,6|0,0:0|0:0,0:0:0:0:
316,208,14565,2,0,P|288:204|240:212,1,71.9999978027344,2|0,0:0|0:0,0:0:0:0:
192,88,14778,2,0,P|220:92|268:84,1,71.9999978027344,8|0,0:0|0:0,0:0:0:0:
184,256,14990,2,0,B|176:264|172:280|172:280|120:264|80:304|80:388|168:384,2,215.999993408203,0|0|8,0:0|0:0|0:0,0:0:0:0:
268,188,15735,1,0,0:0:0:0:
232,84,15842,6,0,B|296:64|348:80|348:80|300:96,1,143.999995605469,6|8,0:0|0:0,0:0:0:0:
144,136,16161,6,0,B|124:72|140:20|140:20|164:80,1,167.999994873047,6|0,0:0|0:0,0:0:0:0:
196,224,16480,6,0,B|132:244|80:228|80:228|156:208,1,192,14|0,0:0|0:0,0:0:0:0:
260,172,16799,1,0,0:0:0:0:
348,188,16905,6,0,L|428:196,1,71.9999978027344,10|2,0:0|0:0,0:0:0:0:
424,280,17118,2,0,L|460:288,2,35.9999989013672,2|2|2,0:0|0:0|0:0,0:0:0:0:
356,332,17331,2,0,P|317:327|284:328,1,71.9999978027344,10|2,0:0|0:0,0:0:0:0:
204,340,17544,6,0,P|144:328|140:212,1,180,4|2,0:0|0:0,0:0:0:0:
128,157,18395,2,0,P|114:101|180:80,1,120,4|8,0:0|0:0,0:0:0:0:
228,76,19033,1,2,0:0:0:0:
268,72,19139,1,2,0:0:0:0:
308,68,19246,2,0,L|372:72,1,60,4|0,0:0|0:0,0:0:0:0:
404,148,19671,6,0,L|416:172,2,20,10|0|0,0:0|0:0|0:0,0:0:0:0:
376,144,19884,2,0,L|328:148,1,30,2|0,0:0|0:0,0:0:0:0:
308,168,20097,2,0,B|280:184|280:184|232:164|180:184,1,120,4|8,0:0|0:0,0:0:0:0:
232,272,20735,5,2,0:0:0:0:
272,280,20842,1,0,0:0:0:0:
312,288,20948,2,0,B|400:308|400:308|376:284,1,120,4|8,0:0|0:0,0:0:0:0:
252,188,21586,5,2,0:0:0:0:
212,180,21693,1,0,0:0:0:0:
172,172,21799,2,0,B|84:152|84:152|108:176,1,120,4|8,0:0|0:0,0:0:0:0:
232,272,22437,5,2,0:0:0:0:
272,280,22544,1,0,0:0:0:0:
312,288,22650,2,0,B|400:308|400:308|376:284,1,120,4|8,0:0|0:0,0:0:0:0:
252,188,23288,5,0,0:0:0:0:
212,180,23395,1,0,0:0:0:0:
172,172,23501,2,0,B|168:136,2,20,6|2|2,0:0|0:0|0:0,0:0:0:0:
148,184,23714,2,0,L|104:184,1,30,2|0,0:0|0:0,0:0:0:0:
92,216,23927,1,8,0:0:0:0:
96,256,24033,1,0,0:0:0:0:
128,284,24139,2,0,L|176:304,1,30,2|2,0:0|0:0,0:0:0:0:
256,320,24352,6,0,B|328:276|328:276|384:276,2,125.999996154785,4|2|2,0:0|0:0|0:0,0:0:0:0:
232,344,25097,1,0,0:0:0:0:
208,368,25203,1,0,0:0:0:0:
180,260,25416,1,0,0:0:0:0:
192,152,25629,1,8,0:0:0:0:
256,64,25842,1,8,0:0:0:0:
256,64,25948,1,0,0:0:0:0:
256,64,26054,6,0,B|328:108|328:108|384:108,2,125.999996154785,12|2|2,0:0|0:0|0:0,0:0:0:0:
204,40,26799,1,0,0:0:0:0:
152,16,26905,1,0,0:0:0:0:
56,84,27118,1,0,0:0:0:0:
100,192,27331,1,8,0:0:0:0:
56,300,27544,1,8,0:0:0:0:
108,328,27650,1,0,0:0:0:0:
152,368,27756,6,0,L|216:372,1,60,12|0,0:0|0:0,0:0:0:0:
292,276,27969,2,0,L|228:272,1,60,2|0,0:0|0:0,0:0:0:0:
175,391,28182,2,0,L|236:370,1,60,10|0,0:0|0:0,0:0:0:0:
268,252,28395,2,0,L|207:273,1,60,10|0,0:0|0:0,0:0:0:0:
364,320,28608,5,14,0:0:0:0:
377,293,28714,1,0,0:0:0:0:
383,263,28820,1,2,0:0:0:0:
382,234,28927,1,2,0:0:0:0:
373,205,29033,1,10,0:0:0:0:
358,179,29139,1,2,0:0:0:0:
336,159,29246,1,10,0:0:0:0:
310,144,29352,1,2,0:0:0:0:
281,136,29459,6,0,L|240:72,1,60,12|0,0:0|0:0,0:0:0:0:
152,208,29671,2,0,L|193:143,1,60,0|0,0:0|0:0,0:0:0:0:
281,279,29884,2,0,L|239:214,1,60,12|0,0:0|0:0,0:0:0:0:
152,350,30097,2,0,L|193:285,1,60,0|0,0:0|0:0,0:0:0:0:
280,280,30310,6,0,B|340:288|340:288|392:260|392:260|440:292|496:256,1,180,12|0,0:0|0:0,0:0:0:0:
440,192,30735,2,0,P|446:162|448:132,1,60,8|12,0:0|0:0,0:0:0:0:
388,80,30948,1,12,0:0:0:0:
180,92,31161,6,0,B|120:72|120:72|80:88|80:88|40:72|0:96,1,188.999994232178,6|0,0:0|0:0,0:0:0:0:
48,165,31586,2,0,P|48:200|40:240,1,62.9999980773926,2|0,0:0|0:0,0:0:0:0:
212,176,31799,2,0,P|247:176|287:184,1,62.9999980773926,8|0,0:0|0:0,0:0:0:0:
464,165,32012,2,0,B|484:128|484:128|400:160|336:108,2,188.999994232178,0|0|8,0:0|0:0|0:0,0:0:0:0:
384,232,32756,1,0,0:0:0:0:
456,320,32863,6,0,P|396:340|324:328,1,125.999996154785,6|8,0:0|0:0,0:0:0:0:
208,220,33182,6,0,P|256:172|304:220,1,150,6|0,0:0|0:0,0:0:0:0:
177,332,33501,6,0,P|115:339|24:272,1,174.000005310059,14|0,0:0|0:0,0:0:0:0:
64,180,33820,1,0,0:0:0:0:
112,88,33927,6,0,L|196:76,1,62.9999980773926,10|0,0:0|0:0,0:0:0:0:
252,136,34139,6,0,L|292:136,1,31.800000048523,2|2,0:0|0:0,0:0:0:0:
335,219,34352,2,0,L|295:219,1,31.800000048523,10|2,0:0|0:0,0:0:0:0:
276,296,34565,6,0,B|304:288|304:288|352:312|412:284|428:216|400:176,1,198.000006042481,4|0,0:0|0:0,0:0:0:0:
335,219,34990,2,0,P|332:180|352:140,1,66.0000020141602,2|0,0:0|0:0,0:0:0:0:
240,24,35203,2,0,P|243:63|223:103,1,66.0000020141602,8|0,0:0|0:0,0:0:0:0:
176,232,35416,2,0,B|176:300|176:300|124:316|80:272|96:192,2,198.000006042481,0|0|8,0:0|0:0|0:0,0:0:0:0:
152,124,36161,1,0,0:0:0:0:
256,64,36267,6,0,L|436:48,1,132.00000402832,6|8,0:0|0:0,0:0:0:0:
328,144,36586,6,0,B|267:192|267:192|328:240,1,155.999992858887,6|0,0:0|0:0,0:0:0:0:
435,335,36905,6,0,L|256:320,1,180.000006866455,14|0,0:0|0:0,0:0:0:0:
156,240,37225,1,0,0:0:0:0:
76,196,37331,6,0,L|96:116,1,66.0000020141602,10|0,0:0|0:0,0:0:0:0:
212,140,37544,6,0,L|216:180,1,33.0000010070801,2|2,0:0|0:0,0:0:0:0:
296,172,37757,2,0,L|300:140,1,33.0000010070801,10|2,0:0|0:0,0:0:0:0:
256,64,37969,6,0,B|220:48|176:64|176:64|140:24|76:16|32:76,1,207.000003948212,4|0,0:0|0:0,0:0:0:0:
108,116,38395,2,0,L|112:200,1,69.0000013160706,2|0,0:0|0:0,0:0:0:0:
255,319,38608,2,0,L|259:235,1,69.0000013160706,8|0,0:0|0:0,0:0:0:0:
404,116,38820,2,0,B|444:128|460:176|460:176|508:200|508:268|456:292,2,207.000003948212,0|0|8,0:0|0:0|0:0,0:0:0:0:
320,192,39565,1,0,0:0:0:0:
212,128,39671,6,0,P|164:120|32:172,1,138.000002632141,6|8,0:0|0:0,0:0:0:0:
152,232,39990,6,0,B|224:272|224:272|268:280|308:252,1,162.000000617981,6|0,0:0|0:0,0:0:0:0:
390,122,40310,6,0,P|300:103|212:128,1,186.000001419067,14|0,0:0|0:0,0:0:0:0:
128,152,40629,1,0,0:0:0:0:
152,232,40735,6,0,P|160:256|152:316,1,69.0000013160706,10|0,0:0|0:0,0:0:0:0:
80,276,40948,6,0,L|40:272,1,34.8000010620118,2|2,0:0|0:0,0:0:0:0:
24,196,41161,2,0,L|64:200,1,34.8000010620118,10|2,0:0|0:0,0:0:0:0:
152,232,41373,6,0,B|188:224|188:224|220:240|220:240|320:200|292:252|380:220,1,215.999993408203,4|0,0:0|0:0,0:0:0:0:
328,148,41799,2,0,P|332:116|352:80,1,71.9999978027344,2|0,0:0|0:0,0:0:0:0:
280,312,42012,2,0,P|276:344|256:380,1,71.9999978027344,8|0,0:0|0:0,0:0:0:0:
184,148,42224,2,0,B|160:156|160:156|112:148|60:188|48:260|124:312,2,215.999993408203,0|0|8,0:0|0:0|0:0,0:0:0:0:
136,40,42969,1,0,0:0:0:0:
256,48,43076,6,0,L|408:72,1,143.999995605469,6|0,0:0|0:0,0:0:0:0:
328,148,43395,6,0,B|256:192|256:192|328:236,1,167.999994873047,6|0,0:0|0:0,0:0:0:0:
398,313,43714,6,0,L|192:352,1,192,14|0,0:0|0:0,0:0:0:0:
136,304,44033,1,0,0:0:0:0:
76,240,44139,6,0,L|92:164,1,71.9999978027344,10|2,0:0|0:0,0:0:0:0:
168,112,44352,2,0,L|172:76,2,35.9999989013672,2|2|2,0:0|0:0|0:0,0:0:0:0:
240,176,44565,2,0,L|254:105,1,71.9999978027344,10|2,0:0|0:0,0:0:0:0:
308,44,44778,6,0,P|368:56|372:172,1,180,4|2,0:0|0:0,0:0:0:0:
384,227,45629,2,0,P|398:283|366:332,1,120,4|8,0:0|0:0,0:0:0:0:
316,270,46267,1,2,0:0:0:0:
284,262,46373,1,0,0:0:0:0:
252,254,46480,2,0,L|180:254,1,60,4|0,0:0|0:0,0:0:0:0:
128,160,46905,2,0,L|100:152,2,20,8|0|0,0:0|0:0|0:0,0:0:0:0:
152,144,47118,2,0,L|176:104,1,30,2|0,0:0|0:0,0:0:0:0:
180,76,47331,2,0,B|212:100|284:88|284:88|264:112,1,120,4|8,0:0|0:0,0:0:0:0:
304,184,47969,5,2,0:0:0:0:
264,192,48076,1,0,0:0:0:0:
224,200,48182,2,0,B|136:220|136:220|160:196,1,120,4|8,0:0|0:0,0:0:0:0:
284,100,48820,5,2,0:0:0:0:
324,92,48927,1,0,0:0:0:0:
364,84,49033,2,0,B|452:64|452:64|428:88,1,120,4|8,0:0|0:0,0:0:0:0:
304,184,49671,5,2,0:0:0:0:
264,192,49778,1,0,0:0:0:0:
224,200,49884,2,0,B|136:220|136:220|160:196,1,120,4|8,0:0|0:0,0:0:0:0:
284,100,50522,5,0,0:0:0:0:
324,92,50629,1,0,0:0:0:0:
364,84,50735,2,0,B|368:48,2,20,4|0|0,0:0|0:0|0:0,0:0:0:0:
388,96,50948,2,0,L|432:96,1,30,2|0,0:0|0:0,0:0:0:0:
444,128,51161,1,8,0:0:0:0:
440,168,51267,1,0,0:0:0:0:
408,196,51373,2,0,L|360:216,1,30,2|2,0:0|0:0,0:0:0:0:
320,224,51586,6,0,B|340:264|340:264|340:308|340:308|320:352,2,135.000005149841,4|2|2,0:0|0:0|0:0,0:0:0:0:
296,204,52331,1,0,0:0:0:0:
264,200,52437,1,0,0:0:0:0:
112,108,52650,1,0,0:0:0:0:
112,276,52863,1,8,0:0:0:0:
264,200,53075,5,8,0:0:0:0:
296,188,53181,1,0,0:0:0:0:
320,160,53288,2,0,B|340:120|340:120|340:76|340:76|320:33,2,135.000005149841,12|2|2,0:0|0:0|0:0,0:0:0:0:
296,188,54033,1,0,0:0:0:0:
264,200,54139,1,0,0:0:0:0:
112,276,54352,1,0,0:0:0:0:
196,172,54565,1,8,0:0:0:0:
128,56,54778,1,8,0:0:0:0:
136,32,54884,1,0,0:0:0:0:
152,16,54990,6,0,L|216:12,1,60,14|0,0:0|0:0,0:0:0:0:
292,108,55203,2,0,L|228:112,1,60,2|0,0:0|0:0,0:0:0:0:
175,8,55416,2,0,L|236:22,1,60,10|0,0:0|0:0,0:0:0:0:
268,124,55629,2,0,L|207:103,1,60,2|0,0:0|0:0,0:0:0:0:
364,64,55842,5,4,0:0:0:0:
377,91,55948,1,0,0:0:0:0:
383,121,56054,1,2,0:0:0:0:
382,150,56161,1,2,0:0:0:0:
373,179,56267,1,10,0:0:0:0:
358,205,56373,1,2,0:0:0:0:
336,225,56480,1,2,0:0:0:0:
310,240,56586,1,2,0:0:0:0:
281,248,56693,6,0,L|240:312,1,60,12|0,0:0|0:0,0:0:0:0:
152,176,56905,2,0,L|193:241,1,60,0|0,0:0|0:0,0:0:0:0:
281,105,57118,2,0,L|239:170,1,60,12|0,0:0|0:0,0:0:0:0:
152,34,57331,2,0,L|193:99,1,60,0|0,0:0|0:0,0:0:0:0:
280,104,57544,6,0,B|340:96|340:96|392:124|392:124|440:92|496:128,1,180,12|0,0:0|0:0,0:0:0:0:
440,192,57969,2,0,P|446:221|448:251,1,60,8|12,0:0|0:0,0:0:0:0:
364,232,58182,1,12,0:0:0:0:
304,296,58288,1,0,0:0:0:0:
328,380,58395,1,12,0:0:0:0:
256,192,58501,12,12,60097,0:0:0:0:
132,80,60416,6,0,B|192:80|192:80|232:40|232:40|304:40,1,180,8|8,0:0|0:0,0:0:0:0:
448,340,61161,1,8,0:0:0:0:
296,272,61373,1,2,0:0:0:0:
256,252,61480,1,0,0:0:0:0:
216,272,61586,1,8,0:0:0:0:
64,340,61799,5,4,0:0:0:0:
256,192,61905,12,0,63501,0:0:0:0:
