osu file format v14

[General]
AudioFilename: Champion Cynthia.mp3
AudioLeadIn: 0
PreviewTime: 2729
Countdown: 0
SampleSet: Soft
StackLeniency: 0.7
Mode: 3
LetterboxInBreaks: 0
SpecialStyle: 0
WidescreenStoryboard: 0

[Editor]
DistanceSpacing: 1.3
BeatDivisor: 3
GridSize: 8
TimelineZoom: 2.4

[Metadata]
Title:Champion Cynthia
TitleUnicode:チャンピオンシロナ
Artist:Go Ichinose
ArtistUnicode:一之瀬剛
Creator:Sinnoh
Version:MX
Source:ポケットモンスター ダイヤモンド・パール
Tags:Pokemon Diamond Pearl Platinum Game Freak Nintendo
BeatmapID:1445971
BeatmapSetID:683673

[Difficulty]
HPDrainRate:8.5
CircleSize:4
OverallDifficulty:8.5
ApproachRate:5
SliderMultiplier:1.4
SliderTickRate:1

[Events]
//Background and Video events
0,0,"nice reso.jpg",0,0
//Break Periods
//Storyboard Layer 0 (Background)
//Storyboard Layer 1 (Fail)
//Storyboard Layer 2 (Pass)
//Storyboard Layer 3 (Foreground)
//Storyboard Sound Samples

[TimingPoints]
353,297.029702970297,4,2,1,60,1,0

[HitObjects]
320,192,353,5,0,0:0:0:0:
64,192,353,1,0,0:0:0:0:
448,192,353,1,0,0:0:0:0:
320,192,452,1,0,0:0:0:0:
320,192,551,1,0,0:0:0:0:
64,192,650,1,0,0:0:0:0:
192,192,650,1,2,0:0:0:0:
448,192,650,128,0,947:0:0:0:0:
64,192,947,1,0,0:0:0:0:
192,192,947,1,0,0:0:0:0:
320,192,947,1,0,0:0:0:0:
192,192,1046,1,0,0:0:0:0:
192,192,1145,1,0,0:0:0:0:
64,192,1244,1,0,0:0:0:0:
448,192,1244,1,2,0:0:0:0:
320,192,1244,128,0,1541:0:0:0:0:
64,192,1541,1,0,0:0:0:0:
192,192,1541,1,0,0:0:0:0:
448,192,1541,1,0,0:0:0:0:
64,192,1640,1,0,0:0:0:0:
64,192,1739,1,0,0:0:0:0:
320,192,1838,1,2,0:0:0:0:
448,192,1838,1,0,0:0:0:0:
192,192,1838,128,0,2135:0:0:0:0:
448,192,2135,1,0,0:0:0:0:
64,192,2135,1,0,0:0:0:0:
320,192,2135,1,0,0:0:0:0:
448,192,2234,1,0,0:0:0:0:
448,192,2333,1,0,0:0:0:0:
192,192,2432,1,2,0:0:0:0:
320,192,2432,1,0,0:0:0:0:
64,192,2432,128,0,2729:0:0:0:0:
320,192,2729,1,0,0:0:0:0:
448,192,3026,1,2,0:0:0:0:
64,192,3026,1,0,0:0:0:0:
320,192,3125,1,0,0:0:0:0:
448,192,3224,1,0,0:0:0:0:
192,192,3323,1,2,0:0:0:0:
64,192,3323,1,0,0:0:0:0:
320,192,3422,1,0,0:0:0:0:
64,192,3521,1,0,0:0:0:0:
192,192,3620,1,0,0:0:0:0:
320,192,3620,1,2,0:0:0:0:
448,192,3719,1,0,0:0:0:0:
320,192,3818,1,0,0:0:0:0:
448,192,3917,1,0,0:0:0:0:
64,192,3917,1,2,0:0:0:0:
192,192,4016,1,0,0:0:0:0:
320,192,4115,1,0,0:0:0:0:
64,192,4214,1,0,0:0:0:0:
192,192,4214,1,2,0:0:0:0:
448,192,4313,1,0,0:0:0:0:
320,192,4412,1,0,0:0:0:0:
448,192,4511,1,0,0:0:0:0:
192,192,4511,1,2,0:0:0:0:
320,192,4610,1,0,0:0:0:0:
448,192,4709,1,0,0:0:0:0:
192,192,4808,1,2,0:0:0:0:
64,192,4808,1,0,0:0:0:0:
320,192,4907,1,0,0:0:0:0:
192,192,5006,1,0,0:0:0:0:
64,192,5105,1,0,0:0:0:0:
320,192,5105,1,0,0:0:0:0:
448,192,5105,1,2,0:0:0:0:
192,192,5204,1,0,0:0:0:0:
320,192,5303,1,0,0:0:0:0:
448,192,5402,1,0,0:0:0:0:
192,192,5402,1,2,0:0:0:0:
448,192,5501,1,0,0:0:0:0:
192,192,5501,1,2,0:0:0:0:
320,192,5600,1,0,0:0:0:0:
192,192,5699,1,0,0:0:0:0:
64,192,5699,1,0,0:0:0:0:
320,192,5798,1,0,0:0:0:0:
448,192,5897,1,0,0:0:0:0:
192,192,5996,1,2,0:0:0:0:
64,192,5996,1,0,0:0:0:0:
64,192,6095,1,0,0:0:0:0:
192,192,6095,1,2,0:0:0:0:
320,192,6194,1,0,0:0:0:0:
448,192,6293,1,0,0:0:0:0:
192,192,6293,1,0,0:0:0:0:
64,192,6392,1,0,0:0:0:0:
192,192,6491,1,0,0:0:0:0:
320,192,6590,1,0,0:0:0:0:
448,192,6590,1,2,0:0:0:0:
448,192,6689,1,2,0:0:0:0:
320,192,6689,1,0,0:0:0:0:
192,192,6788,1,0,0:0:0:0:
64,192,6887,1,0,0:0:0:0:
448,192,6887,1,0,0:0:0:0:
320,192,6986,1,0,0:0:0:0:
192,192,7085,1,0,0:0:0:0:
64,192,7184,1,0,0:0:0:0:
320,192,7184,1,2,0:0:0:0:
320,192,7283,1,2,0:0:0:0:
64,192,7283,1,0,0:0:0:0:
192,192,7382,1,0,0:0:0:0:
320,192,7481,1,0,0:0:0:0:
448,192,7481,1,0,0:0:0:0:
64,192,7580,1,0,0:0:0:0:
448,192,7679,1,0,0:0:0:0:
192,192,7778,1,2,0:0:0:0:
320,192,7778,1,0,0:0:0:0:
320,192,7877,1,0,0:0:0:0:
192,192,7877,1,2,0:0:0:0:
64,192,7976,1,0,0:0:0:0:
192,192,8075,1,0,0:0:0:0:
448,192,8075,1,0,0:0:0:0:
320,192,8174,1,0,0:0:0:0:
192,192,8273,1,0,0:0:0:0:
64,192,8372,1,0,0:0:0:0:
448,192,8372,1,2,0:0:0:0:
448,192,8471,1,2,0:0:0:0:
64,192,8471,1,0,0:0:0:0:
320,192,8570,1,0,0:0:0:0:
192,192,8669,1,0,0:0:0:0:
64,192,8669,1,0,0:0:0:0:
320,192,8768,1,0,0:0:0:0:
448,192,8867,1,0,0:0:0:0:
320,192,8966,1,2,0:0:0:0:
64,192,8966,1,0,0:0:0:0:
64,192,9065,1,0,0:0:0:0:
320,192,9065,1,2,0:0:0:0:
192,192,9164,1,0,0:0:0:0:
320,192,9263,1,0,0:0:0:0:
448,192,9263,1,0,0:0:0:0:
192,192,9362,1,0,0:0:0:0:
64,192,9461,1,0,0:0:0:0:
192,192,9560,1,0,0:0:0:0:
448,192,9560,1,2,0:0:0:0:
448,192,9659,1,2,0:0:0:0:
192,192,9659,1,0,0:0:0:0:
320,192,9758,1,0,0:0:0:0:
448,192,9857,1,0,0:0:0:0:
64,192,9857,1,0,0:0:0:0:
192,192,9857,1,0,0:0:0:0:
320,192,9956,1,0,0:0:0:0:
448,192,10055,1,0,0:0:0:0:
192,192,10154,1,2,0:0:0:0:
64,192,10154,1,0,0:0:0:0:
192,192,10253,1,2,0:0:0:0:
64,192,10253,1,0,0:0:0:0:
448,192,10353,1,0,0:0:0:0:
320,192,10452,1,0,0:0:0:0:
64,192,10452,1,0,0:0:0:0:
192,192,10551,1,0,0:0:0:0:
64,192,10650,1,0,0:0:0:0:
448,192,10749,1,0,0:0:0:0:
320,192,10749,1,2,0:0:0:0:
320,192,10848,1,2,0:0:0:0:
448,192,10848,1,0,0:0:0:0:
192,192,10947,1,0,0:0:0:0:
64,192,11046,1,0,0:0:0:0:
320,192,11046,1,0,0:0:0:0:
192,192,11145,1,0,0:0:0:0:
448,192,11244,1,0,0:0:0:0:
320,192,11343,1,0,0:0:0:0:
192,192,11343,1,2,0:0:0:0:
192,192,11442,1,2,0:0:0:0:
320,192,11442,1,0,0:0:0:0:
64,192,11541,1,0,0:0:0:0:
320,192,11640,1,0,0:0:0:0:
448,192,11640,1,0,0:0:0:0:
192,192,11739,1,0,0:0:0:0:
64,192,11838,1,0,0:0:0:0:
192,192,11937,1,0,0:0:0:0:
448,192,11937,1,2,0:0:0:0:
192,192,12036,1,0,0:0:0:0:
448,192,12036,1,2,0:0:0:0:
320,192,12135,1,0,0:0:0:0:
64,192,12234,1,0,0:0:0:0:
192,192,12234,1,0,0:0:0:0:
448,192,12234,1,0,0:0:0:0:
320,192,12333,1,0,0:0:0:0:
448,192,12432,1,0,0:0:0:0:
320,192,12531,1,2,0:0:0:0:
64,192,12531,1,0,0:0:0:0:
320,192,12630,1,2,0:0:0:0:
64,192,12630,1,0,0:0:0:0:
192,192,12729,1,0,0:0:0:0:
320,192,12828,1,0,0:0:0:0:
448,192,12828,1,0,0:0:0:0:
192,192,12927,1,0,0:0:0:0:
64,192,13026,1,0,0:0:0:0:
320,192,13125,1,2,0:0:0:0:
192,192,13125,1,0,0:0:0:0:
192,192,13224,1,0,0:0:0:0:
320,192,13224,1,2,0:0:0:0:
448,192,13323,1,0,0:0:0:0:
320,192,13422,1,0,0:0:0:0:
64,192,13422,1,0,0:0:0:0:
192,192,13521,1,0,0:0:0:0:
320,192,13620,1,0,0:0:0:0:
64,192,13719,1,0,0:0:0:0:
192,192,13719,1,2,0:0:0:0:
192,192,13818,1,2,0:0:0:0:
64,192,13818,1,0,0:0:0:0:
320,192,13917,1,0,0:0:0:0:
448,192,14016,1,0,0:0:0:0:
64,192,14016,1,0,0:0:0:0:
192,192,14115,1,0,0:0:0:0:
320,192,14214,1,0,0:0:0:0:
448,192,14313,1,0,0:0:0:0:
192,192,14313,1,2,0:0:0:0:
448,192,14412,1,0,0:0:0:0:
192,192,14412,1,2,0:0:0:0:
320,192,14511,1,0,0:0:0:0:
192,192,14610,1,0,0:0:0:0:
64,192,14610,1,0,0:0:0:0:
448,192,14610,1,0,0:0:0:0:
320,192,14709,1,0,0:0:0:0:
448,192,14808,1,0,0:0:0:0:
192,192,14907,1,2,0:0:0:0:
64,192,14907,1,0,0:0:0:0:
64,192,15006,1,0,0:0:0:0:
192,192,15006,1,2,0:0:0:0:
448,192,15105,1,0,0:0:0:0:
64,192,15204,1,0,0:0:0:0:
320,192,15204,1,0,0:0:0:0:
192,192,15303,1,0,0:0:0:0:
64,192,15402,1,0,0:0:0:0:
320,192,15501,1,2,0:0:0:0:
448,192,15501,1,0,0:0:0:0:
448,192,15600,1,0,0:0:0:0:
320,192,15600,1,2,0:0:0:0:
192,192,15699,1,0,0:0:0:0:
320,192,15798,1,0,0:0:0:0:
64,192,15798,1,0,0:0:0:0:
448,192,15897,1,0,0:0:0:0:
192,192,15996,1,0,0:0:0:0:
64,192,16095,1,0,0:0:0:0:
448,192,16095,1,2,0:0:0:0:
64,192,16194,1,0,0:0:0:0:
448,192,16194,1,2,0:0:0:0:
320,192,16293,1,0,0:0:0:0:
192,192,16392,1,0,0:0:0:0:
64,192,16392,1,0,0:0:0:0:
448,192,16491,1,0,0:0:0:0:
320,192,16590,1,0,0:0:0:0:
192,192,16689,1,2,0:0:0:0:
64,192,16689,1,0,0:0:0:0:
192,192,16788,1,2,0:0:0:0:
64,192,16788,1,0,0:0:0:0:
320,192,16887,1,0,0:0:0:0:
448,192,16986,1,0,0:0:0:0:
192,192,16986,1,0,0:0:0:0:
64,192,16986,1,0,0:0:0:0:
320,192,17085,1,0,0:0:0:0:
448,192,17184,1,0,0:0:0:0:
320,192,17283,1,0,0:0:0:0:
192,192,17283,1,2,0:0:0:0:
320,192,17382,1,0,0:0:0:0:
192,192,17382,1,2,0:0:0:0:
64,192,17481,1,0,0:0:0:0:
192,192,17580,1,0,0:0:0:0:
448,192,17580,1,0,0:0:0:0:
320,192,17679,1,0,0:0:0:0:
192,192,17778,1,0,0:0:0:0:
64,192,17877,1,0,0:0:0:0:
320,192,17877,1,2,0:0:0:0:
320,192,17976,1,2,0:0:0:0:
64,192,17976,1,0,0:0:0:0:
192,192,18075,1,0,0:0:0:0:
320,192,18174,1,0,0:0:0:0:
448,192,18174,1,0,0:0:0:0:
192,192,18273,1,0,0:0:0:0:
64,192,18372,1,0,0:0:0:0:
320,192,18471,1,2,0:0:0:0:
448,192,18471,1,0,0:0:0:0:
448,192,18570,1,0,0:0:0:0:
320,192,18570,1,2,0:0:0:0:
192,192,18669,1,0,0:0:0:0:
64,192,18768,1,0,0:0:0:0:
320,192,18768,1,0,0:0:0:0:
192,192,18867,1,0,0:0:0:0:
320,192,18966,1,0,0:0:0:0:
448,192,19065,1,0,0:0:0:0:
64,192,19065,1,2,0:0:0:0:
64,192,19164,1,2,0:0:0:0:
448,192,19164,1,0,0:0:0:0:
192,192,19263,1,0,0:0:0:0:
64,192,19362,1,0,0:0:0:0:
448,192,19362,1,0,0:0:0:0:
64,192,19461,128,0,19956:0:0:0:0:
448,192,19659,1,2,0:0:0:0:
448,192,19758,1,0,0:0:0:0:
320,192,19857,1,0,0:0:0:0:
192,192,19857,1,2,0:0:0:0:
448,192,19956,1,0,0:0:0:0:
320,192,20055,1,0,0:0:0:0:
192,192,20154,1,0,0:0:0:0:
448,192,20154,1,2,0:0:0:0:
64,192,20253,1,0,0:0:0:0:
192,192,20353,1,0,0:0:0:0:
320,192,20452,1,2,0:0:0:0:
448,192,20452,1,0,0:0:0:0:
64,192,20551,1,0,0:0:0:0:
192,192,20650,1,0,0:0:0:0:
64,192,20749,1,0,0:0:0:0:
320,192,20749,1,2,0:0:0:0:
448,192,20848,1,0,0:0:0:0:
192,192,20947,1,0,0:0:0:0:
448,192,21046,1,2,0:0:0:0:
64,192,21046,1,0,0:0:0:0:
320,192,21145,1,0,0:0:0:0:
192,192,21244,1,0,0:0:0:0:
64,192,21343,1,0,0:0:0:0:
320,192,21343,1,2,0:0:0:0:
192,192,21442,1,0,0:0:0:0:
448,192,21541,1,0,0:0:0:0:
320,192,21640,1,0,0:0:0:0:
64,192,21640,1,2,0:0:0:0:
192,192,21739,1,0,0:0:0:0:
320,192,21838,1,0,0:0:0:0:
192,192,21937,1,2,0:0:0:0:
64,192,21937,1,0,0:0:0:0:
320,192,22036,1,0,0:0:0:0:
192,192,22135,1,0,0:0:0:0:
448,192,22234,1,0,0:0:0:0:
320,192,22234,1,2,0:0:0:0:
64,192,22333,1,0,0:0:0:0:
192,192,22333,1,2,0:0:0:0:
448,192,22333,1,0,0:0:0:0:
64,192,22432,1,0,0:0:0:0:
64,192,22531,1,0,0:0:0:0:
448,192,22630,128,2,22927:0:0:0:0:
320,192,22630,1,0,0:0:0:0:
192,192,22630,1,0,0:0:0:0:
64,192,22927,1,0,0:0:0:0:
64,192,23026,128,0,23521:0:0:0:0:
192,192,23224,1,0,0:0:0:0:
320,192,23323,1,0,0:0:0:0:
448,192,23422,1,2,0:0:0:0:
192,192,23422,1,0,0:0:0:0:
320,192,23521,1,0,0:0:0:0:
192,192,23620,1,0,0:0:0:0:
448,192,23719,1,2,0:0:0:0:
64,192,23719,1,0,0:0:0:0:
320,192,23818,1,0,0:0:0:0:
192,192,23917,1,0,0:0:0:0:
320,192,24016,1,2,0:0:0:0:
448,192,24016,1,0,0:0:0:0:
64,192,24115,1,0,0:0:0:0:
192,192,24214,1,0,0:0:0:0:
320,192,24313,1,0,0:0:0:0:
64,192,24313,1,2,0:0:0:0:
448,192,24412,1,0,0:0:0:0:
64,192,24511,1,0,0:0:0:0:
192,192,24610,1,2,0:0:0:0:
448,192,24610,1,0,0:0:0:0:
320,192,24709,1,0,0:0:0:0:
448,192,24808,1,0,0:0:0:0:
64,192,24907,1,0,0:0:0:0:
192,192,24907,1,2,0:0:0:0:
320,192,25006,1,0,0:0:0:0:
448,192,25105,1,0,0:0:0:0:
64,192,25204,1,2,0:0:0:0:
320,192,25204,1,0,0:0:0:0:
192,192,25303,1,0,0:0:0:0:
64,192,25402,1,0,0:0:0:0:
192,192,25501,1,0,0:0:0:0:
320,192,25501,1,2,0:0:0:0:
448,192,25600,1,0,0:0:0:0:
320,192,25699,1,0,0:0:0:0:
64,192,25798,1,0,0:0:0:0:
192,192,25798,1,2,0:0:0:0:
320,192,25897,1,0,0:0:0:0:
448,192,25996,1,0,0:0:0:0:
64,192,26095,1,0,0:0:0:0:
320,192,26095,1,2,0:0:0:0:
192,192,26194,1,0,0:0:0:0:
320,192,26293,1,0,0:0:0:0:
192,192,26392,1,2,0:0:0:0:
320,192,26491,1,2,0:0:0:0:
448,192,26491,1,0,0:0:0:0:
64,192,26491,1,0,0:0:0:0:
320,192,26590,1,2,0:0:0:0:
448,192,26590,1,0,0:0:0:0:
64,192,26590,1,0,0:0:0:0:
320,192,26689,1,2,0:0:0:0:
448,192,26689,1,0,0:0:0:0:
64,192,26689,1,0,0:0:0:0:
448,192,26788,1,0,0:0:0:0:
192,192,26788,1,0,0:0:0:0:
64,192,26788,1,0,0:0:0:0:
320,192,26788,1,2,0:0:0:0:
64,192,27085,1,0,0:0:0:0:
192,192,27085,1,2,0:0:0:0:
448,192,27085,1,0,0:0:0:0:
448,192,27184,1,0,0:0:0:0:
64,192,27184,1,2,0:0:0:0:
192,192,27184,1,0,0:0:0:0:
448,192,27283,1,0,0:0:0:0:
64,192,27283,1,0,0:0:0:0:
192,192,27283,1,2,0:0:0:0:
320,192,27382,1,0,0:0:0:0:
192,192,27382,1,0,0:0:0:0:
448,192,27382,1,2,0:0:0:0:
64,192,27382,1,0,0:0:0:0:
320,192,27679,1,2,0:0:0:0:
192,192,27679,1,0,0:0:0:0:
448,192,27679,1,0,0:0:0:0:
320,192,27778,1,0,0:0:0:0:
192,192,27778,1,2,0:0:0:0:
448,192,27778,1,0,0:0:0:0:
320,192,27877,1,0,0:0:0:0:
192,192,27877,1,0,0:0:0:0:
448,192,27877,1,2,0:0:0:0:
64,192,27976,1,0,0:0:0:0:
448,192,27976,1,0,0:0:0:0:
320,192,27976,1,0,0:0:0:0:
192,192,27976,1,0,0:0:0:0:
448,192,28273,1,0,0:0:0:0:
64,192,28273,1,2,0:0:0:0:
320,192,28372,1,0,0:0:0:0:
448,192,28471,1,0,0:0:0:0:
192,192,28570,1,2,0:0:0:0:
64,192,28570,1,0,0:0:0:0:
320,192,28669,1,0,0:0:0:0:
192,192,28768,1,0,0:0:0:0:
448,192,28867,1,2,0:0:0:0:
64,192,28867,1,0,0:0:0:0:
320,192,28966,1,0,0:0:0:0:
192,192,29065,1,0,0:0:0:0:
448,192,29164,1,2,0:0:0:0:
64,192,29164,1,0,0:0:0:0:
320,192,29263,1,0,0:0:0:0:
192,192,29362,1,0,0:0:0:0:
448,192,29461,1,0,0:0:0:0:
320,192,29461,1,2,0:0:0:0:
192,192,29560,1,0,0:0:0:0:
64,192,29659,1,0,0:0:0:0:
320,192,29758,1,2,0:0:0:0:
448,192,29758,1,0,0:0:0:0:
192,192,29857,1,0,0:0:0:0:
64,192,29956,1,0,0:0:0:0:
192,192,30055,1,2,0:0:0:0:
448,192,30055,1,0,0:0:0:0:
320,192,30154,1,0,0:0:0:0:
192,192,30253,1,0,0:0:0:0:
64,192,30353,1,2,0:0:0:0:
320,192,30353,1,0,0:0:0:0:
192,192,30452,1,0,0:0:0:0:
64,192,30551,1,0,0:0:0:0:
320,192,30650,1,2,0:0:0:0:
448,192,30650,1,0,0:0:0:0:
192,192,30749,1,0,0:0:0:0:
64,192,30848,1,0,0:0:0:0:
320,192,30947,1,2,0:0:0:0:
448,192,30947,1,0,0:0:0:0:
192,192,31046,1,0,0:0:0:0:
64,192,31145,1,0,0:0:0:0:
192,192,31244,1,0,0:0:0:0:
320,192,31244,1,2,0:0:0:0:
64,192,31343,1,0,0:0:0:0:
192,192,31442,1,0,0:0:0:0:
320,192,31541,1,2,0:0:0:0:
448,192,31541,1,0,0:0:0:0:
192,192,31640,1,0,0:0:0:0:
320,192,31739,1,0,0:0:0:0:
64,192,31838,1,2,0:0:0:0:
448,192,31838,1,0,0:0:0:0:
192,192,31937,1,0,0:0:0:0:
320,192,32036,1,0,0:0:0:0:
64,192,32135,1,2,0:0:0:0:
448,192,32135,1,0,0:0:0:0:
320,192,32234,1,0,0:0:0:0:
192,192,32333,1,0,0:0:0:0:
448,192,32432,1,2,0:0:0:0:
320,192,32432,1,0,0:0:0:0:
192,192,32531,1,0,0:0:0:0:
64,192,32630,1,0,0:0:0:0:
448,192,32729,1,2,0:0:0:0:
320,192,32729,1,0,0:0:0:0:
192,192,32828,1,0,0:0:0:0:
64,192,32927,1,0,0:0:0:0:
448,192,33026,1,0,0:0:0:0:
192,192,33026,1,2,0:0:0:0:
320,192,33125,1,0,0:0:0:0:
192,192,33224,1,0,0:0:0:0:
64,192,33323,1,2,0:0:0:0:
320,192,33323,1,0,0:0:0:0:
192,192,33422,1,0,0:0:0:0:
320,192,33521,1,0,0:0:0:0:
448,192,33620,1,2,0:0:0:0:
64,192,33620,1,0,0:0:0:0:
320,192,33719,1,0,0:0:0:0:
192,192,33818,1,0,0:0:0:0:
64,192,33917,1,2,0:0:0:0:
448,192,33917,1,0,0:0:0:0:
320,192,34016,1,0,0:0:0:0:
192,192,34115,1,0,0:0:0:0:
448,192,34214,1,0,0:0:0:0:
320,192,34214,1,2,0:0:0:0:
64,192,34313,1,0,0:0:0:0:
192,192,34412,1,0,0:0:0:0:
64,192,34511,1,2,0:0:0:0:
448,192,34511,1,0,0:0:0:0:
320,192,34610,1,0,0:0:0:0:
448,192,34709,1,0,0:0:0:0:
64,192,34808,1,0,0:0:0:0:
192,192,34808,1,2,0:0:0:0:
320,192,34907,1,0,0:0:0:0:
448,192,35006,1,0,0:0:0:0:
64,192,35105,1,0,0:0:0:0:
192,192,35105,1,2,0:0:0:0:
320,192,35204,1,0,0:0:0:0:
448,192,35303,1,0,0:0:0:0:
320,192,35402,1,2,0:0:0:0:
64,192,35402,1,0,0:0:0:0:
192,192,35501,1,0,0:0:0:0:
64,192,35600,1,0,0:0:0:0:
320,192,35699,1,2,0:0:0:0:
448,192,35699,1,0,0:0:0:0:
192,192,35798,1,0,0:0:0:0:
64,192,35897,1,0,0:0:0:0:
192,192,35996,1,2,0:0:0:0:
448,192,35996,1,0,0:0:0:0:
320,192,36095,1,0,0:0:0:0:
192,192,36194,1,0,0:0:0:0:
448,192,36293,1,0,0:0:0:0:
320,192,36293,1,2,0:0:0:0:
192,192,36392,1,0,0:0:0:0:
320,192,36491,1,0,0:0:0:0:
64,192,36590,1,2,0:0:0:0:
448,192,36590,1,0,0:0:0:0:
320,192,36689,1,0,0:0:0:0:
192,192,36788,1,0,0:0:0:0:
64,192,36887,1,0,0:0:0:0:
320,192,36887,1,2,0:0:0:0:
192,192,36986,1,0,0:0:0:0:
64,192,37085,1,0,0:0:0:0:
320,192,37184,1,2,0:0:0:0:
448,192,37184,1,0,0:0:0:0:
192,192,37283,1,0,0:0:0:0:
64,192,37382,1,0,0:0:0:0:
320,192,37481,1,2,0:0:0:0:
448,192,37481,1,0,0:0:0:0:
192,192,37580,1,0,0:0:0:0:
64,192,37679,1,0,0:0:0:0:
448,192,37778,1,0,0:0:0:0:
192,192,37778,1,2,0:0:0:0:
320,192,37877,1,0,0:0:0:0:
192,192,37976,1,0,0:0:0:0:
64,192,38075,1,0,0:0:0:0:
320,192,38075,1,2,0:0:0:0:
192,192,38174,1,0,0:0:0:0:
64,192,38273,1,0,0:0:0:0:
192,192,38372,1,0,0:0:0:0:
448,192,38372,1,2,0:0:0:0:
320,192,38372,1,0,0:0:0:0:
192,192,38669,1,2,0:0:0:0:
448,192,38669,1,0,0:0:0:0:
320,192,38768,1,0,0:0:0:0:
448,192,38867,1,0,0:0:0:0:
192,192,38966,1,2,0:0:0:0:
64,192,38966,1,0,0:0:0:0:
320,192,39065,1,0,0:0:0:0:
192,192,39164,1,0,0:0:0:0:
64,192,39263,1,0,0:0:0:0:
320,192,39263,1,2,0:0:0:0:
192,192,39362,1,0,0:0:0:0:
64,192,39461,1,0,0:0:0:0:
320,192,39560,1,2,0:0:0:0:
448,192,39560,1,0,0:0:0:0:
192,192,39659,1,0,0:0:0:0:
320,192,39758,1,0,0:0:0:0:
192,192,39857,1,2,0:0:0:0:
448,192,39857,1,0,0:0:0:0:
64,192,39956,1,0,0:0:0:0:
192,192,40055,1,0,0:0:0:0:
64,192,40154,1,0,0:0:0:0:
448,192,40154,1,2,0:0:0:0:
320,192,40253,1,0,0:0:0:0:
448,192,40353,1,0,0:0:0:0:
64,192,40452,1,0,0:0:0:0:
192,192,40452,1,2,0:0:0:0:
320,192,40551,1,0,0:0:0:0:
192,192,40650,1,0,0:0:0:0:
64,192,40749,1,0,0:0:0:0:
320,192,40749,1,0,0:0:0:0:
448,192,40749,1,2,0:0:0:0:
