osu file format v14

[General]
AudioFilename: Champion Cynthia.mp3
AudioLeadIn: 0
PreviewTime: 2729
Countdown: 0
SampleSet: Soft
StackLeniency: 0.7
Mode: 3
LetterboxInBreaks: 0
SpecialStyle: 0
WidescreenStoryboard: 1

[Editor]
DistanceSpacing: 1.3
BeatDivisor: 3
GridSize: 8
TimelineZoom: 2.4

[Metadata]
Title:Champion Cynthia
TitleUnicode:チャンピオンシロナ
Artist:Go Ichinose
ArtistUnicode:一之瀬剛
Creator:Sinnoh
Version:EZ
Source:ポケットモンスター ダイヤモンド・パール
Tags:Pokemon Diamond Pearl Platinum Game Freak Nintendo Piano
BeatmapID:1448003
BeatmapSetID:683673

[Difficulty]
HPDrainRate:8
CircleSize:4
OverallDifficulty:8
ApproachRate:5
SliderMultiplier:1.4
SliderTickRate:1

[Events]
//Background and Video events
0,0,"nice reso.jpg",0,0
//Break Periods
//Storyboard Layer 0 (Background)
//Storyboard Layer 1 (Fail)
//Storyboard Layer 2 (Pass)
//Storyboard Layer 3 (Foreground)
//Storyboard Sound Samples

[TimingPoints]
353,297.029702970297,4,2,1,60,1,0

[HitObjects]
448,192,353,128,0,650:0:0:0:0:
320,192,650,1,2,0:0:0:0:
64,192,650,1,0,0:0:0:0:
192,192,947,128,0,1244:0:0:0:0:
320,192,1244,1,0,0:0:0:0:
448,192,1244,1,2,0:0:0:0:
64,192,1541,128,0,1838:0:0:0:0:
192,192,1838,1,2,0:0:0:0:
448,192,1838,1,0,0:0:0:0:
320,192,2135,128,0,2432:0:0:0:0:
64,192,2432,1,2,0:0:0:0:
448,192,2432,1,0,0:0:0:0:
192,192,2729,1,0,0:0:0:0:
448,192,3026,1,0,0:0:0:0:
320,192,3323,1,0,0:0:0:0:
64,192,3620,1,0,0:0:0:0:
192,192,3917,1,0,0:0:0:0:
64,192,4214,1,0,0:0:0:0:
320,192,4511,1,0,0:0:0:0:
448,192,4808,1,0,0:0:0:0:
64,192,5105,1,0,0:0:0:0:
192,192,5402,1,2,0:0:0:0:
448,192,5402,1,0,0:0:0:0:
320,192,5699,1,0,0:0:0:0:
64,192,5996,1,0,0:0:0:0:
192,192,5996,1,2,0:0:0:0:
448,192,6293,1,0,0:0:0:0:
320,192,6590,1,2,0:0:0:0:
192,192,6590,1,0,0:0:0:0:
64,192,6887,1,0,0:0:0:0:
320,192,7184,1,2,0:0:0:0:
448,192,7184,1,0,0:0:0:0:
192,192,7481,1,0,0:0:0:0:
64,192,7778,1,2,0:0:0:0:
448,192,7778,1,0,0:0:0:0:
320,192,8075,1,0,0:0:0:0:
192,192,8372,1,2,0:0:0:0:
448,192,8372,1,0,0:0:0:0:
64,192,8669,1,0,0:0:0:0:
448,192,8966,1,2,0:0:0:0:
320,192,8966,1,0,0:0:0:0:
192,192,9263,1,0,0:0:0:0:
64,192,9560,1,0,0:0:0:0:
320,192,9560,1,2,0:0:0:0:
192,192,9857,1,0,0:0:0:0:
64,192,10154,1,2,0:0:0:0:
448,192,10154,1,0,0:0:0:0:
320,192,10452,1,0,0:0:0:0:
192,192,10749,1,2,0:0:0:0:
448,192,10749,1,0,0:0:0:0:
64,192,11046,1,0,0:0:0:0:
192,192,11343,1,0,0:0:0:0:
320,192,11343,1,2,0:0:0:0:
448,192,11640,1,0,0:0:0:0:
64,192,11937,1,2,0:0:0:0:
320,192,11937,1,0,0:0:0:0:
192,192,12234,1,0,0:0:0:0:
320,192,12531,1,0,0:0:0:0:
448,192,12531,1,2,0:0:0:0:
64,192,12828,1,0,0:0:0:0:
192,192,13125,1,2,0:0:0:0:
448,192,13125,1,0,0:0:0:0:
320,192,13422,1,0,0:0:0:0:
192,192,13719,1,0,0:0:0:0:
64,192,13719,1,2,0:0:0:0:
448,192,14016,1,0,0:0:0:0:
320,192,14313,1,2,0:0:0:0:
192,192,14313,1,0,0:0:0:0:
64,192,14610,1,0,0:0:0:0:
192,192,14907,1,2,0:0:0:0:
448,192,14907,1,0,0:0:0:0:
320,192,15204,1,0,0:0:0:0:
64,192,15501,1,2,0:0:0:0:
448,192,15501,1,0,0:0:0:0:
192,192,15798,1,0,0:0:0:0:
320,192,16095,1,0,0:0:0:0:
448,192,16095,1,2,0:0:0:0:
64,192,16392,1,0,0:0:0:0:
192,192,16689,1,2,0:0:0:0:
320,192,16689,1,0,0:0:0:0:
448,192,16986,1,0,0:0:0:0:
192,192,17283,1,0,0:0:0:0:
64,192,17283,1,2,0:0:0:0:
320,192,17580,1,0,0:0:0:0:
448,192,17877,1,2,0:0:0:0:
192,192,17877,1,0,0:0:0:0:
320,192,18174,1,0,0:0:0:0:
448,192,18471,1,0,0:0:0:0:
64,192,18471,1,2,0:0:0:0:
192,192,18768,1,0,0:0:0:0:
320,192,19065,1,2,0:0:0:0:
64,192,19065,1,0,0:0:0:0:
64,192,19362,1,0,0:0:0:0:
448,192,19857,1,0,0:0:0:0:
320,192,20154,1,0,0:0:0:0:
192,192,20452,1,0,0:0:0:0:
64,192,20749,1,0,0:0:0:0:
320,192,21046,1,0,0:0:0:0:
192,192,21343,1,0,0:0:0:0:
64,192,21640,1,0,0:0:0:0:
192,192,21937,1,0,0:0:0:0:
320,192,22234,1,0,0:0:0:0:
448,192,22333,1,2,0:0:0:0:
64,192,22333,1,0,0:0:0:0:
320,192,22630,1,0,0:0:0:0:
192,192,22630,1,2,0:0:0:0:
64,192,22927,1,0,0:0:0:0:
320,192,23422,1,0,0:0:0:0:
192,192,23719,1,0,0:0:0:0:
64,192,24016,1,0,0:0:0:0:
448,192,24313,1,0,0:0:0:0:
320,192,24610,1,0,0:0:0:0:
192,192,24907,1,0,0:0:0:0:
64,192,25204,1,0,0:0:0:0:
192,192,25501,1,0,0:0:0:0:
320,192,25798,1,0,0:0:0:0:
448,192,26095,1,0,0:0:0:0:
192,192,26392,1,0,0:0:0:0:
320,192,26491,128,2,26788:0:0:0:0:
448,192,26788,1,0,0:0:0:0:
192,192,26788,1,2,0:0:0:0:
64,192,27085,128,2,27382:0:0:0:0:
320,192,27382,1,2,0:0:0:0:
192,192,27382,1,0,0:0:0:0:
448,192,27679,128,2,27976:0:0:0:0:
192,192,27976,1,2,0:0:0:0:
64,192,27976,1,0,0:0:0:0:
448,192,28273,1,0,0:0:0:0:
192,192,28570,1,0,0:0:0:0:
320,192,28867,1,0,0:0:0:0:
320,192,29164,1,0,0:0:0:0:
192,192,29461,1,0,0:0:0:0:
192,192,29758,1,0,0:0:0:0:
448,192,30055,1,0,0:0:0:0:
448,192,30353,1,0,0:0:0:0:
320,192,30650,1,0,0:0:0:0:
320,192,30947,1,0,0:0:0:0:
192,192,31244,1,0,0:0:0:0:
192,192,31541,1,0,0:0:0:0:
64,192,31838,1,0,0:0:0:0:
64,192,32135,1,0,0:0:0:0:
320,192,32432,1,0,0:0:0:0:
320,192,32729,1,0,0:0:0:0:
192,192,33026,1,0,0:0:0:0:
192,192,33323,1,0,0:0:0:0:
448,192,33620,1,0,0:0:0:0:
448,192,33917,1,0,0:0:0:0:
64,192,34214,1,0,0:0:0:0:
448,192,34511,1,0,0:0:0:0:
192,192,34808,1,0,0:0:0:0:
192,192,35105,1,0,0:0:0:0:
448,192,35402,1,0,0:0:0:0:
320,192,35699,1,0,0:0:0:0:
192,192,35996,1,0,0:0:0:0:
64,192,36293,1,0,0:0:0:0:
448,192,36590,1,0,0:0:0:0:
192,192,36887,1,0,0:0:0:0:
320,192,37184,1,0,0:0:0:0:
320,192,37481,1,0,0:0:0:0:
64,192,37778,1,0,0:0:0:0:
64,192,38075,1,0,0:0:0:0:
64,192,38372,1,0,0:0:0:0:
448,192,38669,1,0,0:0:0:0:
320,192,38966,1,0,0:0:0:0:
192,192,39263,1,0,0:0:0:0:
64,192,39560,1,0,0:0:0:0:
448,192,39857,1,0,0:0:0:0:
64,192,40154,1,0,0:0:0:0:
192,192,40452,1,0,0:0:0:0:
320,192,40749,1,0,0:0:0:0:
448,192,40749,1,0,0:0:0:0:
