osu file format v9

[General]
AudioFilename: .mp3
AudioLeadIn: 1000
PreviewTime: 41712
Countdown: 0
SampleSet: Normal
StackLeniency: 0.7
Mode: 0
LetterboxInBreaks: 1

[Editor]
DistanceSpacing: 0.8
BeatDivisor: 4
GridSize: 4

[Metadata]
Title:Babylon
Artist:Glutamine
Creator:CSY the corrupt
Version:Normal
Source:
Tags:Hatsune Miku BakaHuang huang99520 Touma

[Difficulty]
HPDrainRate:3
CircleSize:4
OverallDifficulty:3
ApproachRate:4
SliderMultiplier:0.999999904632569
SliderTickRate:1

[Events]
//Background and Video events
0,0,"BG.jpg"
//Break Periods
2,27335,35286
2,52543,61187
2,94164,100512
2,121832,131004
//Storyboard Layer 0 (Background)
//Storyboard Layer 1 (Fail)
//Storyboard Layer 2 (Pass)
//Storyboard Layer 3 (Foreground)
//Storyboard Sound Samples
//Background Colour Transformations
3,100,163,162,255

[TimingPoints]
1404,322.58064516129,4,2,1,70,1,0
6565,-100,4,1,1,80,0,0
27335,521.739130434783,4,1,1,70,1,0
36606,327.868852459016,4,1,1,80,1,0
41851,-100,4,1,1,85,0,1
42179,-100,4,1,1,82,0,0
46442,-100,4,1,1,85,0,0
47097,-100,4,1,1,85,0,1
47425,-100,4,1,1,82,0,0
52015,-100,4,1,1,70,0,0
53983,-100,4,1,1,80,0,0
62507,327.868852459016,4,1,1,80,1,0
82179,-100,4,1,1,40,0,0
83162,-100,4,1,1,80,0,0
83490,-100,4,1,1,85,0,1
83818,-100,4,1,1,82,0,0
88080,-100,4,1,1,85,0,0
88736,-100,4,1,1,85,0,1
89064,-100,4,1,1,82,0,0
92670,-100,4,1,1,70,0,0
93964,327.868852459016,3,1,1,75,1,0
93964,-133.333333333333,3,1,1,75,0,0
105439,-100,3,1,1,80,0,0
110029,327.868852459016,4,1,1,80,1,0
115274,-100,4,1,1,70,0,0
119373,-100,4,1,1,80,0,0
140848,-100,4,1,1,50,0,0
141176,-100,4,1,1,80,0,0
141504,-100,4,1,1,50,0,0
141832,-100,4,1,1,80,0,0
142160,-100,4,1,1,50,0,0
142815,-100,4,1,1,80,0,0
144345,-100,4,1,1,81,0,0
144564,-100,4,1,1,83,0,0
144783,-100,4,1,1,85,0,0
145438,-100,4,1,1,85,0,1
145766,-100,4,1,1,82,0,0
150028,-100,4,1,1,85,0,0
150684,-100,4,1,1,85,0,1
151012,-100,4,1,1,82,0,0
154619,-100,4,1,1,75,0,0
154947,-100,4,1,1,80,0,0
155274,-100,4,1,1,85,0,0
155602,-66.6666666666667,4,1,1,90,0,0
155930,-66.6666666666667,4,1,1,50,0,0
160520,-100,4,1,1,85,0,0
161176,-100,4,1,1,85,0,1
161504,-100,4,1,1,82,0,0
163799,-100,4,1,1,80,0,0
166455,322.58064516129,4,1,1,85,1,1
175487,-100,4,1,1,82,0,1
175971,-100,4,1,1,79,0,1
176132,-100,4,1,1,76,0,1
176455,-100,4,1,1,73,0,1
176777,-100,4,1,1,70,0,0

[Colours]
Combo1 : 196,0,0
Combo2 : 0,128,64
Combo3 : 213,217,166

[HitObjects]
88,80,1404,2,0,B|288:80,1,199.999980926514,2|0
264,280,2694,2,0,B|346:224|346:224|367:126,1,199.999980926514
176,192,3984,5,2
176,192,4629,1,0
256,192,5274,12,4,6565
368,304,6887,6,0,B|368:200,1,99.9999904632569
288,224,7533,2,0,B|288:344,1,99.9999904632569
208,312,8178,2,0,B|208:192,1,99.9999904632569
208,212,8823,1,0
136,184,9145,6,0,B|160:144|160:144|218:133,1,99.9999904632569,0|2
296,136,9791,2,2,B|376:136,1,49.9999952316285,2|0
424,136,10274,1,2
424,56,10597,1,0
344,56,10920,1,0
264,56,11242,1,0
184,56,11565,6,0,B|104:56,1,49.9999952316285,0|2
88,120,12049,2,2,B|48:168|48:168|48:264,1,149.999985694885,2|0
128,280,12855,1,2
208,280,13178,1,2
288,280,13500,1,2
368,280,13823,2,0,B|480:272|440:136,1,149.999985694885
448,96,14629,6,2,B|384:32,1,49.9999952316285,2|0
336,64,15113,2,0,B|300:99,1,49.9999952316285,0|0
256,166,15597,2,0,B|256:253,2,74.9999928474427
256,166,16242,1,0
181,194,16565,6,0,B|141:194|141:194|109:194|109:154,1,99.9999904632569
181,114,17210,1,0
181,33,17533,2,0,B|221:33|221:33|253:33|253:73,1,99.9999904632569
264,152,18178,2,0,B|264:264,1,99.9999904632569
264,336,18823,1,2
344,336,19145,1,0
344,256,19468,1,0
344,96,20113,6,0,B|344:144,1,49.9999952316285
456,96,20758,2,0,B|456:152,1,49.9999952316285
448,264,21403,2,0,B|344:264,1,99.9999904632569
288,208,22049,6,0,B|250:176|250:176|203:213,1,99.9999904632569,0|0
160,264,22694,2,0,B|122:296|122:296|75:259,1,99.9999904632569,0|0
80,184,23339,1,0
80,104,23662,1,0
152,72,23984,2,2,B|200:48|200:48|264:48,1,99.9999904632569,2|0
328,48,24629,6,0,B|384:48,1,49.9999952316285
424,160,25274,2,8,B|376:160,1,49.9999952316285,0|8
304,256,25920,2,0,B|352:256,1,49.9999952316285
233,258,26565,6,0,B|153:258,2,74.9999928474427
240,72,36606,6,0,B|368:72,1,99.9999904632569
384,136,37261,2,2,B|304:200,1,99.9999904632569,2|0
224,200,37917,2,0,B|184:160|184:160|120:160,1,99.9999904632569
152,240,38573,1,0
152,240,38901,1,0
200,304,39228,6,0,B|280:304,1,49.9999952316285
368,304,39884,2,0,B|320:304,1,49.9999952316285,8|0
440,304,40540,2,0,B|436:257|436:257|388:234,1,99.9999904632569
388,234,41196,1,0
256,144,41851,6,2,B|256:244,1,99.9999904632569,2|0
176,248,42507,1,0
176,208,42671,1,0
176,128,42999,2,0,B|152:128|152:128|104:144|96:192|96:192|96:256,1,149.999985694885
96,312,43819,2,0,B|96:320|96:320|96:344|128:344|128:344|192:344,1,99.9999904632569
256,344,44474,5,0
336,344,44802,1,2
376,344,44966,2,0,B|440:344,2,49.9999952316285,0|0|2
376,264,45622,2,2,B|376:152,1,99.9999904632569,2|0
368,128,46114,2,0,B|360:80|360:80|312:32,1,99.9999904632569
240,40,46769,1,8
160,56,47097,5,2
160,56,47425,2,2,B|104:80|104:80|64:144,1,99.9999904632569,0|2
64,152,47917,2,0,B|48:200|48:200|48:280,1,99.9999904632569
88,320,48573,2,0,B|136:352|136:352|200:352,1,99.9999904632569,0|2
224,344,49065,2,0,B|208:296|208:296|168:264,1,99.9999904632569
240,224,49720,6,0,B|278:254|278:254|294:302,1,99.9999904632569
360,256,50376,1,2
360,176,50704,1,0
360,96,51032,2,0,B|472:96,1,99.9999904632569,8|0
456,176,51687,2,0,B|456:280,1,99.9999904632569,8|0
456,276,52343,1,4
376,160,62507,6,0,B|264:160,1,99.9999904632569
200,160,63162,2,0,B|96:160,1,99.9999904632569
120,240,63818,1,0
152,312,64146,1,0
232,312,64474,2,2,B|352:312,1,99.9999904632569,2|0
332,312,65129,5,4
332,312,65457,1,0
408,312,65785,1,0
408,312,66113,1,0
424,232,66441,2,0,B|456:200|472:152|432:104|368:96|328:152,2,199.999980926514,0|0|4
424,232,68080,5,0
344,232,68408,1,2
264,232,68736,1,0
184,216,69064,2,0,B|152:176|152:176|152:120,1,99.9999904632569
232,144,69720,2,2,B|232:95|232:95|200:55,1,99.9999904632569,2|0
272,32,70375,5,2
352,32,70703,1,0
432,32,71031,1,0
512,32,71359,1,0
472,104,71687,6,0,B|424:112|424:112|360:184,1,99.9999904632569
408,232,72343,2,0,B|384:280|384:280|384:336,1,99.9999904632569
384,326,72998,5,4
384,326,73326,1,0
304,328,73654,2,0,B|184:328,1,99.9999904632569
136,288,74310,1,0
208,248,74638,1,0
288,248,74966,2,0,B|272:200|272:200|216:168,1,99.9999904632569
152,184,75621,5,4
80,144,75949,1,0
8,104,76277,2,0,B|48:72|48:72|136:64,1,99.9999904632569
176,72,76933,1,0
256,72,77261,1,0
336,72,77588,2,0,B|456:72,1,99.9999904632569
464,152,78244,6,0,B|480:240|480:240|408:328,1,199.999980926514
336,296,79228,2,0,B|408:208,1,99.9999904632569
328,176,79884,1,0
280,240,80211,1,0
232,304,80539,1,0
152,312,80867,2,0,B|104:312|104:312|56:264,1,99.9999904632569
60,196,81523,2,0,B|108:196|108:196|156:244,1,99.9999904632569
224,224,82179,5,0
224,144,82506,1,0
224,64,82834,1,0
304,64,83162,1,8
304,144,83490,6,2,B|304:244,1,99.9999904632569,2|0
384,248,84146,1,0
384,208,84310,1,0
384,128,84638,2,0,B|408:128|408:128|456:144|464:192|464:192|464:256,1,149.999985694885
464,312,85458,2,0,B|464:320|464:320|464:344|432:344|432:344|368:344,1,99.9999904632569
304,344,86113,5,0
224,344,86441,1,2
184,344,86605,2,0,B|120:344,2,49.9999952316285,0|0|2
184,264,87261,2,2,B|184:152,1,99.9999904632569,2|0
184,128,87752,2,0,B|192:80|192:80|240:32,1,99.9999904632569
312,40,88407,1,8
392,56,88735,5,2
392,56,89063,2,0,B|448:80|448:80|488:144,1,99.9999904632569,0|2
488,152,89555,2,0,B|504:200|504:200|504:280,1,99.9999904632569
464,320,90211,2,0,B|416:352|416:352|352:352,1,99.9999904632569
336,344,90704,2,2,B|352:296|352:296|392:264,1,99.9999904632569,2|0
320,224,91359,6,0,B|282:254|282:254|266:302,1,99.9999904632569
200,256,92015,1,0
200,176,92343,1,0
200,96,92671,2,0,B|304:96,1,99.9999904632569,8|0
384,96,93326,2,0,B|384:200,1,99.9999904632569,8|0
384,196,93964,5,12
384,192,101832,6,0,B|288:192,1,74.9999906122688,4|8
264,152,102488,1,0
304,112,102816,2,0,B|400:112,1,74.9999906122688,4|8
424,152,103472,1,0
472,192,103800,2,0,B|472:288,1,74.9999906122688,4|4
440,312,104455,2,0,B|400:336|400:336|368:336,1,74.9999906122688,0|0
312,336,105111,1,0
232,336,105439,5,2
152,336,105767,2,2,B|112:296|112:296|112:232,1,99.9999904632569,2|0
192,256,106423,1,0
256,208,106750,2,2,B|224:176|224:176|168:176,1,99.9999904632569,2|2
88,184,107406,2,2,B|104:136|104:136|160:96,1,99.9999904632569,2|2
144,107,108062,1,2
144,107,108390,1,2
224,104,108718,6,2,B|336:104,1,99.9999904632569,2|0
360,176,109373,2,2,B|256:176,1,99.9999904632569,2|0
256,192,110029,12,0,112324
176,184,112651,6,0,B|176:112|256:112,1,99.9999904632569
256,192,113307,1,0
256,192,113635,1,0
336,200,113963,6,2,B|336:272|256:272,1,99.9999904632569,2|2
256,192,114619,1,2
256,192,114947,1,2
256,192,115274,12,0,118881
80,168,119373,6,0,B|120:120|120:120|176:120|176:120|208:80,1,149.999985694885
272,96,120192,2,0,B|320:96,1,49.9999952316285,8|0
360,168,120684,2,0,B|312:168,1,49.9999952316285,8|0
228,168,121176,1,0
84,88,132324,6,0,B|188:88,1,99.9999904632569,4|0
264,88,132979,1,0
344,88,133307,1,0
344,164,133635,6,0,B|240:164,1,99.9999904632569
164,164,134291,1,0
84,164,134619,1,0
84,244,134947,5,0
84,324,135274,1,0
164,324,135602,1,0
244,324,135930,1,0
260,244,136258,6,0,B|144:244,1,99.9999904632569
108,184,136914,2,0,B|176:112,1,99.9999904632569
256,104,137569,6,0,B|376:104,1,99.9999904632569
408,168,138225,2,0,B|432:216|432:216|400:288,1,99.9999904632569
368,320,138881,1,0
288,320,139209,1,0
208,320,139537,1,0
152,264,139865,2,0,B|133:221|133:221|157:173,1,99.9999904632569
200,112,140520,6,0,B|280:24,1,99.9999904632569
336,80,141176,2,0,B|248:176,1,99.9999904632569
336,200,141832,2,0,B|424:104,2,99.9999904632569
280,256,142815,5,0
120,256,143471,1,0
120,96,144127,6,0,B|224:96,2,99.9999904632569,2|0|2
120,256,145438,6,2,B|240:256,1,99.9999904632569,2|0
232,176,146094,1,2
272,176,146258,1,0
296,256,146586,2,0,B|320:256|320:256|368:240|376:192|376:192|376:128,1,149.999985694885
376,72,147406,2,0,B|376:64|376:64|376:40|344:40|344:40|280:40,1,99.9999904632569
216,40,148061,5,0
136,40,148389,1,2
96,40,148553,2,0,B|32:40,2,49.9999952316285,0|0|2
96,120,149209,2,2,B|96:232,1,99.9999904632569,2|0
104,256,149701,2,0,B|112:304|112:304|160:352,1,99.9999904632569
232,344,150356,1,8
312,328,150684,5,2
312,328,151012,2,0,B|368:304|368:304|408:240,1,99.9999904632569,0|2
408,232,151504,2,0,B|424:184|424:184|424:104,1,99.9999904632569
384,64,152160,2,0,B|336:32|336:32|272:32,1,99.9999904632569,0|2
248,40,152652,2,0,B|264:88|264:88|304:120,1,99.9999904632569
232,160,153307,6,0,B|194:130|194:130|178:82,1,99.9999904632569,4|0
112,128,153963,1,0
112,208,154291,1,0
112,288,154619,2,0,B|216:288,1,99.9999904632569
296,288,155274,2,2,B|440:288,1,99.9999904632569,2|2
256,192,155930,12,0,157569
256,192,157897,12,0,160192
328,152,160520,6,0,B|373:128|373:128|429:158,1,99.9999904632569
416,232,161176,2,2,B|371:256|371:256|315:226,1,99.9999904632569,2|0
256,192,161832,1,2
216,192,161996,1,0
136,192,162324,2,0,B|136:232|160:264|192:280|264:264,1,149.999985694885
320,272,163143,2,0,B|312:320|272:352|216:344,1,99.9999904632569
176,344,163799,6,0,B|120:344,1,49.9999952316285
64,296,164291,2,0,B|48:248,1,49.9999952316285
48,168,164783,2,0,B|88:96,1,49.9999952316285
136,80,165274,2,0,B|200:80,1,49.9999952316285
264,80,165766,5,0
432,56,166455,5,0
432,56,166777,2,0,B|432:160,1,99.9999904632569
356,136,167423,2,0,B|356:16,1,99.9999904632569
280,56,168068,2,0,B|280:176,1,99.9999904632569
200,172,168713,1,0
128,200,169035,6,0,B|152:240|152:240|210:251,1,99.9999904632569
288,248,169681,2,0,B|368:248,1,49.9999952316285
416,248,170164,1,0
416,328,170487,1,0
336,328,170810,1,0
256,328,171132,1,0
176,328,171455,6,0,B|96:328,1,49.9999952316285,0|2
80,264,171939,2,2,B|40:216|40:216|40:120,1,149.999985694885,2|0
120,104,172745,1,2
200,104,173068,1,2
280,104,173390,1,2
360,104,173713,2,2,B|472:112|432:248,1,149.999985694885,2|2
440,288,174519,6,0,B|376:352,1,49.9999952316285
328,320,175003,2,0,B|292:285,1,49.9999952316285,0|0
236,228,175487,2,0,B|144:228,2,74.9999928474427
236,228,176132,1,0
236,148,176455,1,0
236,68,176777,1,8
